osu file format v9

[General]
AudioFilename: Kazoku_ending.mp3
AudioLeadIn: 1985
PreviewTime: 56052
Countdown: 0
SampleSet: Normal
StackLeniency: 0.7
Mode: 0
LetterboxInBreaks: 1

[Editor]
DistanceSpacing: 0.8
BeatDivisor: 2
GridSize: 8

[Metadata]
Title:Toshokan dewa Oshiete Kurenai (TV Size)
Artist:Mai Mizuhashi
Creator:roflninja
Version:Normal
Source:Kamisama Kazoku
Tags:Lanttu aabc271 wmfchris

[Difficulty]
HPDrainRate:3
CircleSize:3
OverallDifficulty:5
ApproachRate:5
SliderMultiplier:1.1
SliderTickRate:1

[Events]
//Background and Video events
Video,-705,"Kamisama Kazoku (Ending) avi.avi"
0,0,"background.png"
//Break Periods
//Storyboard Layer 0 (Background)
//Storyboard Layer 1 (Fail)
//Storyboard Layer 2 (Pass)
//Storyboard Layer 3 (Foreground)
//Storyboard Sound Samples
//Background Colour Transformations
3,100,163,162,255

[TimingPoints]
550,402.414486921529,4,1,0,100,1,0
3512,-100,4,2,0,100,0,0
23043,-100,4,2,0,100,0,1
23144,-100,4,2,0,100,0,0
56871,-100,4,2,0,100,0,1
62106,-100,4,2,0,100,0,0
63314,-100,4,2,0,100,0,1
69354,-100,4,2,0,100,0,0
69757,-100,4,2,0,100,0,1
75395,-100,4,2,0,100,0,0
75996,-100,4,2,0,0,0,0
77003,-100,4,2,0,100,0,0
77607,-100,4,2,0,0,0,0
78614,-100,4,2,0,100,0,0
80829,-100,4,1,0,100,0,0
82842,-100,4,2,0,100,0,0
88278,-100,4,1,0,100,0,0
88782,-100,4,2,0,100,0,0

[Colours]
Combo1 : 240,240,240
Combo2 : 239,116,230
Combo3 : 24,123,243
Combo4 : 200,4,4

[HitObjects]
112,128,550,1,0
200,128,952,1,0
154,203,1354,1,0
242,203,1757,1,0
330,203,2159,6,0,B|330:59,1,110
418,93,2964,2,0,B|418:229,1,110
418,291,3769,6,0,B|290:291,1,110,2|0
219,291,4574,1,2
130,291,4976,1,0
42,291,5378,2,0,B|10:227|58:171,3,110,2|0|2|0
108,124,6988,6,0,B|228:60,1,110,2|0
293,72,7793,1,2
381,72,8195,1,0
381,72,8397,2,2,B|450:163|354:259,1,165
352,255,9201,1,0
352,343,9604,6,0,B|440:343,3,55
448,264,10610,5,0
472,176,11012,2,0,B|472:57,1,110
381,38,11817,1,0
381,38,12018,2,0,B|254:37,1,110
226,37,12622,6,2,B|162:93|274:141|186:213,1,165
177,221,13427,6,0,B|81:309,1,110
33,233,14232,2,0,B|-55:113|65:25,2,220,2|2|2
112,192,16244,5,0
174,129,16646,1,4
236,66,17048,6,0,B|332:162,1,110,0|2
251,206,17853,1,0
313,268,18256,2,0,B|217:364,1,110,2|0
160,304,19061,6,2,B|104:256|218:233|112:168,1,110
152,115,19865,5,0
214,52,20268,1,2
296,32,20670,2,0,B|408:32,2,110,0|2|0
296,120,21877,2,0,B|296:248,1,110,2|0
171,105,23085,5,4
108,167,23487,1,4
170,229,23890,1,4
232,166,24292,1,4
320,166,24694,6,0,B|448:166,2,110,0|2|0
320,254,25902,1,2
320,254,26103,2,2,B|288:350|168:334,1,165,0|4
104,336,27109,6,0,B|104:160,1,165
56,96,28115,2,2,B|192:96,3,110,2|2|2|4
208,176,29725,6,0,B|280:136|304:224|384:160,1,165
384,88,30731,1,2
295,88,31133,2,0,B|223:48|199:136|119:72,1,165,0|4
43,177,32340,5,2
40,264,32743,2,0,B|136:360,1,110,0|2
205,341,33547,2,0,B|301:245,2,110,0|2|0
160,264,34755,5,0
176,176,35157,1,2
240,112,35560,1,0
328,96,35962,1,4
416,104,36364,6,0,B|512:32,2,110,0|2|0
353,166,37572,1,2
424,224,37974,2,0,B|520:296,2,110,0|2|0
344,280,39181,6,0,B|192:280,1,110,2|0
168,336,39986,2,2,B|96:248|224:216|160:120,1,220
103,67,41193,1,4
191,67,41596,5,2
279,67,41998,1,0
367,67,42401,2,2,B|496:256,1,220,0|4
428,310,43608,1,0
339,310,44010,5,2
250,310,44413,2,0,B|130:310,3,110,0|2|0|2
52,310,46022,1,0
256,192,46224,12,4,48034
194,255,48839,6,4,B|98:351,2,110,0|2|4
225,223,49845,1,8
225,223,50046,1,8
304,256,50449,2,0,B|400:352,2,110,0|2|4
224,216,51656,5,0
192,184,51857,2,2,B|144:120|256:80|176:0,1,165
288,24,52863,2,2,B|352:96|216:152|328:208,1,165
256,192,53668,12,4,56083
208,192,56888,6,0,B|264:152|336:208,2,110,8|0|8
177,320,58296,2,0,B|264:360|352:320,1,165,8|8
424,288,59302,5,0
480,224,59704,1,8
496,136,60107,2,0,B|496:56|424:32,1,110,0|8
360,40,60912,2,0,B|360:160,3,110,0|8|0|8
360,237,62521,5,2
271,237,62924,1,4
182,237,63326,6,0,B|182:365,2,110,8|0|8
104,200,64533,1,0
40,144,64936,6,0,B|16:64|104:40,1,110,8|0
163,50,65741,1,8
251,50,66143,1,0
336,48,66545,2,0,B|440:136|328:248,1,220,8|8
280,304,67753,5,0
368,304,68155,2,0,B|504:304,2,110,8|0|8
279,304,69362,1,4
190,304,69765,6,0,B|72:304,2,110,8|0|8
190,215,70972,1,0
190,215,71173,2,2,B|312:168|432:224,1,220,0|4
493,212,72380,6,0,B|477:116|336:112,1,165,2|0
286,115,73387,1,2
152,112,73990,2,0,B|-16:112|-16:352|168:352,1,385
243,357,75801,1,4
296,288,76203,6,0,B|368:288|408:224,2,110,0|0|0
207,288,77411,1,0
119,288,77813,2,0,B|47:288|7:224,2,110,0|0|0
207,288,79020,1,0
295,288,79423,6,8,B|423:288,1,110
405,199,80228,2,8,B|405:89,1,110
317,89,81032,2,0,B|181:89,4,110
405,89,83044,5,2
368,168,83447,1,0
312,232,83849,1,2
232,264,84252,2,0,B|149:298|97:246,2,110,0|2|0
176,192,85459,5,0
176,192,85660,2,2,B|176:72,1,110
176,37,86264,1,0
264,56,86666,1,2
336,104,87069,1,0
360,144,87270,6,2,B|392:264|264:304,1,165
224,312,88276,1,0
224,312,88477,2,0,B|144:312,2,55,4|0|4
