osu file format v9

[General]
AudioFilename: time after time.mp3
AudioLeadIn: 0
PreviewTime: 54223
Countdown: 0
SampleSet: Soft
StackLeniency: 0.5
Mode: 0
LetterboxInBreaks: 0

[Editor]
Bookmarks: 20432,148069
DistanceSpacing: 0
BeatDivisor: 4
GridSize: 8

[Metadata]
Title:Time After Time~Hana Mau Machi de~ Theatre Ver.
Artist:Mai Kuraki
Creator:qinche
Version:Normal
Source:Case Closed Movie
Tags:Detective Conan if I believe

[Difficulty]
HPDrainRate:3
CircleSize:4
OverallDifficulty:4
ApproachRate:5
SliderMultiplier:1.60000000596046
SliderTickRate:1

[Events]
//Background and Video events
0,0,"bg.jpg"
//Break Periods
2,78625,90095
2,148302,149483
//Storyboard Layer 0 (Background)
//Storyboard Layer 1 (Fail)
//Storyboard Layer 2 (Pass)
//Storyboard Layer 3 (Foreground)
//Storyboard Sound Samples
//Background Colour Transformations
3,100,255,162,162

[TimingPoints]
21658,645.161290322581,4,2,1,40,1,0
41940,-100,4,2,0,40,0,0
51792,-100,4,2,0,0,0,0
54169,-100,4,2,1,70,0,0
90650,-100,4,2,1,40,0,0
110972,-100,4,2,0,40,0,0
121660,-100,4,2,0,0,0,0
123846,-100,4,2,1,60,0,0

[Colours]
Combo1 : 243,71,71
Combo2 : 255,225,225
Combo3 : 188,52,52
Combo4 : 255,176,172

[HitObjects]
176,136,21657,2,0,B|256:104|336:136,1,160,2|0
256,192,22625,1,0
336,248,22948,2,0,B|256:280|176:248,1,160.000000596046,2|0
256,192,23916,1,0
256,192,24238,2,0,B|256:80,1,80.0000002980232,2|0
176,104,24883,2,0,B|256:72|336:104,2,160.000000596046,0|2|0
312,112,26819,6,0,B|344:192|312:272,1,160.000000596046,2|0
256,192,27787,1,0
198,268,28109,2,0,B|168:192|200:112,1,160.000000596046,2|0
256,192,29077,1,0
256,192,29399,2,0,B|368:192,1,80.0000002980232,2|0
336,112,30045,2,0,B|368:192|336:272,2,160.000000596046,0|2|0
336,112,31657,5,0
336,112,31980,2,0,B|176:112,1,160.000000596046,2|0
176,200,32948,1,0
176,200,33270,2,0,B|344:200,1,160.000000596046,2|0
336,288,34238,1,0
336,288,34561,2,0,B|168:288,2,160.000000596046,2|0|2
336,288,36174,2,0,B|416:216|336:152,1,160.000000596046
338,153,37141,6,0,B|290:65|338:1,2,160.000000596046,2|2|2
176,224,39077,5,0
175,223,39722,2,0,B|224:312|176:376,2,160.000001192093,2|0|10
176,64,41657,5,0
336,64,42303,2,0,B|496:64,1,160.000001192093,8|8
352,168,43593,2,0,B|520:168,1,160.000001192093,8|8
368,272,44883,2,0,B|200:272,1,160.000001192093,8|8
352,168,46174,2,0,B|168:168,1,160.000001192093,8|8
96,168,47141,5,0
96,168,47303,1,0
96,168,47464,2,0,B|96:248,1,80.0000005960464,8|0
192,280,48109,2,0,B|264:312|352:280,1,160.000001192093,8|8
440,248,49077,2,0,B|440:160,1,80.0000005960464,0|8
368,104,49722,5,0
336,104,49883,1,0
304,104,50045,2,0,B|200:104,1,80.0000005960464,8|0
128,104,50690,2,0,B|64:168|128:248,1,160.000001192093,8|8
128,248,51657,1,0
256,192,51980,8,0,53916
344,248,54238,6,0,B|344:168,2,80.0000005960464,2|0|0
232,248,55206,2,0,B|152:272|72:248,1,160.000001192093,6|0
112,160,56174,2,0,B|152:176|192:160,1,80.0000005960464,2|0
304,160,56819,6,0,B|384:160,2,80.0000005960464,2|0|0
216,88,57787,2,0,B|176:168|224:240,1,160.000001192093,6|0
128,272,58754,2,0,B|144:312|192:320,1,80.0000005960464,2|0
304,320,59399,5,2
408,296,59722,1,0
472,216,60045,1,0
448,112,60367,2,0,B|400:40,1,80.0000005960464,6|0
288,32,61012,2,0,B|336:96,1,80.0000005960464,2|0
368,184,61657,2,0,B|304:224|208:208,1,160.000001192093,2|0
213,208,62625,1,0
152,136,62948,2,0,B|88:208|152:280,2,160.000001192093,6|2|6
152,136,64561,5,2
152,136,64883,2,0,B|216:72|152:-8,2,160.000001192093,0|6|0
240,200,66496,1,0
328,264,66819,1,2
416,328,67141,5,2
416,328,67464,2,0,B|352:256|416:184,2,160.000001192093,0|6|0
328,264,69077,1,0
240,200,69399,2,0,B|344:120|464:200,1,240.000001788139,2|0
374,249,70690,2,0,B|256:328|152:248,1,240.000001788139,6|0
152,248,71819,1,0
152,248,71980,6,0,B|152:136,1,80.0000005960464,2|0
232,88,72625,2,0,B|232:168,1,80.0000005960464,6|0
312,248,73270,2,0,B|312:72,1,160.000001192093,6|2
152,88,74561,2,0,B|152:256,1,160.000001192093,6|2
256,192,75851,12,0,78432
152,96,91335,6,0,B|152:192|256:192,1,160.000001192093,2|0
253,191,92303,5,0
352,176,92625,2,0,B|352:280|256:280,1,160.000001192093,2|0
256,192,93593,1,0
256,192,93916,6,0,B|256:76,2,80.0000005960464,2|0|0
256,192,94883,2,0,B|254:272,2,80.0000005960464,0|2|0
256,192,95851,1,0
336,96,96496,6,0,B|256:128|176:96,1,160.000001192093,2|0
176,192,97464,1,0
176,288,97787,2,0,B|256:256|336:288,1,160.000001192093,2|0
336,192,98754,1,0
336,96,99077,2,0,B|256:72|176:96,3,160.000001192093,2|0|2|0
112,208,101658,6,0,B|256:280,1,160.000001192093,2|0
208,128,102948,2,0,B|256:280,1,160.000001192093,2|0
304,128,104238,2,0,B|256:280,1,160.000001192093,2|0
396,204,105528,2,0,B|252:284,1,160.000001192093,2|0
256,280,106819,6,0,B|256:112,1,160.000001192093,2|0
336,120,107787,1,0
336,120,107948,1,0
336,120,108109,2,0,B|248:120,1,80.0000005960464,2|0
176,120,108754,2,0,B|272:120,1,80.0000005960464
256,192,109399,12,10,110690
176,40,111335,6,0,B|176:144,1,80.0000005960464,0|0
264,120,111980,2,0,B|264:304,1,160.000001192093,8|8
424,280,113270,2,0,B|424:112,1,160.000001192093,8|8
336,80,114238,1,0
336,80,114399,1,0
336,80,114561,2,0,B|248:80,1,80.0000005960464,8|0
256,168,115206,2,0,B|168:168,1,80.0000005960464,8|0
176,256,115851,2,0,B|-16:256,1,160.000001192093,10|8
176,320,116819,5,0
176,320,116980,1,0
176,320,117141,2,0,B|264:320,1,80.0000005960464,8|0
256,232,117787,2,0,B|344:232,1,80.0000005960464,8|0
336,144,118432,2,0,B|528:144,2,160.000001192093,8|8|8
176,248,120367,1,8
176,248,121012,2,0,B|0:248,1,160.000001192093,8|8
256,192,121980,12,0,123270
256,192,123916,5,2
256,280,124238,1,0
256,280,124561,1,0
256,192,124883,2,0,B|208:152|208:96|256:56,2,160.000001192093,6|0|2
256,192,126496,1,2
256,104,126819,1,0
256,104,127141,1,0
256,192,127464,2,0,B|304:232|304:288|256:328,2,160.000001192093,6|0|2
328,128,129077,5,2
328,128,129399,2,0,B|392:184,1,80.0000005960464
336,272,130045,2,0,B|208:160,1,160.000001192093,6|0
112,208,131012,1,0
112,208,131335,2,0,B|248:320,1,160.000001192093,2|0
448,192,132625,5,6
256,56,133270,1,2
64,192,133916,1,6
160,192,134238,5,2
256,192,134561,1,0
352,192,134883,1,0
448,192,135206,2,0,B|448:280,1,80.0000005960464,6|0
352,272,135851,2,0,B|352:360,2,80.0000005960464,2|0|2
256,272,136819,5,2
160,272,137141,1,0
64,272,137464,1,0
64,272,137787,2,0,B|64:184,2,80.0000005960464,6|0|2
160,272,138754,2,0,B|160:176,1,80.0000005960464,0|2
416,192,140045,5,0
416,192,140206,1,0
416,192,140367,2,0,B|416:280,2,80.0000005960464,6|0|0
312,192,141335,1,0
312,192,141496,1,0
312,192,141658,2,0,B|312:112,1,80.0000005960464,6|0
200,112,142303,2,0,B|200:200,1,80.0000005960464,2|0
256,192,142948,12,0,148109
256,80,150690,5,4
176,192,151335,2,0,B|256:224|336:192,2,160.000001192093
256,304,153270,1,2
332,190,153916,2,0,B|256:160|176:192,2,160.000001192093
256,72,155851,6,0,B|360:72|360:168,2,160.000001192093,4|0|0
256,192,157787,1,0
256,312,158432,2,0,B|360:312|360:216,2,160.000001192093,2|0|0
256,192,160367,1,0
376,136,161012,6,0,B|192:136,1,160.000001192093,4|0
216,136,161980,1,0
120,136,162303,2,0,B|120:304,1,160.000001192093,4|0
216,296,163270,1,0
216,296,163593,6,0,B|392:296,1,160.000001192093,4|0
376,296,164561,1,0
376,200,164883,2,0,B|376:40,1,160.000001192093,4|0
376,40,165851,1,0
280,40,166174,6,0,B|120:40,1,160.000001192093,2|0
120,200,167464,2,0,B|280:200,1,160.000001192093,2|0
256,192,168754,12,8,172625
256,192,173916,5,4
