osu file format v11

[General]
AudioFilename: Mai Kuraki - REVIVE (TV Size).mp3
AudioLeadIn: 0
PreviewTime: 52304
Countdown: 0
SampleSet: Normal
StackLeniency: 0.7
Mode: 0
LetterboxInBreaks: 1

[Editor]
Bookmarks: 80360
DistanceSpacing: 0.8
BeatDivisor: 8
GridSize: 8

[Metadata]
Title:Revive
TitleUnicode:
Artist:Mai Kuraki
ArtistUnicode:
Creator:jmaeshawn
Version:Hard
Source:Detective Conan
Tags:Anime, Detective Conan, Case Closed
BeatmapID:48061
BeatmapSetID:12781

[Difficulty]
HPDrainRate:5
CircleSize:5
OverallDifficulty:5
ApproachRate:5
SliderMultiplier:1.4
SliderTickRate:1

[Events]
//Background and Video events
0,0,"bg.jpg"
Video,9230,"Conan Opening 25 - Mai Kuraki - Revive.avi"
//Break Periods
//Storyboard Layer 0 (Background)
//Storyboard Layer 1 (Fail)
//Storyboard Layer 2 (Pass)
//Storyboard Layer 3 (Foreground)
//Storyboard Sound Samples
//Background Colour Transformations
3,100,0,0,0

[TimingPoints]
9944,555.555555555556,4,1,0,49,1,0
24388,555.555555555556,4,1,0,51,1,0
24596,-100,4,1,0,60,0,0
25429,-100,4,1,0,41,0,0
33485,-100,4,1,0,59,0,0
34179,-100,4,1,0,31,0,0
37651,-100,4,1,0,60,0,0
38763,-100,4,1,0,30,0,0
42721,-100,4,2,0,80,0,0
44040,-100,4,2,0,41,0,0
45013,-100,4,2,0,80,0,0
46263,-100,4,2,0,50,0,0
46610,-100,4,2,0,81,0,0
48901,-100,4,1,0,20,0,0
49457,-100,4,1,0,30,0,0
50013,-100,4,1,0,41,0,0
50568,-100,4,1,0,55,0,0
51138,-100,4,2,0,0,0,0
52319,-100,4,1,0,50,0,0
70499,-50,4,1,0,50,0,0
71054,-100,4,1,0,50,0,1
79804,-100,4,2,0,80,0,0
81818,-100,4,2,0,50,0,0
82790,-100,4,2,0,100,0,0
84040,-100,4,2,0,51,0,0
84388,-100,4,2,0,79,0,0
86679,-100,4,1,0,31,0,0
87235,-100,4,1,0,40,0,0
87790,-100,4,1,0,51,0,0
88346,-100,4,1,0,64,0,0
89040,-100,4,2,0,40,0,0
90151,-100,4,1,0,51,0,0

[Colours]
Combo1 : 179,179,0
Combo2 : 0,128,0
Combo3 : 0,64,128
Combo4 : 128,0,0

[HitObjects]
256,112,9944,2,0,B|288:144|232:184|256:224,1,105,0|2,0:0|0:0,0:0:0
362,211,10915,1,2,0:0:0
362,211,11054,1,2,0:0:0
401,171,11331,1,0,0:0:0
401,171,11471,1,2,0:0:0
401,170,11610,1,0,0:0:0
460,110,12026,1,0,0:0:0
460,53,12304,1,2,0:0:0
460,53,12444,2,0,B|349:53,1,105,0|0,0:0|0:0,0:0:0
299,53,13137,1,2,0:0:0
299,53,13277,2,0,B|180:53,1,105,2|0,0:0|0:0,0:0:0
154,92,13970,1,2,0:0:0
154,92,14110,1,0,0:0:0
193,131,14388,6,0,B|225:163|169:203|193:243,1,105,0|2,0:0|0:0,0:0:0
108,309,15359,1,2,0:0:0
108,309,15498,1,2,0:0:0
68,269,15777,1,0,0:0:0
68,269,15916,1,2,0:0:0
69,269,16055,2,0,B|69:162,1,105,0|0,0:0|0:0,0:0:0
124,164,16748,1,2,0:0:0
124,164,16888,2,0,B|124:52,1,105,2|0,0:0|0:0,0:0:0
179,59,17581,1,2,0:0:0
179,59,17721,2,0,B|298:59,1,105,2|0,0:0|0:0,0:0:0
358,92,18416,1,2,0:0:0
358,92,18555,1,2,0:0:0
358,148,18832,6,0,B|390:116|430:172|470:148,1,105,2|0,0:0|0:0,0:0:0
378,232,19805,1,2,0:0:0
378,232,19944,1,2,0:0:0
378,287,20221,1,0,0:0:0
378,287,20360,1,2,0:0:0
378,286,20499,2,0,B|271:286,1,105,0|0,0:0|0:0,0:0:0
273,230,21194,1,2,0:0:0
273,230,21332,2,0,B|161:230,1,105,0|0,0:0|0:0,0:0:0
168,174,22027,1,2,0:0:0
168,174,22165,2,0,B|287:174,1,105,2|0,0:0|0:0,0:0:0
328,174,22860,1,0,0:0:0
328,174,22999,1,0,0:0:0
256,192,23277,12,0,24388,0:0:0
120,192,24665,5,4,0:0:0
176,192,24943,1,4,0:0:0
255,112,25499,1,0,0:0:0
255,153,25707,1,0,0:0:0
255,194,25915,2,0,B|296:184|336:208|336:240,1,105
392,240,26609,5,8,0:0:0
360,288,26888,5,0,0:0:0
360,288,27025,1,0,0:0:0
360,288,27164,1,0,0:0:0
320,248,27443,2,0,B|240:248,1,70,0|0,0:0|0:0,0:0:0
250,248,27859,1,0,0:0:0
216,288,28138,2,0,B|176:288|144:272|120:224,1,105
168,200,28831,5,8,0:0:0
207,160,29109,5,0,0:0:0
208,160,29248,1,0,0:0:0
208,160,29387,1,0,0:0:0
319,160,29942,1,0,0:0:0
319,160,30081,1,0,0:0:0
358,120,30360,2,0,B|352:88|312:56|264:56,1,105
225,57,31054,2,0,B|95:57,1,122.5
14,57,31888,2,0,B|-2:73|-2:113|14:121,1,70
69,120,32443,2,0,B|85:136|85:176|69:184,1,70
109,223,32999,1,0,0:0:0
232,280,33276,5,8,0:0:0
166,120,33554,1,4,0:0:0
305,120,33831,1,4,0:0:0
364,179,34248,5,0,0:0:0
364,179,34387,1,0,0:0:0
364,179,34526,1,0,0:0:0
400,216,34804,2,0,B|400:288|325:294,1,105
285,291,35499,1,8,0:0:0
229,291,35776,6,0,B|192:296|157:259,1,70
144,256,36193,1,0,0:0:0
120,240,36332,1,0,0:0:0
96,224,36471,1,0,0:0:0
72,208,36610,1,0,0:0:0
48,192,36749,1,0,0:0:0
48,136,37026,2,0,B|48:72|128:72,1,105
240,136,37721,5,4,0:0:0
312,256,37999,1,4,0:0:0
384,136,38276,1,4,0:0:0
272,136,38832,5,0,0:0:0
272,136,38971,1,0,0:0:0
224,168,39249,2,0,B|176:168|176:216|128:216,1,105
173,255,39943,2,0,B|221:255|221:207|269:207,1,105
263,123,40776,1,0,0:0:0
302,83,41054,1,2,0:0:0
262,43,41332,1,0,0:0:0
205,43,41610,1,2,0:0:0
168,80,41888,1,4,0:0:0
208,120,42165,1,4,0:0:0
320,200,42859,5,0,0:0:0
320,200,42998,1,0,0:0:0
320,200,43137,1,0,0:0:0
320,200,43276,1,0,0:0:0
280,240,43554,2,0,B|249:280|216:232,1,70
182,201,44109,1,4,0:0:0
182,201,44248,1,4,0:0:0
320,104,45082,6,0,B|336:120|360:96,3,35
407,103,45776,1,0,0:0:0
367,142,46054,1,0,0:0:0
327,181,46331,1,4,0:0:0
327,181,46470,1,4,0:0:0
287,220,46748,1,2,0:0:0
247,259,47026,1,0,0:0:0
247,259,47165,1,2,0:0:0
191,259,47442,1,0,0:0:0
191,259,47581,1,2,0:0:0
134,259,47860,6,0,B|134:183,1,70
98,189,48276,2,0,B|70:159|110:111,1,70,0|0,0:0|0:0,0:0:0
100,125,48692,1,2,0:0:0
216,160,48971,6,0,B|160:96,1,70,2|0,0:0|0:0,0:0:0
286,160,49526,2,0,B|344:96,1,70,2|0,0:0|0:0,0:0:0
216,216,50082,2,0,B|160:272,1,70,2|0,0:0|0:0,0:0:0
288,216,50638,2,0,B|344:272,1,70,2|0,0:0|0:0,0:0:0
256,192,51332,12,0,52165,0:0:0
416,320,52443,5,0,0:0:0
416,320,52582,1,0,0:0:0
416,320,52720,1,0,0:0:0
465,270,52999,2,0,B|496:240|456:192,1,70
427,166,53554,2,0,B|414:140|440:120,1,35
398,85,53970,5,2,0:0:0
373,60,54109,1,2,0:0:0
337,60,54248,1,2,0:0:0
301,60,54388,2,0,B|226:60,1,70,0|0,0:0|0:0,0:0:0
206,84,54804,1,2,0:0:0
206,154,55082,5,2,0:0:0
181,178,55221,1,2,0:0:0
156,202,55360,1,2,0:0:0
131,226,55500,2,0,B|131:301,1,70,0|0,0:0|0:0,0:0:0
131,331,55916,1,2,0:0:0
204,257,56331,5,2,0:0:0
239,257,56470,1,2,0:0:0
272,256,56610,2,0,B|304:240|256:200|280:176,1,70
273,157,57026,1,2,0:0:0
384,320,57720,5,0,0:0:0
384,320,57859,1,0,0:0:0
384,263,58137,1,0,0:0:0
384,206,58415,1,2,0:0:0
244,206,58692,1,0,0:0:0
384,152,58970,1,2,0:0:0
243,152,59248,1,0,0:0:0
158,152,59665,1,0,0:0:0
118,191,59942,1,0,0:0:0
118,191,60081,1,0,0:0:0
157,230,60360,2,0,B|208:256|261:227,1,105
277,281,61054,2,8,B|208:320|133:281,1,140
152,176,62165,6,0,B|184:136|224:208|256:176,1,105
307,241,62998,1,2,0:0:0
346,280,63276,1,2,0:0:0
402,280,63554,1,2,0:0:0
402,280,63692,1,2,0:0:0
402,195,64109,5,0,0:0:0
402,195,64248,1,0,0:0:0
402,195,64388,2,0,B|384:184|416:152|400:128,1,70
400,100,64804,1,0,0:0:0
340,40,65221,5,2,0:0:0
340,40,65360,1,2,0:0:0
340,40,65500,2,2,B|329:58|297:26|273:42,1,70
245,42,65916,1,2,0:0:0
328,152,66609,5,0,0:0:0
328,152,66749,2,0,B|328:109|266:109,1,70
225,109,67304,2,0,B|182:108|176:154,1,70,0|0,0:0|0:0,0:0:0
224,184,67859,1,0,0:0:0
280,184,68137,1,0,0:0:0
312,264,68554,1,0,0:0:0
256,264,68831,1,2,0:0:0
256,264,68970,1,2,0:0:0
199,264,69248,1,2,0:0:0
139,204,69665,1,2,0:0:0
376,200,69942,1,2,0:0:0
312,112,70499,2,0,B|256:40|192:112,2,140,8|4|8,0:0|0:0|0:0,0:0:0
371,171,71471,5,0,0:0:0
292,249,72025,1,0,0:0:0
292,249,72164,1,0,0:0:0
235,249,72443,1,0,0:0:0
235,249,72582,1,0,0:0:0
236,249,72721,2,0,B|208:336|176:240,1,105,0|0,0:0|0:0,0:0:0
139,209,73414,1,0,0:0:0
139,209,73554,2,0,B|106:169|165:151|129:108,1,105
91,71,74249,1,0,0:0:0
91,71,74389,2,0,B|130:38|148:97|191:61,1,105
228,102,75082,1,2,0:0:0
228,102,75221,1,2,0:0:0
284,102,75499,6,0,B|288:48|352:80|384:64,1,105,0|0,0:0|0:0,0:0:0
449,147,76471,1,0,0:0:0
449,147,76610,1,0,0:0:0
449,202,76887,1,0,0:0:0
449,202,77026,1,0,0:0:0
450,202,77165,2,0,B|450:264|392:280,1,105
353,319,77860,1,0,0:0:0
353,319,77999,2,0,B|233:319,1,105
208,279,78693,1,0,0:0:0
208,280,78832,2,0,B|326:280,1,105
256,192,79526,1,2,0:0:0
256,192,79665,1,2,0:0:0
256,192,79943,5,2,0:0:0
392,176,80638,6,0,B|392:228,3,35
352,250,81332,1,0,0:0:0
296,250,81609,1,0,0:0:0
256,289,81888,2,4,B|256:337,1,35
264,64,82860,5,0,0:0:0
264,64,82999,1,0,0:0:0
264,64,83138,1,0,0:0:0
264,64,83277,1,0,0:0:0
264,120,83554,1,0,0:0:0
264,176,83832,1,0,0:0:0
264,232,84109,1,4,0:0:0
264,232,84248,1,4,0:0:0
208,232,84526,1,2,0:0:0
152,232,84804,1,0,0:0:0
96,232,84943,1,2,0:0:0
40,232,85220,1,0,0:0:0
40,232,85359,1,2,0:0:0
40,144,85637,1,2,0:0:0
96,144,85915,1,0,0:0:0
152,144,86054,1,2,0:0:0
208,144,86332,1,0,0:0:0
264,144,86470,1,2,0:0:0
320,144,86748,5,2,0:0:0
376,144,87026,1,0,0:0:0
432,144,87304,1,2,0:0:0
432,200,87582,1,0,0:0:0
432,256,87859,1,2,0:0:0
432,312,88137,1,0,0:0:0
376,312,88415,1,2,0:0:0
320,312,88693,1,4,0:0:0
304,232,89110,5,8,0:0:0
304,232,89249,1,8,0:0:0
304,144,89527,1,8,0:0:0
304,144,89666,1,8,0:0:0
304,88,89944,1,8,0:0:0
72,312,90221,5,0,0:0:0
72,312,90499,1,0,0:0:0
72,240,90776,1,0,0:0:0
72,184,91054,1,0,0:0:0
72,128,91332,1,0,0:0:0
72,128,91470,1,0,0:0:0
160,128,91887,5,2,0:0:0
192,128,92026,1,2,0:0:0
224,128,92165,1,2,0:0:0
256,128,92443,1,2,0:0:0
256,128,92582,1,2,0:0:0
312,128,92998,5,0,0:0:0
368,128,93276,1,0,0:0:0
368,184,93554,1,0,0:0:0
368,240,93693,1,0,0:0:0
288,240,94109,5,2,0:0:0
288,240,94248,1,2,0:0:0
288,240,94387,1,2,0:0:0
232,240,94665,1,2,0:0:0
232,240,94804,1,2,0:0:0
96,240,95498,5,0,0:0:0
96,240,95637,1,0,0:0:0
96,184,95915,1,0,0:0:0
96,128,96193,1,0,0:0:0
96,72,96470,1,0,0:0:0
152,72,96748,1,0,0:0:0
208,72,97026,1,0,0:0:0
296,72,97443,1,0,0:0:0
296,72,97720,1,0,0:0:0
296,72,97859,1,0,0:0:0
296,128,98137,1,0,0:0:0
296,184,98554,1,8,0:0:0
296,240,98832,1,8,0:0:0
296,128,99387,1,8,0:0:0
152,128,99943,5,0,0:0:0
72,128,100359,1,0,0:0:0
72,184,100776,5,2,0:0:0
72,184,101054,1,2,0:0:0
72,240,101332,1,2,0:0:0
72,240,101470,1,2,0:0:0
160,240,101887,5,0,0:0:0
160,240,102026,1,0,0:0:0
160,240,102165,1,0,0:0:0
216,240,102443,1,0,0:0:0
216,240,102582,1,0,0:0:0
296,248,102998,5,2,0:0:0
296,248,103137,1,2,0:0:0
352,248,103276,1,2,0:0:0
408,248,103554,1,2,0:0:0
408,248,103693,1,2,0:0:0
296,160,104387,5,0,0:0:0
296,160,104526,1,0,0:0:0
240,160,104804,1,0,0:0:0
184,160,105082,1,0,0:0:0
128,160,105359,1,0,0:0:0
72,160,105637,1,0,0:0:0
16,160,105915,1,0,0:0:0
16,248,106332,5,2,0:0:0
16,304,106609,1,2,0:0:0
16,304,106748,1,2,0:0:0
72,304,107026,1,2,0:0:0
128,304,107443,1,2,0:0:0
184,304,107720,1,2,0:0:0
296,304,108276,1,4,0:0:0
352,304,108554,1,4,0:0:0
408,304,108832,1,4,0:0:0
