osu file format v9

[General]
AudioFilename: Halo glare.mp3
AudioLeadIn: 0
PreviewTime: 64404
Countdown: 0
SampleSet: Soft
StackLeniency: 0.7
Mode: 0
LetterboxInBreaks: 0

[Editor]
Bookmarks: 64382,78875,205599,233607
DistanceSpacing: 0.8
BeatDivisor: 4
GridSize: 8

[Metadata]
Title:Halo Glare
Artist:Mai Kotoge
Creator:scarlethana
Version:Midnight Glare
Source:Touhou
Tags:beren cmn_891127 qinche u-kyu c-clays mystia lorelei imperishable night

[Difficulty]
HPDrainRate:6
CircleSize:4
OverallDifficulty:8
ApproachRate:8
SliderMultiplier:1.6
SliderTickRate:0.5

[Events]
//Background and Video events
0,0,"BG.jpg"
//Break Periods
2,79049,92321
2,163758,169816
2,177773,180327
2,191131,204633
2,237116,243392
//Storyboard Layer 0 (Background)
//Storyboard Layer 1 (Fail)
//Storyboard Layer 2 (Pass)
//Storyboard Layer 3 (Foreground)
Sprite,Foreground,Centre,"SB\LIGHT02.png",320,240 F,0,163098,163536,0,1 M,0,163098,191567,252,105,337,273 F,0,163536,191129,1 F,0,191129,191567,1,0
Sprite,Foreground,Centre,"SB\Thanks for playing.png",320,240 M,0,261660,263053,320,240 F,0,261660,263053,1,0
Sprite,Foreground,Centre,"SB\1.png",320,240 M,0,35738,36182,233,710,233,661 M,0,36182,41071,233,661 M,0,41071,41515,233,661,233,613 M,0,41515,45738,233,613 M,0,45738,46182,233,613,233,562 M,0,46182,49960,233,562,233,563 M,0,49960,50404,233,563,233,512 M,0,50404,53071,233,512 M,0,53071,53515,233,512,233,462 M,0,53515,56626,233,462 M,0,56626,57071,233,462,233,411 M,0,57071,60182,233,411,233,412 M,0,60182,60626,233,412,233,364 M,0,60626,63960,233,364 M,0,63960,64404,233,364,233,313 M,0,64404,67515,233,313 M,0,67515,67960,233,313,233,262 M,0,67960,71071,233,262 M,0,71071,71515,233,262,233,214 M,0,71515,74626,233,214 M,0,74626,75071,233,214,233,164 M,0,75071,78404,233,164 M,0,78404,78849,233,164,233,110
Sprite,Foreground,Centre,"SB\2.png",320,240 M,0,106849,107293,216,736,216,688 M,0,107293,111960,216,688 M,0,111960,112404,216,688,216,636 M,0,112404,116849,216,636 M,0,116849,117293,216,636,216,586 M,0,117293,121071,216,586 M,0,121071,121515,216,586,216,536 M,0,121515,124142,216,536 M,0,124142,124580,216,536,216,485 M,0,124580,127865,216,485 M,0,127865,128303,216,485,216,437 M,0,128303,131150,216,437 M,0,131150,131587,216,437,216,386 M,0,131587,134872,216,386 M,0,134872,135310,216,386,216,336 M,0,135310,138376,216,336 M,0,138376,138814,216,336,216,285 M,0,138814,142098,216,285,216,286 M,0,142098,142536,216,286,216,238 M,0,142536,145383,216,238 M,0,145383,145821,216,238,216,187 M,0,145821,148887,216,187,216,188 M,0,148887,149325,216,188,216,138 M,0,149325,152390,216,138 M,0,152390,152828,216,138,216,90
Sprite,Foreground,Centre,"SB\3.png",320,240 M,0,152390,152828,211,511,211,463 M,0,152828,155894,211,463 M,0,155894,156332,211,463,211,412 M,0,156332,159398,211,412,211,413 M,0,159398,159836,211,413,211,362 M,0,159836,163120,211,362 M,0,163120,163558,211,362,211,318
Sprite,Foreground,Centre,"SB\8.png",320,240 M,0,204945,205383,260,635,260,587 M,0,205383,208449,260,587 M,0,208449,208887,260,587,260,537 M,0,208887,212171,260,537,260,538 M,0,212171,212609,260,538,260,488 M,0,212609,215675,260,488 M,0,215675,216113,260,488,260,440 M,0,216113,218960,260,440 M,0,218960,219398,260,440,260,389 M,0,219398,222682,260,389 M,0,222682,223120,260,389,260,338 M,0,223120,226186,260,338 M,0,226186,226624,260,338,260,288 M,0,226624,229690,260,288 M,0,229690,230128,260,288,260,237 M,0,230128,233193,260,237 M,0,233193,233631,260,237,260,195
Sprite,Foreground,Centre,"BG2.png",320,240 M,0,35738,78849,320,240 M,0,107293,163558,320,240 F,0,163558,163668,1,0 F,0,163668,205493,0 F,0,205493,205602,0,1 M,0,205602,233631,320,240
Sprite,Foreground,Centre,"BG1.jpg",320,240 M,0,7738,,320,240 F,0,7738,8182,0.8719999,0 S,0,7738,8182,1,1.168 F,0,135310,135748,0.7456759,0 S,0,135310,135748,1,1.168 S,0,205383,,1 F,0,205383,205821,1,0 S,0,205383,205821,1,1.136
Sprite,Foreground,Centre,"SB\BLACK.png",320,240 F,0,-35,7630,1 F,0,7630,7742,1,0 F,0,7742,163339,0 M,0,37714,37724,320,240 M,0,37724,191144,320,240 F,0,163339,191144,0 F,0,191144,191582,0,1 S,0,191144,192194,2.568 F,0,191582,205161,1 S,0,192194,205599,2.568 F,0,205161,205599,1,0
Sprite,Foreground,Centre,"SB\4.png",320,240 M,0,191582,,320,290 F,0,191582,191801,0,1 S,0,191582,194867,1.616 F,0,191801,194648,1 F,0,194648,194867,1,0
Sprite,Foreground,Centre,"SB\5.png",320,240 M,0,194867,,320,290 F,0,194867,195086,0,1 S,0,194867,198481,1.536 F,0,195086,198262,1 F,0,198262,198481,1,0
Sprite,Foreground,Centre,"SB\6.png",320,240 M,0,198481,,322,290 F,0,198481,198700,0,1 S,0,198481,201985,1.496 F,0,198700,201766,1 F,0,201766,201985,1,0
Sprite,Foreground,Centre,"SB\7.png",320,240 M,0,201985,,320,290 F,0,201985,202204,0,1 S,0,201985,205380,1.416 F,0,202204,205161,1 F,0,205161,205380,1,0
Sprite,Foreground,Centre,"SB\wave 01.png",320,240 F,0,191144,191582,0,0.5759999 M,0,191144,192905,428,395,403,400 S,0,191144,205599,0.7760004 F,0,191582,205161,0.5759999,0.5599998 M,0,192905,205599,403,400,230,395 F,0,205161,205599,0.5599998,0
//Storyboard Sound Samples
//Background Colour Transformations
3,100,163,162,255

[TimingPoints]
627,444.444444444444,4,2,1,70,1,0
7626,-200,4,2,1,80,0,0
8182,-100,4,2,1,80,0,0
9515,-200,4,2,1,80,0,0
11293,-100,4,2,1,80,0,0
36182,-100,4,2,1,80,0,0
37738,-200,4,2,1,80,0,0
38404,-100,4,2,1,61,0,0
64404,-100,4,2,1,80,0,0
78849,-100,4,2,1,61,0,0
107293,-100,4,2,1,80,0,0
111293,-100,4,2,1,60,0,0
117849,-100,4,2,1,80,0,0
121515,437.956204379562,4,2,1,80,1,0
135310,-100,4,2,1,80,0,0
143416,-100,4,2,1,60,0,0
144507,-100,4,2,1,80,0,0
149544,-100,4,2,1,80,0,0
170566,-200,4,2,1,51,0,0
191587,-100,4,2,1,81,0,0
205383,-100,4,2,1,81,0,0
219179,-100,4,2,1,81,0,0
233607,-100,4,2,1,70,0,0

[Colours]
Combo1 : 64,128,128
Combo2 : 255,255,193
Combo3 : 255,151,203
Combo4 : 198,140,255

[HitObjects]
325,96,7627,2,0,B|272:96|224:120,1,100
152,192,8627,1,0
272,208,9071,1,8
272,95,9515,2,0,B|376:128|376:184|472:224,1,240
368,264,11293,1,0
368,264,11738,5,8
360,152,12182,1,0
296,248,12627,1,8
288,136,13071,2,0,B|224:184|200:272,1,160
201,267,13738,2,0,B|160:296|120:264,1,80
88,224,14182,2,0,B|121:197|162:225,1,80
161,225,14626,1,0
216,208,14849,1,0
120,152,15293,5,8
200,72,15738,1,0
280,152,16182,1,8
360,72,16627,1,0
280,152,17071,1,8
200,232,17515,5,0
224,248,17627,1,0
248,264,17738,1,0
352,232,17960,1,8
328,248,18071,1,0
304,264,18182,1,0
275,215,18404,5,0
384,184,18849,2,0,B|432:96|344:32,2,160,8|0|8
272,160,20182,1,0
272,160,20626,1,8
160,184,21071,2,8,B|120:88|200:32,1,160,0|8
272,120,21960,5,0
351,199,22182,1,0
374,89,22404,1,8
464,152,22626,1,0
440,264,22849,2,0,B|456:320|392:344,1,80
304,312,23293,1,8
232,224,23515,2,0,B|280:208,2,40
120,224,23960,5,0
87,120,24182,1,8
166,40,24404,1,0
256,104,24626,1,0
232,216,24849,1,0
165,310,25071,2,0,B|165:221,1,80,8|0
165,118,25515,1,0
264,176,25738,2,0,B|216:176,4,40,0|0|8|0|0
264,288,26404,5,0
352,80,26849,2,0,B|440:80,2,80,8|0|0
352,191,27515,1,0
304,293,27738,1,8
253,193,27960,2,0,B|256:144|200:152,1,80
201,151,28404,2,0,B|168:192|136:112,1,80,0|8
143,128,28849,1,0
256,72,29071,5,0
352,128,29293,1,0
352,240,29515,1,8
256,304,29738,1,0
160,240,29960,1,0
160,128,30182,1,0
256,192,30404,1,8
256,192,30626,1,0
256,192,30738,1,0
256,192,30849,1,0
368,192,31071,5,0
312,288,31293,1,8
256,192,31515,1,0
144,192,31738,1,0
200,288,31960,2,0,B|248:288,4,40,0|0|8|0|0
144,192,32626,6,0,B|160:104|256:72,1,160,0|8
243,76,33293,1,0
328,152,33515,2,0,B|304:240|208:272,1,160,0|8
224,265,34182,1,0
256,192,34404,12,8,35738
256,200,36182,6,0,B|288:120|400:104,1,160,4|8
456,192,36849,1,0
384,280,37071,1,0
280,328,37293,1,2
64,264,37738,6,8,B|136:168,1,120,0|8
320,40,38849,1,0
240,119,39071,1,0
319,198,39293,1,8
362,301,39515,2,0,B|321:328|273:296,1,80
176,280,39960,1,0
136,296,40071,1,0
96,312,40182,1,8
136,88,40626,5,0
224,160,40849,1,0
336,160,41071,1,8
280,264,41293,5,2
256,80,41960,6,0,B|336:80|376:192,1,160,8|0
368,296,42626,1,0
272,232,42849,1,8
176,296,43071,2,0,B|88:232|136:120,1,160,0|2
123,155,43738,1,8
216,96,43960,1,0
312,160,44182,6,0,B|384:104|464:160,1,160,0|8
456,272,44849,2,0,B|384:320|296:272,1,160
200,232,45515,1,8
200,120,45738,1,0
96,160,45960,5,2
96,208,46071,1,0
96,256,46182,1,2
200,232,46404,1,10
200,184,46515,1,2
200,136,46626,1,2
312,112,46849,2,0,B|376:72|416:144|496:112,2,160,0|8|0
104,192,48182,5,8
208,240,48404,1,0
80,56,48849,5,2
80,168,49071,2,0,B|80:48,1,80,8|0
192,56,49515,1,0
242,157,49738,1,0
296,256,49960,1,10
296,256,50071,1,2
296,256,50182,1,2
360,168,50404,6,0,C|440:216|384:248|472:304,1,240,4|0
232,320,51515,1,0
120,320,51738,1,8
120,208,51960,2,0,L|136:128|224:88,1,160
256,192,52626,1,8
336,112,52849,1,0
408,192,53071,1,0
336,280,53293,1,0
336,280,53515,1,8
224,280,53738,5,0
224,280,53960,2,0,B|144:232|144:136|240:80,1,240,4|0
448,136,55071,5,0
448,136,55182,1,0
448,136,55293,1,2
344,176,55515,1,0
344,176,55626,1,0
344,176,55738,1,2
239,128,55960,2,0,L|200:59|131:99,1,160,0|0
240,128,56626,1,0
240,128,56849,2,0,L|287:57|352:96,1,160,0|0
440,160,57515,6,0,L|440:200,4,40,0|0|0|0|8
336,200,58182,1,0
256,280,58404,1,0
176,200,58626,1,2
176,200,58738,1,0
176,200,58849,1,8
96,120,59071,6,0,L|96:200,2,80,0|0|0
192,64,59738,1,8
288,120,59960,2,0,L|288:200,2,80,0|0|0
288,120,60626,1,8
288,120,60849,1,0
400,120,61071,6,0,L|400:240|312:336,1,240
304,216,61960,2,0,L|304:112,1,80
256,192,62404,12,2,63960
256,152,64404,6,0,B|256:248,1,80,4|0
312,328,64849,1,0
200,328,65071,1,8
200,328,65182,1,0
200,328,65293,1,2
136,232,65515,2,0,B|32:232,1,80
56,120,65960,2,0,B|104:80,2,40,8|0|0
256,24,66626,5,0
200,120,66849,1,8
312,120,67071,1,0
400,328,67515,2,0,B|312:328,1,80,0|8
232,256,67960,6,2,B|192:304|216:352,2,80,2|2|2
328,192,68626,1,8
328,192,68738,1,0
328,192,68849,1,2
328,80,69071,2,2,B|384:88|416:128,2,80,0|0|8
232,136,69738,1,0
384,296,70182,5,0
272,288,70404,1,8
328,192,70626,1,0
104,192,71071,2,0,B|56:128,2,40,0|0|8
184,272,71737,5,2
208,256,71849,1,0
224,232,71960,1,2
328,192,72182,2,2,B|440:192,1,80,8|0
408,80,72626,1,0
256,144,72960,1,0
104,80,73293,1,0
256,240,73738,5,0
256,240,73849,1,0
256,240,73960,1,8
256,72,74293,1,0
200,224,74626,1,0
312,224,74849,1,8
464,64,75293,6,0,B|464:152,1,80,0|0
384,144,75738,2,0,B|480:144,1,80,8|0
464,224,76182,2,0,B|464:136,1,80
464,64,76626,2,0,B|464:145,1,80,8|0
305,65,77293,5,0
203,111,77515,1,8
173,219,77738,1,0
252,298,77960,1,0
96,136,78404,1,8
96,136,78515,1,0
96,136,78626,1,2
160,160,78849,1,4
256,192,93071,5,0
424,48,93515,1,0
424,272,93960,1,0
256,128,94404,1,0
144,128,94626,2,0,B|184:224|272:224,2,160
256,128,95738,1,0
296,112,95849,1,2
336,128,95960,1,0
376,112,96071,1,0
416,128,96182,1,2
368,264,96626,5,0
256,264,96849,2,0,B|176:328,2,80
256,152,97515,1,0
368,152,97738,2,0,B|432:96,2,80
160,64,98626,5,0
160,176,98849,2,0,B|160:232,2,40
80,256,99293,2,0,B|80:192,2,40
184,296,99738,2,0,B|256:328|344:296,1,160
416,216,100404,1,0
336,136,100626,1,0
416,216,100849,1,0
336,136,101071,1,0
224,136,101293,2,0,B|176:136,4,40,0|2|0|0|2
80,312,102182,6,0,B|160:312,1,80
272,312,102626,1,0
272,200,102849,2,0,B|176:200,1,80
160,200,103182,1,2
128,200,103293,1,0
96,200,103404,1,0
64,200,103515,1,2
112,96,103738,5,0
224,96,103960,2,0,B|304:96,2,80
224,208,104626,1,0
336,208,104849,1,0
336,320,105071,2,0,B|432:320,1,80
256,192,105515,12,2,106849
120,272,107293,6,0,B|120:184|208:136,1,160,4|8
304,184,107960,1,0
408,144,108182,1,0
320,72,108404,1,0
120,168,108849,6,0,L|72:104|144:56,1,160
120,168,109515,1,8
184,272,109738,1,0
232,272,109849,1,0
280,272,109960,1,0
344,176,110182,1,0
256,104,110404,2,0,L|208:104,2,40,8|0|0
360,72,110849,5,0
398,177,111071,2,0,L|334:241,1,80,0|8
398,177,112404,1,2
184,128,112849,5,0
184,240,113071,1,8
296,240,113293,1,0
296,128,113515,1,0
296,128,113738,5,0
296,240,113960,1,8
184,240,114182,1,0
184,128,114404,2,2,L|240:64|320:64,1,160,0|0
424,64,115071,5,2
328,272,115515,1,0
328,272,115626,1,0
328,272,115738,1,8
328,160,115960,5,0
264,64,116182,2,0,L|184:64,2,80,0|0|8
200,160,116849,1,0
200,160,117071,2,0,L|288:160,2,80
224,272,117738,1,0
256,192,117960,12,8,119293
256,192,119515,5,2
448,72,119960,2,0,B|448:160,1,80,0|8
448,240,120404,1,0
448,240,120515,1,0
448,240,120626,1,0
448,240,120738,1,0
448,240,120849,1,2
344,192,121071,2,0,B|344:104,1,80,8|0
344,192,121515,6,0,L|288:256|208:256,1,160,0|8
213,256,122171,1,0
216,144,122390,1,0
272,48,122609,1,2
272,48,122719,1,0
272,48,122828,1,8
368,112,123047,6,0,L|424:176|424:256,1,160
312,248,123704,2,0,L|312:168|376:104,1,160,8|0
368,111,124361,1,0
256,112,124580,1,8
120,288,125018,6,0,B|64:224|184:128|120:56,1,240
456,96,126332,1,8
344,96,126551,1,0
232,96,126770,1,0
232,96,126989,2,2,B|168:168|240:256,1,160,0|0
448,240,127865,2,2,B|352:240,1,80,0|8
144,280,128522,6,0,B|88:216|208:120|144:48,1,240
274,237,129617,1,0
384,216,129836,1,10
384,176,129945,1,0
384,136,130055,1,2
274,157,130274,1,2
274,197,130383,1,0
274,237,130493,1,2
160,240,130712,6,0,B|160:152,1,80,8|0
160,240,131150,2,0,B|96:296,1,80,0|0
160,240,131587,2,0,B|224:296,1,80,8|0
332,292,132025,5,0
332,179,132244,2,0,B|380:179,4,40,0|0|8|0|0
332,66,132901,2,0,B|156:66,2,160,0|8|0
332,66,133887,1,0
332,66,133996,1,2
256,152,134215,1,8
144,152,134434,1,0
368,152,134872,1,4
184,280,135310,6,2,B|280:232,1,80,4|0
360,200,135748,1,0
360,88,135967,1,8
336,88,136077,1,0
312,88,136186,1,0
208,56,136405,2,0,B|104:56,1,80
136,176,136843,2,0,B|184:136,2,40,8|0|0
344,272,137500,5,0
240,320,137719,1,8
248,208,137938,1,0
72,64,138376,2,8,B|72:160,1,80,8|8
240,48,138814,6,0,B|200:96|224:144,2,80,10|2|10
128,64,139471,1,8
112,88,139580,1,0
128,120,139690,1,2
144,232,139909,2,0,B|200:240|232:280,2,80,0|0|8
48,176,140566,1,0
264,104,141004,5,0
360,48,141223,1,8
368,160,141442,1,0
144,160,141879,2,8,B|168:96,2,40,8|0|0
160,288,142536,5,2
184,272,142646,1,0
200,248,142755,1,2
304,224,142974,2,0,B|416:224,1,80,8|0
304,304,143412,1,4
456,224,143741,1,4
304,144,144069,1,4
256,232,144507,5,2
256,232,144617,1,0
256,232,144726,1,8
256,64,145055,1,2
200,224,145383,1,2
312,224,145602,1,8
104,144,146040,6,0,B|104:48,1,80
104,144,146478,2,0,B|16:144,1,80,8|0
104,144,146916,2,0,B|104:224,1,80
104,144,147354,2,0,B|192:144,1,80,8|0
392,64,148011,1,0
472,136,148230,1,8
472,248,148449,1,0
392,328,148668,1,0
256,216,149106,1,8
256,216,149325,1,4
256,216,149434,1,0
256,216,149544,5,2
192,312,149763,1,0
128,216,149982,1,8
128,104,150201,2,0,B|216:104,3,80,0|0|0|8
320,104,151077,1,0
296,136,151186,1,0
320,168,151296,1,2
400,256,151514,6,0,B|320:304,1,80,0|8
216,296,151952,1,0
72,128,152390,2,0,B|136:200,1,80,0|8
304,56,153047,6,0,B|400:56,1,80,0|0
384,168,153485,2,0,B|288:168,1,80,8|0
192,168,153923,2,0,B|208:256|320:232|352:336,1,240,0|2
456,136,155018,1,0
421,29,155237,1,8
312,56,155456,1,0
312,56,155566,1,2
312,56,155675,1,0
200,56,155894,2,8,L|104:56,1,80,0|8
88,280,156551,5,0
200,280,156770,2,0,B|240:304|296:272,2,80,0|8|0
144,184,157427,1,0
176,184,157536,1,0
208,184,157646,1,0
320,184,157865,1,8
288,184,157974,1,0
248,184,158084,1,2
368,328,158522,5,0
448,256,158741,1,8
448,144,158960,1,0
368,72,159179,1,0
288,144,159398,1,0
288,256,159617,1,8
256,192,159836,12,0,160931
256,192,161369,5,8
256,192,161587,12,0,163120
256,192,163558,5,4
72,304,170566,5,0
72,96,171004,1,0
256,192,171442,1,0
440,96,171879,5,0
440,304,172317,1,0
256,192,172755,1,0
72,96,173193,6,0,B|72:184|144:240,1,160
240,272,174507,2,0,B|296:200|392:200,1,160
432,192,175602,5,2
256,312,176040,1,2
80,192,176478,1,2
256,80,176916,1,2
256,101,177025,1,2
256,123,177135,1,2
256,211,177573,1,4
344,88,181077,6,0,B|408:152,1,80
392,256,181952,2,0,B|328:192,1,80
240,256,182828,1,2
200,216,183047,1,2
160,176,183266,1,2
112,64,183704,6,0,B|200:64,1,80
304,64,184580,2,0,B|400:64,1,80
304,152,185456,1,0
416,152,185894,1,0
360,248,186332,1,4
256,192,186770,12,4,187865
256,192,187974,12,8,189617
256,72,190055,5,8
160,200,190493,1,8
256,328,190931,1,12
256,192,205383,5,4
256,80,205602,1,0
256,80,205712,1,0
256,80,205821,1,2
160,136,206040,1,8
144,168,206150,1,0
128,200,206259,1,2
128,304,206478,2,0,B|304:304,1,160,0|8
400,304,207135,1,0
400,80,207573,6,0,B|400:192,2,80
256,248,208449,1,8
256,136,208668,1,8
40,192,209106,6,0,B|144:192,1,80,0|0
232,192,209544,1,8
176,288,209763,1,0
288,288,209982,1,2
288,288,210091,1,0
288,288,210201,1,2
352,192,210420,1,8
352,192,210639,1,0
352,192,211077,6,0,B|464:192,1,80,0|8
432,192,211514,1,2
256,56,211952,2,8,B|256:160,1,80,0|8
40,192,212609,5,2
40,192,212719,1,2
40,192,212828,1,0
104,104,213047,1,8
168,192,213266,1,0
232,280,213485,1,0
296,192,213704,1,0
296,192,213814,1,0
296,192,213923,2,0,B|408:192,1,80,8|2
192,64,214580,5,0
240,168,214799,1,8
288,272,215018,1,0
275,242,215128,1,0
264,211,215237,1,0
264,211,215456,1,2
190,295,215675,2,8,B|102:295,1,80,8|0
136,184,216113,5,2
200,96,216332,1,0
312,96,216551,1,8
384,184,216770,1,0
312,272,216989,1,0
200,272,217208,1,0
136,184,217427,2,8,B|40:184,1,80,8|0
264,96,218084,6,0,B|376:96,1,80,0|8
408,184,218522,1,0
344,272,218741,1,0
120,272,219179,5,8
152,272,219288,1,0
184,272,219398,1,0
216,272,219507,1,0
248,272,219617,1,4
296,168,219836,1,0
256,64,220055,1,8
216,168,220274,1,0
120,112,220493,2,0,B|24:112,1,80
64,224,220931,1,8
176,224,221150,1,0
400,224,221587,5,0
400,112,221806,1,8
304,168,222025,1,0
80,168,222463,1,0
192,168,222682,1,10
416,168,223120,5,0
416,200,223230,1,0
416,232,223339,1,0
352,328,223558,1,8
256,272,223777,1,2
160,328,223996,1,0
64,272,224215,1,2
160,208,224434,2,0,B|160:112,1,80,8|0
352,248,225091,6,0,B|352:144,1,80,0|8
352,56,225529,1,0
160,176,225967,1,0
160,288,226186,1,8
376,232,226624,6,0,B|288:232,1,80
296,120,227062,1,8
296,232,227281,1,0
296,344,227500,1,0
264,344,227609,1,2
232,344,227719,1,0
200,344,227828,1,2
168,344,227938,1,8
136,344,228047,1,0
104,344,228157,1,2
104,120,228595,6,0,B|104:240,1,80,0|8
256,32,229252,1,0
312,128,229471,1,0
200,128,229690,1,8
256,344,230128,5,0
256,232,230347,1,0
368,232,230566,1,8
256,232,230785,1,0
144,232,231004,1,0
200,128,231223,1,0
256,32,231442,1,8
312,128,231660,1,0
312,128,232098,5,0
200,128,232317,1,8
200,240,232536,1,0
312,240,232755,1,0
256,192,232974,12,4,236916
256,64,244142,5,2
152,136,244361,1,0
152,248,244580,1,8
256,320,244799,1,0
352,248,245018,1,2
352,136,245237,1,0
256,192,245456,1,8
256,192,245675,1,0
256,192,245785,1,0
256,192,245894,1,2
48,104,246332,6,8,B|48:192|128:240,1,160,8|2
304,104,247208,1,8
376,320,247646,5,6
376,320,247865,2,0,B|448:264,1,80,0|8
439,270,248303,2,0,B|376:216,1,80,0|2
378,218,248741,2,0,B|448:168,1,80,0|8
443,171,249179,1,0
256,56,249617,6,0,B|200:56,2,40,0|0|8
104,160,250274,6,8,B|40:105,1,80,2|0
103,161,250712,2,0,B|40:216,1,80,8|0
104,160,251150,2,8,B|168:224,1,80,2|0
104,160,251587,2,8,B|168:104,1,80,8|0
104,160,252025,2,8,B|104:336,1,160,0|8
104,320,252573,1,0
104,320,252682,1,2
312,240,253120,5,0
312,240,253339,1,8
312,240,253558,1,2
408,40,253996,2,8,B|472:112,1,80,0|10
392,312,254653,6,0,B|448:248,1,80,2|0
352,184,255091,2,0,B|288:128,1,80,8|0
200,64,255529,2,0,B|136:128,1,80,2|0
232,192,255967,2,0,B|304:256,1,80,8|0
384,312,256405,5,2
304,256,256624,1,0
288,160,256843,1,8
240,240,257062,1,0
152,280,257281,1,2
128,184,257500,1,0
192,112,257719,1,8
128,184,257938,2,0,B|80:176,2,40,0|0|2
96,312,258595,5,0
104,88,259033,1,2
328,88,259471,1,8
328,312,259909,1,2
136,192,260347,1,8
296,192,260785,5,2
296,192,260894,5,2
296,192,261004,5,2
296,192,261113,5,2
296,192,261223,5,2
296,192,261551,5,4
