osu file format v9

[General]
AudioFilename: Halo glare.mp3
AudioLeadIn: 0
PreviewTime: 64404
Countdown: 0
SampleSet: Soft
StackLeniency: 0.7
Mode: 0
LetterboxInBreaks: 0

[Editor]
DistanceSpacing: 0.9
BeatDivisor: 4
GridSize: 16

[Metadata]
Title:Halo Glare
Artist:Mai Kotoge
Creator:scarlethana
Version:Halo in Nightfall
Source:Touhou
Tags:beren cmn_891127 qinche u-kyu c-clays mystia lorelei imperishable night

[Difficulty]
HPDrainRate:4
CircleSize:3
OverallDifficulty:3
ApproachRate:4
SliderMultiplier:1.1
SliderTickRate:0.5

[Events]
//Background and Video events
0,0,"BG.jpg"
//Break Periods
2,22160,27751
2,79049,88195
//Storyboard Layer 0 (Background)
//Storyboard Layer 1 (Fail)
//Storyboard Layer 2 (Pass)
//Storyboard Layer 3 (Foreground)
Sprite,Foreground,Centre,"SB\Thanks for playing.png",320,110 M,0,162901,164434,320,110 F,0,163777,164434,1,0
Sprite,Foreground,Centre,"SB\1.png",320,240 M,0,35738,36182,233,710,233,661 M,0,36182,41071,233,661 M,0,41071,41515,233,661,233,613 M,0,41515,45738,233,613 M,0,45738,46182,233,613,233,562 M,0,46182,49960,233,562,233,563 M,0,49960,50404,233,563,233,512 M,0,50404,53071,233,512 M,0,53071,53515,233,512,233,462 M,0,53515,56626,233,462 M,0,56626,57071,233,462,233,411 M,0,57071,60182,233,411,233,412 M,0,60182,60626,233,412,233,364 M,0,60626,63960,233,364 M,0,63960,64404,233,364,233,313 M,0,64404,67515,233,313 M,0,67515,67960,233,313,233,262 M,0,67960,71071,233,262 M,0,71071,71515,233,262,233,214 M,0,71515,74626,233,214 M,0,74626,75071,233,214,233,164 M,0,75071,78404,233,164 M,0,78404,78849,233,164,233,110
Sprite,Foreground,Centre,"SB\2.png",320,240 M,0,106849,107293,216,736,216,688 M,0,107293,111960,216,688 M,0,111960,112404,216,688,216,636 M,0,112404,116849,216,636 M,0,116849,117293,216,636,216,586 M,0,117293,121071,216,586 M,0,121071,121515,216,586,216,536 M,0,121515,124142,216,536 M,0,124142,124580,216,536,216,485 M,0,124580,127865,216,485 M,0,127865,128303,216,485,216,437 M,0,128303,131150,216,437 M,0,131150,131587,216,437,216,386 M,0,131587,134872,216,386 M,0,134872,135310,216,386,216,336 M,0,135310,138376,216,336 M,0,138376,138814,216,336,216,285 M,0,138814,142098,216,285,216,286 M,0,142098,142536,216,286,216,238 M,0,142536,145383,216,238 M,0,145383,145821,216,238,216,187 M,0,145821,148887,216,187,216,188 M,0,148887,149325,216,188,216,138 M,0,149325,152390,216,138 M,0,152390,152828,216,138,216,90
Sprite,Foreground,Centre,"SB\3.png",320,240 M,0,152390,152828,211,511,211,463 M,0,152828,155894,211,463 M,0,155894,156332,211,463,211,412 M,0,156332,159398,211,412,211,413 M,0,159398,159836,211,413,211,362 M,0,159836,163120,211,362 M,0,163120,163558,211,362,211,318
Sprite,Foreground,Centre,"BG2.png",320,240 M,0,35738,78849,320,240 M,0,107293,163558,320,240 F,0,163558,163668,1,0
Sprite,Foreground,Centre,"BG1.jpg",320,240 M,0,7738,,320,240 F,0,7738,8182,0.8719999,0 S,0,7738,8182,1,1.168 F,0,135310,135748,0.7456759,0 S,0,135310,135748,1,1.168
Sprite,Foreground,Centre,"1.png",320,240 S,0,53515,,1.392 M,0,53515,53960,235,388,141,388
//Storyboard Sound Samples
//Background Colour Transformations
3,100,163,162,255

[TimingPoints]
627,444.444444444444,4,2,1,70,1,0
121515,437.956204379562,4,2,1,70,1,0
135310,-100,4,2,1,70,0,0
149544,-100,4,2,1,70,0,0

[Colours]
Combo1 : 64,128,128
Combo2 : 255,255,193
Combo3 : 255,151,203
Combo4 : 198,140,255

[HitObjects]
184,264,7627,1,4
400,208,8627,1,0
240,88,9515,1,0
168,272,10404,2,0,B|104:192|184:64,1,220,2|0
376,48,12182,6,0,B|456:128|376:256,1,220
184,200,13960,1,2
88,200,14404,1,8
80,104,14849,6,0,B|200:104,3,110,2|8|2|8
288,104,16627,1,0
384,72,17071,1,8
352,168,17515,1,0
416,248,17960,1,8
320,280,18404,6,0,B|208:272|144:152,1,220,2|0
176,64,19738,1,8
232,144,20182,1,2
288,224,20626,1,8
352,144,21071,1,4
408,64,21515,1,12
408,64,21960,1,6
128,96,29071,6,0,B|352:96,1,220,2|0
288,176,30404,1,8
208,240,30849,1,2
128,304,31293,2,0,B|360:304,1,220,8|8
312,208,32626,5,2
248,128,33071,1,8
160,80,33515,2,0,B|104:128|152:184,1,110,0|8
232,232,34404,1,2
328,200,34849,2,0,B|384:152|336:88,1,110,8|0
248,104,35738,1,8
248,104,36182,1,4
232,56,37738,6,0,B|336:200,1,165,0|8
416,240,38849,1,0
384,328,39293,1,8
288,320,39738,2,0,B|208:216,2,110,0|8|0
144,288,41293,1,2
264,72,42404,5,0
208,152,42849,1,8
262,234,43293,2,0,B|200:289|200:289|140:233,1,165
232,72,44849,5,0
232,72,45293,2,0,B|352:72,1,110
344,168,46182,2,0,B|208:168,1,110
240,216,46849,1,2
176,144,47293,2,0,B|112:48,1,110,8|0
216,56,48182,5,8
256,144,48626,2,0,B|320:48,1,110,0|8
256,144,49515,1,2
304,232,49960,1,8
256,144,50404,2,0,L|352:144|408:216,1,165,4|0
256,328,51960,5,2
280,232,52404,1,2
208,160,52849,1,2
200,256,53293,1,0
144,256,53515,2,0,L|48:256|96:160|128:224,1,275,2|0
344,256,55515,5,2
248,256,55960,1,2
304,176,56404,2,0,L|248:112|192:176,1,165,2|0
144,88,57515,2,0,L|144:208,2,110,2|0|2
218,201,59071,5,6
368,120,59738,1,2
328,208,60182,1,0
280,296,60626,1,2
208,232,61071,6,0,L|88:232,2,110,2|2|0
256,192,62404,12,0,63960
160,256,64404,6,0,B|160:88,1,165,0|8
240,176,65515,1,0
240,176,65960,1,8
160,256,66404,1,0
160,256,66849,2,8,L|320:96,1,220
384,176,68182,5,2
384,176,68626,1,8
288,176,69071,1,0
288,176,69515,1,8
344,264,69960,1,0
344,264,70404,2,8,L|224:80,1,220
320,104,71738,6,0,L|440:104,2,110,2|8|0
272,192,73071,1,8
224,280,73515,2,0,L|104:280,2,110,2|8|0
320,280,74849,5,8
368,192,75293,1,2
272,192,75738,1,8
320,280,76182,1,0
224,280,76626,5,8
224,280,77071,1,2
184,192,77515,1,8
184,96,77960,1,0
272,144,78404,1,8
272,144,78849,1,6
256,192,89515,12,0,91293
392,80,91738,6,0,B|392:200,1,110,8|0
304,232,92626,1,8
233,161,93071,6,0,B|185:113,1,55
232,160,93515,2,0,B|280:112,1,55,8|0
232,160,93960,2,0,B|272:208,1,55
232,160,94404,2,0,B|192:208,1,55,8|0
96,200,95071,1,2
152,280,95515,1,0
248,280,95960,2,0,B|312:280,1,55,2|8
398,252,96626,6,0,B|439:210,1,55
436,212,97071,2,0,B|396:171,1,55,8|0
398,173,97515,2,0,B|451:130,1,55
440,138,97960,2,0,B|398:99,1,55,8|0
320,160,98626,1,2
224,160,99071,1,0
208,256,99515,2,0,B|208:312,1,55,2|8
296,264,100182,5,4
365,194,100626,1,8
294,123,101071,1,0
224,192,101515,1,8
294,123,101960,1,2
363,192,102404,1,8
292,262,102849,1,0
222,192,103293,1,8
256,192,103738,12,0,105515
376,264,105960,6,0,B|320:304|264:256,1,110,2|0
176,256,106849,1,2
96,192,107293,6,0,B|144:120|256:104,1,165,4|0
344,272,108849,1,0
224,184,109515,1,2
320,160,109960,1,0
272,248,110404,2,8,B|144:256|88:136,1,220,0|2
448,144,112404,5,2
304,64,113293,5,0
304,216,113960,1,2
208,200,114404,2,0,B|304:184|368:272,1,165,0|2
472,96,115960,6,0,B|376:24,1,110,2|0
312,104,116849,2,0,B|416:184,1,110,0|2
256,192,117515,12,0,118849
256,248,119293,6,0,B|320:280,1,55,2|0
256,184,119960,2,0,B|256:104,1,55,0|0
256,80,120404,1,2
192,160,120849,2,0,B|128:160,2,55,0|0|2
192,112,121515,6,0,B|304:112,1,110,4|8
302,112,122171,1,0
103,112,123047,1,2
173,182,123485,2,0,B|109:182,2,55,0|8|0
173,231,124142,1,0
222,231,124361,1,2
222,181,124580,6,0,B|222:53,2,110,8|0|8
222,181,125675,1,2
56,288,126551,1,2
56,187,126989,1,0
126,257,127427,2,0,B|224:177,1,110,2|0
211,187,128084,1,8
282,258,128522,6,0,B|412:258,1,110,4|8
440,256,129179,1,2
286,152,130055,1,2
192,120,130493,1,0
168,163,130712,1,8
179,211,130931,2,2,B|179:275|235:315,1,110,2|0
266,333,131587,1,8
352,288,132025,5,4
312,197,132463,1,10
264,184,132682,1,2
256,192,132901,12,0,134872
376,96,135310,5,4
208,96,135967,2,0,B|208:224,2,110,8|0|8
209,206,137281,2,0,B|96:208,2,110,0|8|0
400,160,139033,5,4
304,160,139471,2,0,B|304:32,2,110,8|0|8
304,256,140785,2,0,B|424:256,2,110,0|8|0
168,112,142536,5,4
264,112,142974,1,8
363,112,143412,1,2
320,304,144288,5,4
224,304,144726,1,8
128,304,145164,1,2
232,136,146040,6,0,C|112:136,2,110,2|8|0
280,224,147354,2,0,C|408:224,2,110,8|2|8
192,176,148668,1,0
280,224,149106,1,8
272,128,149544,5,4
200,64,149982,1,8
128,128,150420,1,0
200,192,150858,1,8
296,192,151296,5,2
368,128,151733,1,8
296,64,152171,1,0
224,128,152609,1,8
208,216,153047,6,0,C|128:296,2,110,4|8|0
304,216,154361,2,0,C|384:296,2,110,8|2|8
208,248,155675,1,8
120,200,156113,1,8
168,112,156551,6,0,C|200:136|176:158|232:168|256:120|280:168|340:156|312:136|354:106,1,385,4|0
375,257,158741,1,8
275,257,159179,1,2
175,257,159617,1,8
256,192,160055,12,2,162682
256,192,163120,5,2
256,192,163558,1,6
