osu file format v13

[General]
AudioFilename: ef melodies ed mizuki.mp3
AudioLeadIn: 0
PreviewTime: 48655
Countdown: 0
SampleSet: None
StackLeniency: 0.7
Mode: 0
LetterboxInBreaks: 1
WidescreenStoryboard: 0

[Editor]
Bookmarks: 11854,13168,28278,37913,59166,61684,61793,73180
DistanceSpacing: 0.6
BeatDivisor: 4
GridSize: 4
TimelineZoom: 2.3

[Metadata]
Title:Egao no Chikara
TitleUnicode:笑顔のチカラ
Artist:Mai Goto
ArtistUnicode:Mai Goto
Creator:alvicala
Version:Insane
Source:ef - a tale of melodies.
Tags:Mizuki Hayama ed ending first step that realizes the dream
BeatmapID:506436
BeatmapSetID:215698

[Difficulty]
HPDrainRate:5
CircleSize:4
OverallDifficulty:7
ApproachRate:8
SliderMultiplier:1.4
SliderTickRate:1

[Events]
//Background and Video events
0,0,"ef.-.a.fairy.tale.of.the.two..full.648461.jpg",0,0
//Break Periods
//Storyboard Layer 0 (Background)
//Storyboard Layer 1 (Fail)
//Storyboard Layer 2 (Pass)
//Storyboard Layer 3 (Foreground)
//Storyboard Sound Samples
//Background Colour Transformations
3,100,163,162,255

[TimingPoints]
-399,437.956204379562,4,1,0,100,1,0
476,-100,4,3,0,60,0,0
1352,-100,4,1,0,60,0,0
15367,-133.333333333333,4,2,0,60,0,0
29382,-133.333333333333,4,2,0,70,0,0
39892,-133.333333333333,4,3,0,70,0,0
43396,-133.333333333333,4,2,0,70,0,0
48652,-100,4,1,0,60,0,1
62666,-100,4,1,0,60,0,1
76681,-100,4,1,0,60,0,0

[HitObjects]
256,296,476,5,4,0:0:0:0:
256,296,914,1,4,0:0:0:0:
144,352,1352,6,0,P|128:280|144:216,1,140,4|8,0:0|0:0,0:0:0:0:
208,92,2009,1,0,0:0:0:0:
276,216,2228,2,0,P|312:220|348:216,2,70,0|0|0,0:0|0:0|0:0,0:0:0:0:
432,136,2885,2,0,P|400:72|344:24,1,140,8|8,0:0|0:0,0:0:0:0:
212,64,3542,6,0,P|172:68|136:64,1,70
120,60,3871,1,0,0:0:0:0:
100,56,3980,1,8,0:0:0:0:
136,164,4199,1,0,0:0:0:0:
24,116,4418,2,0,P|28:156|20:200,1,70,8|0,0:0|0:0,0:0:0:0:
44,316,4856,6,0,P|112:308|188:320,1,140,4|8,0:0|0:0,0:0:0:0:
288,348,5513,1,0,0:0:0:0:
392,344,5732,2,0,P|424:324|440:296,1,70
416,224,6170,1,0,0:0:0:0:
384,156,6389,2,0,P|380:112|420:28,1,140,8|8,0:0|0:0,0:0:0:0:
456,108,7046,6,0,L|480:192,1,70
475,175,7374,1,0,0:0:0:0:
475,175,7484,1,8,0:0:0:0:
424,272,7703,1,0,0:0:0:0:
316,240,7922,2,0,P|272:244|228:260,1,70,8|0,0:0|0:0,0:0:0:0:
174,168,8360,6,0,P|191:105|260:88,1,140,4|8,0:0|0:0,0:0:0:0:
240,152,9017,1,0,0:0:0:0:
168,252,9236,2,0,P|152:284|148:328,1,70
120,172,9673,1,0,0:0:0:0:
36,268,9892,2,0,P|40:192|28:128,1,140,8|8,0:0|0:0,0:0:0:0:
104,52,10549,2,0,P|140:44|184:48,1,70
192,52,10878,1,0,0:0:0:0:
212,60,10987,1,8,0:0:0:0:
312,108,11206,1,0,0:0:0:0:
212,60,11425,1,8,0:0:0:0:
380,216,11863,5,8,0:3:0:0:
368,244,11973,1,8,0:3:0:0:
356,272,12082,1,8,0:3:0:0:
256,332,12301,2,0,P|248:280|256:228,1,105,4|0,0:0|0:0,0:0:0:0:
256,196,12739,2,0,P|260:156|256:120,1,70,8|0,0:0|0:0,0:0:0:0:
256,52,13177,1,8,0:3:0:0:
192,132,13396,2,0,P|256:160|316:132,1,140,8|0,0:0|0:0,0:0:0:0:
256,52,14053,5,8,0:0:0:0:
176,108,14272,2,0,L|136:100,2,35,0|0|0,0:0|0:0|0:0,0:0:0:0:
264,176,14710,1,0,0:0:0:0:
116,188,14929,1,0,0:0:0:0:
120,200,15038,1,0,0:0:0:0:
124,212,15148,1,0,0:0:0:0:
128,224,15257,1,0,0:0:0:0:
132,236,15367,6,0,P|156:252|180:276,1,52.5000020027161,4|0,0:0|0:0,0:0:0:0:
320,316,15805,1,0,0:0:0:0:
204,336,16024,1,0,0:0:0:0:
352,280,16243,2,0,P|380:280|416:288,1,52.5000020027161,2|0,0:0|0:0,0:0:0:0:
204,336,16681,1,0,0:0:0:0:
260,224,16900,2,0,P|264:184|252:120,1,105.000004005432,2|0,0:0|0:0,0:0:0:0:
216,40,17557,5,0,0:0:0:0:
316,80,17776,1,0,0:0:0:0:
120,104,17995,2,0,P|88:108|56:108,1,52.5000020027161,2|0,0:0|0:0,0:0:0:0:
252,32,18433,2,0,P|280:32|316:40,1,52.5000020027161,2|0,0:0|0:0,0:0:0:0:
408,56,18871,5,4,0:0:0:0:
372,184,19090,1,0,0:0:0:0:
204,164,19309,2,0,P|232:160|264:160,1,52.5000020027161
100,300,19746,2,0,P|72:300|36:304,1,52.5000020027161,2|0,0:0|0:0,0:0:0:0:
204,164,20184,1,0,0:0:0:0:
252,352,20403,2,0,P|292:352|356:336,1,105.000004005432,2|0,0:0|0:0,0:0:0:0:
428,288,21060,5,0,0:0:0:0:
256,228,21279,1,0,0:0:0:0:
400,132,21498,2,0,P|404:100|396:76,1,52.5000020027161,2|0,0:0|0:0,0:0:0:0:
113,80,21936,2,0,P|107:106|112:132,1,52.5000020027161,2|0,0:0|0:0,0:0:0:0:
256,48,22374,5,4,0:0:0:0:
312,132,22593,1,0,0:0:0:0:
120,24,22812,2,0,P|92:24|48:28,1,52.5000020027161
148,192,23250,1,2,0:0:0:0:
48,96,23469,1,0,0:0:0:0:
60,304,23688,1,0,0:0:0:0:
148,192,23907,2,0,P|168:140|172:92,1,105.000004005432,2|0,0:0|0:0,0:0:0:0:
292,64,24564,5,0,0:0:0:0:
172,88,24783,1,0,0:0:0:0:
336,140,25002,1,2,0:0:0:0:
455,167,25221,1,0,0:0:0:0:
292,216,25440,1,2,0:0:0:0:
172,243,25659,1,0,0:0:0:0:
400,304,25878,6,0,P|428:312|448:324,1,52.5000020027161,4|0,0:0|0:0,0:0:0:0:
64,323,26316,2,0,P|86:310|112:304,1,52.5000020027161,0|0,0:0|0:0,0:0:0:0:
256,232,26754,1,2,0:0:0:0:
208,356,26973,1,0,0:0:0:0:
316,280,27192,1,0,0:0:0:0:
256,148,27411,2,0,B|248:116|264:80|256:40,1,105.000004005432,2|0,0:0|0:0,0:0:0:0:
376,36,28068,1,0,0:0:0:0:
136,36,28287,5,8,0:3:0:0:
136,36,28725,1,0,0:0:0:0:
376,36,28944,1,2,0:0:0:0:
256,92,29163,1,0,0:0:0:0:
432,80,29382,6,0,P|440:52|440:24,1,52.5000020027161,4|0,0:0|0:0,0:0:0:0:
392,164,29819,2,0,P|384:192|384:220,1,52.5000020027161
484,164,30257,1,2,0:0:0:0:
344,184,30476,1,0,0:0:0:0:
412,64,30695,1,0,0:0:0:0:
444,248,30914,2,0,P|424:300|384:332,1,105.000004005432,2|0,0:0|0:0,0:0:0:0:
280,296,31571,5,0,0:0:0:0:
368,248,31790,1,0,0:0:0:0:
160,324,32009,2,0,P|132:328|96:324,1,52.5000020027161,2|0,0:0|0:0,0:0:0:0:
280,296,32447,1,2,0:0:0:0:
228,156,32666,1,0,0:0:0:0:
160,324,32885,6,0,P|200:328|224:332,1,52.5000020027161,4|0,0:0|0:0,0:0:0:0:
56,220,33323,1,0,0:0:0:0:
280,180,33542,1,0,0:0:0:0:
160,120,33761,2,0,P|156:152|164:184,1,52.5000020027161,2|0,0:0|0:0,0:0:0:0:
284,32,34199,1,0,0:0:0:0:
480,36,34418,2,0,P|428:28|368:40,1,105.000004005432,2|0,0:0|0:0,0:0:0:0:
432,100,35075,5,0,0:0:0:0:
480,192,35294,1,0,0:0:0:0:
432,284,35513,1,2,0:0:0:0:
480,192,35732,1,0,0:0:0:0:
432,100,35951,1,2,0:0:0:0:
432,284,36170,1,0,0:0:0:0:
300,160,36389,6,0,P|328:164|356:172,1,52.5000020027161,2|0,0:0|0:0,0:0:0:0:
196,360,36827,2,0,P|191:334|195:308,1,52.5000020027161,2|0,0:0|0:0,0:0:0:0:
328,296,37265,1,2,0:0:0:0:
280,148,37484,1,0,0:0:0:0:
464,260,37703,1,2,0:0:0:0:
176,292,37922,2,0,P|124:296|60:292,1,105.000004005432,4|0,3:2|0:0,0:0:0:0:
256,192,38579,6,0,P|260:156|256:136,1,52.5000020027161
140,60,39017,1,2,0:0:0:0:
256,40,39236,1,0,0:0:0:0:
372,60,39455,1,2,0:0:0:0:
372,60,39564,1,0,0:0:0:0:
372,60,39673,1,0,0:0:0:0:
404,340,39892,6,0,P|408:312|400:280,1,52.5000020027161,4|8,0:0|0:0,0:0:0:0:
396,268,40221,1,8,0:0:0:0:
388,248,40330,1,8,0:0:0:0:
272,320,40549,2,0,B|224:300|164:344|112:312,1,157.500006008148,8|0,0:0|0:0,0:0:0:0:
24,228,41425,2,0,L|56:208,2,26.2500010013581,8|8|8,0:0|0:0|0:0,0:0:0:0:
192,180,41863,2,0,B|204:160|204:160|180:104|212:28,1,157.500006008148,8|8,0:0|0:0,0:0:0:0:
211,29,42958,1,8,0:0:0:0:
300,108,43396,5,8,0:0:0:0:
312,188,43614,1,0,0:0:0:0:
357,256,43834,1,8,0:0:0:0:
425,300,44052,1,0,0:0:0:0:
300,108,44272,5,8,0:0:0:0:
218,120,44490,1,0,0:0:0:0:
150,164,44709,1,8,0:0:0:0:
106,232,44929,2,0,P|144:272|168:328,1,105.000004005432,0|8,0:0|0:0,0:0:0:0:
165,316,45476,5,0,0:0:0:0:
165,316,45586,1,8,0:0:0:0:
165,316,45695,1,0,0:0:0:0:
165,316,45805,1,0,0:0:0:0:
165,316,45914,1,0,0:0:0:0:
165,316,46024,1,8,0:0:0:0:
280,288,46243,1,0,0:0:0:0:
164,316,46462,1,8,0:0:0:0:
244,152,46681,1,0,0:0:0:0:
276,340,46900,6,0,P|308:336|336:324,1,52.5000020027161,2|0,0:0|0:0,0:0:0:0:
500,196,47338,2,0,P|468:200|436:212,1,52.5000020027161,2|0,0:0|0:0,0:0:0:0:
200,100,47776,2,0,P|200:132|208:160,1,52.5000020027161,2|0,0:0|0:0,0:0:0:0:
404,80,48214,1,8,0:0:0:0:
404,80,48323,1,0,0:0:0:0:
404,80,48433,1,8,0:0:0:0:
404,80,48542,1,0,0:0:0:0:
404,80,48652,6,0,P|336:64|264:80,1,140,4|8,0:0|0:0,0:0:0:0:
176,128,49309,1,0,0:0:0:0:
44,44,49528,2,0,P|76:28|112:24,1,70
56,168,49965,1,8,0:0:0:0:
192,136,50184,2,0,P|176:204|200:276,1,140,0|0,0:0|0:0,0:0:0:0:
280,320,50841,5,8,0:0:0:0:
384,200,51060,1,0,0:0:0:0:
384,200,51170,1,0,0:0:0:0:
384,200,51279,2,0,P|388:160|376:120,1,70,0|0,0:0|0:0,0:0:0:0:
476,324,51717,2,0,P|440:328|396:320,1,70,8|0,0:0|0:0,0:0:0:0:
220,316,52155,6,0,P|220:252|188:176,1,140,4|8,0:0|0:0,0:0:0:0:
144,96,52812,1,0,0:0:0:0:
144,96,52922,1,0,0:0:0:0:
144,96,53031,2,0,P|180:76|216:72,1,70
164,208,53469,1,8,0:0:0:0:
208,71,53688,2,0,P|280:80|352:68,1,140
432,40,54345,5,8,0:0:0:0:
472,148,54564,1,0,0:0:0:0:
472,148,54673,1,0,0:0:0:0:
472,148,54783,2,0,P|476:184|472:232,1,70
296,260,55221,1,8,0:0:0:0:
384,184,55440,1,0,0:0:0:0:
230,248,55659,6,0,P|161:236|92:240,1,140,4|8,0:0|0:0,0:0:0:0:
200,148,56316,1,0,0:0:0:0:
312,156,56535,2,0,P|324:120|344:88,2,70,0|0|8,0:0|0:0|0:0,0:0:0:0:
168,100,57192,2,0,P|98:95|28:101,1,140
84,248,57849,6,0,P|80:288|68:324,1,70,8|0,0:0|0:0,0:0:0:0:
71,316,58177,1,0,0:0:0:0:
71,316,58287,1,0,0:0:0:0:
168,220,58506,1,0,0:0:0:0:
248,304,58725,1,8,0:0:0:0:
296,136,58944,1,0,0:0:0:0:
420,240,59163,5,8,0:3:0:0:
428,220,59272,1,8,0:3:0:0:
436,200,59382,1,8,0:3:0:0:
356,344,59600,2,0,P|304:316|232:296,1,105,4|0,0:0|0:0,0:0:0:0:
240,296,60038,1,8,0:0:0:0:
352,156,60257,1,0,0:0:0:0:
216,40,60476,1,8,0:0:0:0:
240,296,60695,2,0,P|312:308|384:292,1,140,4|0,0:0|0:0,0:0:0:0:
444,144,61352,5,8,0:0:0:0:
340,64,61571,1,0,0:0:0:0:
444,40,61790,2,0,P|480:60|508:88,1,70,8|0,0:3|0:0,0:0:0:0:
284,112,62228,1,8,0:0:0:0:
256,116,62338,1,0,0:0:0:0:
228,116,62447,1,8,0:0:0:0:
200,112,62557,1,0,0:0:0:0:
172,104,62666,6,0,P|104:92|28:108,1,140,4|8,0:0|0:0,0:0:0:0:
132,176,63323,1,0,0:0:0:0:
184,328,63542,2,0,P|184:288|176:256,1,70
280,252,63980,1,8,0:0:0:0:
332,352,64199,2,0,P|400:328|472:324,1,140
376,240,64856,5,8,0:0:0:0:
480,184,65075,1,0,0:0:0:0:
320,256,65294,1,0,0:0:0:0:
424,200,65513,1,0,0:0:0:0:
264,272,65732,1,8,0:0:0:0:
368,216,65951,1,0,0:0:0:0:
200,288,66170,6,0,P|264:268|348:256,1,140,4|8,0:0|0:0,0:0:0:0:
284,168,66827,1,0,0:0:0:0:
284,168,66936,1,0,0:0:0:0:
284,168,67046,2,0,P|268:132|240:104,1,70,0|0,0:0|0:0,0:0:0:0:
144,184,67484,1,8,0:0:0:0:
189,57,67703,2,0,P|153:113|145:189,1,140
92,308,68360,5,8,0:0:0:0:
240,276,68579,1,0,0:0:0:0:
240,276,68688,1,0,0:0:0:0:
240,276,68798,2,0,P|280:276|312:284,1,70
232,124,69236,1,8,0:0:0:0:
288,244,69455,1,0,0:0:0:0:
268,44,69673,6,0,P|200:52|136:92,1,140,4|8,0:0|0:0,0:0:0:0:
56,148,70330,1,0,0:0:0:0:
152,252,70549,2,0,P|136:288|128:328,1,70
292,140,70987,1,8,0:0:0:0:
292,140,71206,2,0,P|336:124|404:60,1,140
396,180,71863,1,8,0:0:0:0:
444,348,72082,1,0,0:0:0:0:
448,328,72192,1,0,0:0:0:0:
452,308,72301,2,0,P|416:296|372:300,1,70,0|0,0:0|0:0,0:0:0:0:
208,320,72739,5,8,0:0:0:0:
272,184,72958,1,0,0:0:0:0:
112,68,73177,1,8,0:3:0:0:
112,68,73287,1,8,0:3:0:0:
112,68,73396,1,8,0:3:0:0:
48,268,73615,2,0,P|96:280|152:268,1,105,8|0,0:0|0:0,0:0:0:0:
168,260,74053,5,8,0:0:0:0:
304,212,74272,1,0,0:0:0:0:
220,180,74491,1,8,0:0:0:0:
268,316,74710,1,4,0:0:0:0:
268,316,75148,5,0,0:0:0:0:
268,316,75257,1,0,0:0:0:0:
268,316,75367,1,8,0:0:0:0:
202,98,75586,2,0,L|216:65,2,35,0|0|8,0:0|0:0|0:0,0:0:0:0:
314,156,76024,1,0,0:0:0:0:
256,40,76243,5,8,0:0:0:0:
260,60,76352,1,0,0:0:0:0:
256,80,76462,1,8,0:0:0:0:
260,100,76571,1,0,0:0:0:0:
256,120,76681,2,0,B|248:176|264:216|256:268,1,140,4|0,0:0|0:0,0:0:0:0:
