osu file format v9

[General]
AudioFilename: 126 Purple Comet.mp3
AudioLeadIn: 0
PreviewTime: 58856
Countdown: 0
SampleSet: Normal
StackLeniency: 0.7
Mode: 0
LetterboxInBreaks: 1

[Editor]
DistanceSpacing: 1
BeatDivisor: 8
GridSize: 8

[Metadata]
Title:Purple Comet
Artist:Mahito Yokota
Creator:Lybydose
Version:Normal
Source:Super Mario Galaxy
Tags:Coins Nintendo Wii

[Difficulty]
HPDrainRate:3
CircleSize:4
OverallDifficulty:3
ApproachRate:5
SliderMultiplier:1.4
SliderTickRate:1

[Events]
//Background and Video events
0,0,"SuperMarioGalaxyWallpaper1024.jpg"
//Break Periods
//Storyboard Layer 0 (Background)
//Storyboard Layer 1 (Fail)
//Storyboard Layer 2 (Pass)
//Storyboard Layer 3 (Foreground)
//Storyboard Sound Samples
//Background Colour Transformations
3,100,163,162,255

[TimingPoints]
468,405.445405405405,4,2,0,40,1,0
19836,-100,4,1,1,41,0,0
24599,-100,4,1,1,50,0,0
26119,-100,4,2,0,51,0,0
39295,-100,4,1,0,51,0,0
42538,-100,4,1,0,60,0,0
44160,-100,4,1,0,70,0,0
45579,-100,4,2,0,40,0,0
58852,-100,4,2,0,50,0,1
60376,-100,4,2,0,60,0,1
61998,-100,4,2,0,70,0,1
62910,-100,4,2,0,61,0,1
71725,-100,4,2,0,71,0,0
71826,-100,4,2,0,69,0,1
73349,-100,4,2,0,80,0,1
74971,-100,4,2,0,90,0,1
75579,-100,4,1,0,50,0,1
84800,-100,4,1,0,31,0,0

[Colours]
Combo1 : 255,0,0
Combo2 : 0,0,255
Combo3 : 12,252,18
Combo4 : 244,244,0

[HitObjects]
256,64,6752,1,0
200,112,6955,2,0,B|168:168|216:224,2,105,2|0|2
264,160,7766,1,0
400,224,8171,1,2
448,360,8576,2,0,B|416:336|416:336|384:312|352:336|352:336|320:360|288:336|288:336|256:312|224:336|224:336|192:360|160:336|160:336|128:312|96:336|96:336|64:360,1,420
32,296,9995,5,0
72,240,10198,2,0,B|192:240,2,105,2|0|2
32,184,11009,1,0
176,136,11415,1,2
68,54,11820,2,0,B|95:33|95:33|127:9|159:33|159:33|191:57|223:33|223:33|255:9|287:33|287:33|319:57|351:33|351:33|383:9|415:33|415:33|447:57,1,420,2|0
432,128,13239,5,0
360,128,13442,2,0,B|296:168|336:248,2,105,2|0|2
392,192,14253,1,0
336,312,14658,1,2
216,368,15064,2,0,B|120:312|80:192|120:72|216:16,1,420
248,80,16483,5,0
216,144,16685,2,0,B|185:202|232:265,2,105,0|0|2
272,192,17496,1,0
184,304,17902,1,2
312,368,18307,2,0,B|407:312|447:192|407:72|314:17,1,420,2|0
256,120,19929,6,0,B|168:40|40:104,2,210,0|0|4
256,264,21551,2,0,B|168:344|40:280,2,210,0|0|4
368,192,23172,6,0,B|152:192,2,210,0|0|4
432,288,24794,2,0,B|504:192|416:72,2,210,0|0|4
368,320,26213,5,2
296,320,26416,2,0,B|296:184,2,105,4|0|0
224,320,27227,1,0
368,248,27632,1,2
224,184,28038,2,0,B|136:184|136:184|56:184|20:112|56:40|136:40|136:40|232:40,1,420
216,112,29457,5,0
288,112,29660,2,0,B|376:24,2,105,2|0|0
352,152,30470,1,0
259,264,30876,1,2
160,336,31281,2,0,B|248:336|248:336|328:336|364:264|328:192|248:192|248:192|160:192,1,420,2|0
136,264,32700,5,0
88,200,32903,2,0,B|64:136|120:80,2,105,2|0|0
40,264,33714,1,0
168,344,34119,1,2
320,336,34525,2,0,B|384:320|456:288|492:191|456:96|384:64|320:48,1,420
256,88,35944,5,0
320,128,36147,2,0,B|394:150|368:240,2,105,2|0|0
296,200,36958,1,0
256,352,37363,1,2
216,200,37768,2,0,B|120:200|88:120|120:40|216:40,2,280,2|2|0
352,328,39998,5,0
160,328,40607,1,4
256,248,41012,1,0
352,88,41620,1,0
160,88,42228,1,4
120,208,42634,5,0
312,208,43242,1,0
216,368,43850,1,4
216,240,44256,1,0
216,48,44864,1,0
384,144,45472,1,4
312,144,45675,5,2
344,208,45877,1,4
312,320,46181,1,0
192,336,46486,1,0
120,336,46688,2,0,B|48:288|64:184,1,140,0|2
192,256,47499,2,0,B|348:299|337:174|337:174|326:49|482:92,1,420,2|0
464,168,48918,5,0
464,240,49121,1,2
424,352,49425,1,0
392,240,49729,1,0
392,168,49932,1,2
264,112,50337,1,2
320,256,50743,2,0,B|163:299|174:174|174:174|185:49|29:92,1,420,2|0
32,160,52162,5,0
64,224,52365,2,0,B|24:280|64:352,2,105
120,272,53175,2,0,B|152:304|216:328|280:304|312:272,1,210
368,224,53986,2,0,B|408:280|368:352,2,105,2|2|2
288,192,54797,2,0,B|136:192,1,140,2|0
184,120,55405,5,0
112,120,55608,2,0,B|56:88|56:24,2,105
72,184,56419,2,0,B|16:264|64:352|152:352,1,210
197,349,57230,2,0,B|312:349,2,105,2|2|2
200,280,58041,2,0,B|256:200|208:112|120:112,1,210,2|0
128,184,58852,5,4
256,352,59460,1,0
384,184,60068,1,2
256,136,60473,1,4
152,320,61082,1,0
360,320,61690,1,2
256,384,62095,1,4
136,208,62703,2,0,B|149:154|176:93|257:63|337:93|364:154|377:208,1,350,0|0
256,272,64122,5,2
128,336,64528,1,2
80,208,64933,1,2
208,152,65339,2,0,B|200:86|280:19|353:45,1,210,2|0
456,176,66352,5,2
456,176,66555,1,2
456,176,66758,2,0,B|416:264|264:288|192:200,1,280,2|0
352,156,67974,1,2
352,156,68177,1,2
352,156,68380,2,0,B|64:156,1,280,2|0
192,227,69596,5,2
256,259,69799,1,2
320,227,70001,1,2
320,87,70407,1,0
256,55,70610,1,2
192,87,70812,1,0
392,156,71420,1,0
256,160,71826,5,4
64,248,72434,1,0
256,336,73042,1,2
152,248,73448,1,4
360,248,74056,1,0
256,56,74664,1,2
256,196,75069,1,4
448,248,75678,2,2,B|512:104|408:-8|256:24,1,350,2|0
360,136,77097,5,2
256,232,77502,1,2
152,136,77908,1,2
256,40,78313,1,2
256,360,79327,5,2
256,360,79529,1,2
256,360,79732,2,2,B|256:120,1,210
256,80,80543,1,2
184,200,80948,1,2
328,200,81354,2,2,B|472:200|472:64|320:64,1,280,2|0
208,128,82570,5,2
144,96,82773,1,0
80,128,82976,1,2
144,328,83584,1,2
80,280,83787,2,2,B|157:219|229:300,2,140
256,192,84800,12,0,88043
