osu file format v9

[General]
AudioFilename: 126 Purple Comet.mp3
AudioLeadIn: 0
PreviewTime: 58856
Countdown: 0
SampleSet: Soft
StackLeniency: 0.7
Mode: 0
LetterboxInBreaks: 1

[Editor]
DistanceSpacing: 1
BeatDivisor: 4
GridSize: 8

[Metadata]
Title:Purple Comet
Artist:Mahito Yokota
Creator:Lybydose
Version:Insane
Source:Super Mario Galaxy
Tags:Coins Nintendo Wii

[Difficulty]
HPDrainRate:7
CircleSize:4
OverallDifficulty:7
ApproachRate:7
SliderMultiplier:2
SliderTickRate:1

[Events]
//Background and Video events
0,0,"SuperMarioGalaxyWallpaper1024.jpg"
//Break Periods
//Storyboard Layer 0 (Background)
//Storyboard Layer 1 (Fail)
//Storyboard Layer 2 (Pass)
//Storyboard Layer 3 (Foreground)
//Storyboard Sound Samples
//Background Colour Transformations
3,100,163,162,255

[TimingPoints]
468,405.445405405405,4,2,0,40,1,0
19836,-76.9230769230769,4,1,1,41,0,0
24599,-76.9230769230769,4,1,1,50,0,0
26119,-100,4,2,0,51,0,0
39295,-76.9230769230769,4,1,1,51,0,0
42538,-76.9230769230769,4,1,1,60,0,0
44211,-76.9230769230769,4,1,1,70,0,0
45782,-100,4,2,0,40,0,0
57944,-200,4,2,0,41,0,0
58750,-100,4,2,0,50,0,0
58852,-100,4,2,0,50,0,1
60376,-100,4,2,0,60,0,1
61998,-100,4,2,0,70,0,1
62910,-100,4,2,0,61,0,1
71725,-100,4,2,0,71,0,0
71826,-100,4,2,0,69,0,1
73349,-100,4,2,0,80,0,1
74971,-100,4,2,0,90,0,1
75579,-100,4,1,0,50,0,1
78417,-100,4,2,0,70,0,1
79227,-100,4,1,0,51,0,1
81457,-100,4,2,0,70,0,1
82471,-100,4,1,0,50,0,1
84800,-100,4,1,0,31,0,0

[Colours]
Combo1 : 255,0,0
Combo2 : 0,0,255
Combo3 : 12,252,18
Combo4 : 244,244,0

[HitObjects]
368,344,6752,5,0
368,344,6955,1,2
256,192,7259,1,0
148,336,7563,1,2
176,240,7766,2,0,B|149:172|174:124|216:90|291:101,1,200,0|2
96,248,8576,2,0,B|68:136|120:61|179:25|272:18,2,300,0|0|0
44,336,9995,5,0
148,336,10198,1,2
256,192,10502,1,0
364,336,10806,1,2
336,240,11009,2,0,B|363:172|338:124|296:90|221:101,1,200,0|2
416,248,11820,2,0,B|444:136|392:61|333:25|240:18,2,300,2|0|2
316,204,13239,5,0
260,116,13442,1,2
260,296,13746,1,0
260,116,14050,1,2
200,204,14253,2,0,B|432:204,1,200,0|2
176,116,15064,2,0,B|84:116|25:204|84:292|176:292,2,300,0|0|0
329,132,16483,5,0
242,48,16685,1,2
176,204,16989,1,0
342,250,17293,1,2
257,265,17496,2,0,B|273:225|279:156|220:117|179:110,1,200,0|2
24,232,18307,2,0,B|72:392|296:336,2,300,2|0|0
162,84,19929,5,0
162,84,20030,1,0
328,72,20233,1,0
328,72,20334,1,0
395,225,20537,1,0
395,225,20638,1,0
229,237,20841,1,0
229,237,20942,1,0
105,204,21145,2,0,B|120:372|295:349,1,259.999995350838,4|0
312,324,21652,5,0
428,264,21855,1,0
428,264,21956,1,0
428,120,22159,1,0
428,120,22260,1,0
324,44,22463,1,0
324,44,22564,1,0
256,196,22767,1,4
152,50,23172,5,0
152,50,23274,2,0,B|152:206,1,129.999997675419
152,252,23578,2,0,B|232:376,1,129.999997675419
295,362,23882,2,0,B|366:253,1,129.999997675419
366,181,24186,2,0,B|366:51,1,129.999997675419,0|4
105,79,24794,5,0
105,79,24896,2,0,B|153:23|233:47,1,129.999997675419
293,47,25200,2,0,B|362:25|409:81,1,129.999997675419
421,159,25504,2,0,B|281:159,1,129.999997675419
221,159,25808,2,0,B|89:159,1,129.999997675419,0|4
256,264,26213,5,2
312,348,26416,2,0,B|404:372|456:280,1,150,4|0
448,252,26821,1,8
352,224,27024,1,0
384,104,27227,2,0,B|272:77|224:194,1,200,0|2
80,292,28038,5,0
132,152,28342,1,0
132,152,28443,1,8
68,76,28646,2,0,B|140:0|268:32,1,200
264,128,29254,1,0
208,212,29457,5,0
264,296,29660,2,0,B|328:352|428:316,1,150,2|0
452,304,30065,1,8
400,220,30268,1,0
292,180,30470,2,0,B|372:136|252:60|316:0,2,200,0|2|2
156,116,31585,5,0
156,116,31687,1,8
116,24,31890,2,0,B|40:60|24:140|84:232,1,200
112,280,32498,1,0
168,196,32700,5,0
220,280,32903,2,0,B|296:248|296:152,1,150,2|0
320,120,33309,1,8
416,76,33511,1,0
472,160,33714,2,0,B|360:200|368:340,2,200,0|2|0
320,192,34829,5,0
320,192,34930,1,8
256,272,35133,1,0
148,104,35539,1,0
211,40,35741,1,0
300,40,35944,5,0
364,104,36147,2,0,B|436:160|384:284,1,150,2|0
380,280,36552,1,8
312,336,36755,1,0
224,316,36958,1,0
136,160,37363,1,2
224,316,37768,5,2
92,296,38073,1,0
92,296,38174,2,0,B|176:236,1,100,8|0
352,240,38782,1,0
352,240,38985,1,0
178,49,39390,5,0
178,49,39492,2,0,B|102:157,1,129.999997675419
158,205,39796,2,0,B|230:337,1,129.999997675419
294,321,40100,2,0,B|356:206,1,129.999997675419
407,155,40404,2,0,B|332:48,1,129.999997675419,0|4
256,220,41012,5,0
256,220,41113,1,0
256,48,41316,1,0
256,48,41417,1,0
344,164,41620,1,0
344,164,41722,1,0
168,164,41924,1,0
168,164,42026,1,0
40,156,42228,1,4
16,204,42330,1,0
36,256,42431,1,0
104,340,42634,5,0
104,340,42735,2,0,B|268:340,1,129.999997675419
304,340,43039,1,0
416,252,43242,1,0
416,252,43343,2,0,B|264:252,1,129.999997675419
216,252,43647,1,0
256,116,43850,1,4
192,48,44053,5,0
232,32,44154,1,0
276,32,44256,1,0
320,48,44357,1,0
368,124,44560,2,0,B|368:200,1,64.9999988377094
256,324,44864,2,0,B|256:240,1,64.9999988377094
144,124,45168,2,0,B|144:189,1,64.9999988377094
256,324,45472,1,4
256,324,45573,1,0
256,324,45675,1,0
343,310,45877,6,0,B|432:276|428:200,2,150,4|0|0
280,232,46688,1,2
104,328,47094,1,2
32,140,47499,5,0
120,256,47803,1,0
240,172,48107,1,0
436,120,48513,1,0
436,120,48614,1,0
436,120,48716,1,0
344,80,48918,5,0
252,44,49121,2,0,B|96:44,2,150,2|0|0
344,80,49932,1,2
256,264,50337,1,2
482,192,50743,2,0,B|435:361|256:399|76:361|29:192,1,600,2|0
96,120,52162,5,0
160,192,52365,1,0
256,60,52669,1,0
352,192,52973,1,0
416,120,53175,2,0,B|508:232|420:352|312:352,1,300
256,324,53986,5,2
160,192,54290,1,2
352,192,54594,1,2
343,94,54797,2,0,B|312:55|256:35|200:55|168:95,1,200,2|0
76,40,55405,5,0
76,40,55608,1,0
36,192,55912,1,0
76,344,56216,1,0
164,308,56419,2,0,B|244:264|280:192|244:120|164:76,1,300
168,192,57230,5,2
296,292,57534,1,2
440,232,57838,1,2
448,144,58041,2,0,B|436:48|328:48,1,150,2|0
348,148,58852,6,0,B|204:260,1,150,4|0
192,276,59257,1,8
104,232,59460,1,0
64,56,59764,1,0
64,56,59865,1,0
160,44,60068,1,2
240,96,60271,1,0
164,148,60473,6,0,B|308:260,1,150,4|0
320,276,60879,1,8
264,360,61082,1,0
112,308,61386,1,0
112,308,61487,2,0,B|56:264|100:176,1,100,0|2
256,192,61892,1,0
400,76,62095,6,0,B|476:132|424:240,1,150,4|0
404,260,62501,1,8
328,324,62703,1,0
180,344,63007,1,0
180,344,63109,1,0
108,276,63312,1,2
104,176,63514,1,0
148,88,63717,1,0
256,292,64122,5,2
364,124,64528,1,2
164,120,64933,1,2
256,292,65339,2,0,B|316:356|400:340,1,150,2|0
432,312,65744,1,8
464,216,65947,1,0
340,60,66352,5,2
340,60,66555,1,2
340,60,66758,1,2
240,60,66961,2,0,B|256:160|368:172,1,150,0|0
372,196,67366,1,8
332,288,67569,1,0
136,316,67974,6,0,B|64:344|16:304,2,100,2|2|2
224,268,68582,1,0
152,136,68886,1,0
152,136,68988,1,8
236,80,69190,1,0
332,100,69393,1,0
348,132,69495,1,0
352,168,69596,1,2
344,204,69697,1,0
328,236,69799,1,2
280,324,70001,1,2
178,311,70204,6,0,B|66:296|79:166,1,200,0|2
80,67,70812,2,0,B|192:82|179:212,1,200,0|0
264,156,71420,1,0
260,120,71522,1,0
260,88,71623,1,0
268,56,71725,1,0
292,32,71826,6,0,B|384:28|432:104,1,150,4|0
440,140,72231,1,8
412,264,72434,2,0,B|356:320|260:292,1,150
216,288,72840,1,0
128,332,73042,1,2
44,284,73245,1,0
76,104,73448,6,0,B|64:188|152:228,1,150,4|0
196,228,73853,1,8
272,164,74056,6,0,B|284:80|196:40,1,150,0|0
152,44,74461,1,0
180,140,74664,1,2
180,140,74867,1,0
326,310,75069,6,2,B|246:374|166:294,1,150,6|0
256,264,75475,1,8
443,262,75678,2,2,B|408:124|256:88|104:124|68:264,1,500,2|0
424,332,77097,5,2
88,52,77502,1,2
424,52,77908,1,2
88,332,78313,1,2
260,292,78617,5,0
260,292,78718,1,8
260,192,78921,1,0
48,264,79327,5,2
80,140,79529,1,2
176,52,79732,1,2
331,351,80340,1,2
331,351,80543,2,2,B|457:326|424:200,2,200
348,257,81557,2,0,B|237:153,1,150
203,123,81962,1,8
108,92,82165,1,0
108,276,82570,5,2
256,220,82773,1,0
404,276,82976,1,2
348,56,83584,1,2
164,56,83787,1,2
256,344,84192,1,2
256,68,84597,1,2
256,192,84800,12,0,88043
