osu file format v9

[General]
AudioFilename: 126 Purple Comet.mp3
AudioLeadIn: 0
PreviewTime: 58856
Countdown: 0
SampleSet: Normal
StackLeniency: 0.7
Mode: 0
LetterboxInBreaks: 1

[Editor]
DistanceSpacing: 1
BeatDivisor: 4
GridSize: 8

[Metadata]
Title:Purple Comet
Artist:Mahito Yokota
Creator:Lybydose
Version:Easy
Source:Super Mario Galaxy
Tags:Coins Nintendo Wii

[Difficulty]
HPDrainRate:1
CircleSize:3
OverallDifficulty:1
ApproachRate:3
SliderMultiplier:1
SliderTickRate:1

[Events]
//Background and Video events
0,0,"SuperMarioGalaxyWallpaper1024.jpg"
//Break Periods
//Storyboard Layer 0 (Background)
//Storyboard Layer 1 (Fail)
//Storyboard Layer 2 (Pass)
//Storyboard Layer 3 (Foreground)
//Storyboard Sound Samples
//Background Colour Transformations
3,100,163,162,255

[TimingPoints]
468,405.445405405405,4,2,0,40,1,0
19836,-100,4,1,1,41,0,0
24599,-100,4,1,1,50,0,0
26119,-100,4,2,0,51,0,0
39295,-100,4,1,1,51,0,0
42538,-100,4,1,1,60,0,0
44160,-100,4,1,1,70,0,0
45782,-100,4,2,0,40,0,0
58852,-100,4,2,0,50,0,1
60376,-100,4,2,0,60,0,1
61998,-100,4,2,0,70,0,1
62910,-100,4,2,0,61,0,1
71725,-100,4,2,0,71,0,0
71826,-100,4,2,0,69,0,1
73349,-100,4,2,0,80,0,1
74971,-100,4,2,0,90,0,1
75579,-100,4,1,0,50,0,1
84802,-100,4,1,0,31,0,0

[Colours]
Combo1 : 255,0,0
Combo2 : 0,0,255
Combo3 : 12,252,18
Combo4 : 244,244,0

[HitObjects]
104,72,6752,1,0
104,72,6955,2,0,B|48:120|24:208|48:296|104:344,1,300,2|0
160,256,8576,2,0,B|424:256,1,250,0|0
416,152,9995,5,0
416,152,10198,2,0,B|368:96|280:72|192:96|144:152,1,300,2|0
160,248,11820,2,0,B|416:248,1,250,2|0
368,336,13239,5,0
368,336,13442,2,0,B|32:336,1,300,2|0
104,240,15064,2,0,B|32:160|88:32|192:40,1,250
176,144,16483,5,0
176,144,16685,2,0,B|328:32|440:184,1,300,2|0
352,240,18307,2,0,B|288:336|184:360|80:336|16:240,1,400,2|0
176,216,20537,5,0
176,64,21145,1,4
256,8,21551,1,0
256,160,22159,1,0
256,312,22767,1,4
327,236,23172,6,0,B|151:236,2,150,0|0|4
427,236,24794,2,0,B|427:76,2,150,0|0|4
392,328,26416,6,0,B|304:400|160:336,1,200,4|0
264,272,27632,1,2
296,176,28038,2,0,B|184:104|40:176,1,250
80,264,29457,5,0
80,264,29660,1,2
264,336,30470,1,0
360,296,30876,1,2
410,194,31281,2,0,B|456:96|376:8|296:33,1,250,2|0
256,128,32700,5,0
256,128,32903,2,0,B|256:344,1,200,2|0
176,272,34119,1,2
166,360,34525,2,0,B|87:385|7:297|52:199,1,250
56,104,35944,5,0
56,104,36147,1,2
248,40,36958,1,0
336,80,37363,1,2
384,168,37768,2,0,B|440:264|360:352,2,200,2|2|0
256,88,39998,5,0
128,160,40607,1,4
128,256,41012,1,0
256,328,41620,1,0
384,256,42228,1,4
392,160,42634,6,0,B|512:40,2,150,0|0|4
292,160,44256,2,0,B|172:40,2,150,0|0|4
344,248,45877,5,4
176,352,46688,1,2
80,328,47094,1,2
48,232,47499,2,0,B|32:128|128:40|224:64,1,250,2|0
184,160,48918,5,0
184,160,49121,2,0,B|184:288|336:304,1,200,2|2
392,272,50337,1,2
464,200,50743,2,0,B|488:80|376:8|280:40,1,250,2|0
296,128,52162,5,0
256,96,52365,2,0,B|160:96|152:216,1,150
192,224,53175,1,0
360,336,53986,6,0,B|432:272,2,75,2|2|2
312,336,54797,1,2
160,344,55405,5,0
120,312,55608,2,0,B|48:256|96:160,1,150
112,136,56419,1,0
304,192,57230,6,0,B|224:240,2,75,2|2|2
344,160,58041,1,2
176,56,58852,6,0,B|88:72|96:184,2,150,4|0|2
275,56,60473,2,0,B|363:72|355:184,2,150,4|0|2
216,136,62095,1,4
312,248,62703,2,0,B|280:320|216:337|152:320|120:248,1,250,0|0
216,232,64122,5,2
144,168,64528,1,2
216,104,64933,1,2
288,168,65339,2,0,B|448:168,1,150,2|0
408,264,66352,5,2
408,264,66555,1,2
408,264,66758,1,2
104,264,67974,1,2
104,264,68177,1,2
104,264,68380,1,2
208,32,69596,5,2
256,32,69799,1,2
304,32,70001,1,2
304,128,70407,1,0
256,128,70610,1,2
208,128,70812,1,0
280,248,71420,1,0
336,328,71826,6,0,B|424:312|416:200,2,150,4|0|2
237,328,73448,2,0,B|149:312|157:200,2,150,4|0|2
296,248,75069,1,4
200,136,75678,2,2,B|232:64|296:47|360:64|392:136,1,250,2|0
456,216,77097,5,2
352,216,77502,1,2
256,216,77908,1,2
160,216,78313,1,2
384,320,79327,5,2
384,320,79529,1,2
384,320,79732,1,2
256,248,80340,1,2
256,248,80543,2,2,B|256:144,2,100
128,64,82570,5,2
128,64,82773,1,0
128,64,82976,1,2
256,136,83584,1,2
256,136,83787,2,2,B|256:240,2,100
256,192,84800,12,0,88043
