osu file format v14

[General]
AudioFilename: Mine Cart Tunnel Throwdown.mp3
AudioLeadIn: 0
PreviewTime: 39162
Countdown: 0
SampleSet: Normal
StackLeniency: 0.7
Mode: 1
LetterboxInBreaks: 0
WidescreenStoryboard: 0

[Editor]
DistanceSpacing: 1.2
BeatDivisor: 4
GridSize: 32
TimelineZoom: 1.9

[Metadata]
Title:Mine Cart Tunnel Throwdown
TitleUnicode:Mine Cart Tunnel Throwdown
Artist:Mahito Yokota
ArtistUnicode:横田 真人
Creator:Nwolf
Version:Futsuu
Source:Captain Toad: Treasure Tracker
Tags:Kinopio nintendo 任天堂 進め!キノピオ隊長 New Super Mario Bros 3D World スーパーマリオ 3Dワールド Perilous Palace Turnip Toadette キノピコ
BeatmapID:778164
BeatmapSetID:353205

[Difficulty]
HPDrainRate:7
CircleSize:4
OverallDifficulty:4
ApproachRate:8
SliderMultiplier:1.4
SliderTickRate:1

[Events]
//Background and Video events
0,0,"creepy toad.jpg",0,0
//Break Periods
//Storyboard Layer 0 (Background)
//Storyboard Layer 1 (Fail)
//Storyboard Layer 2 (Pass)
//Storyboard Layer 3 (Foreground)
//Storyboard Sound Samples

[TimingPoints]
47,480,4,1,0,60,1,0
762,480,4,1,0,60,1,0
39162,-100,4,1,0,60,0,1
54522,-100,4,1,0,60,0,0

[HitObjects]
288,160,287,5,8,0:0:0:0:
224,160,762,1,0,0:0:0:0:
224,160,1482,1,0,0:0:0:0:
288,160,2202,1,8,0:0:0:0:
224,160,2682,1,0,0:0:0:0:
224,160,3402,1,0,0:0:0:0:
288,160,4122,1,8,0:0:0:0:
288,160,4362,1,8,0:0:0:0:
224,160,4602,1,0,0:0:0:0:
224,160,5322,1,0,0:0:0:0:
288,160,6042,1,8,0:0:0:0:
224,160,6522,1,0,0:0:0:0:
224,160,7242,1,0,0:0:0:0:
224,160,7722,1,0,0:0:0:0:
288,160,7962,1,8,0:0:0:0:
288,160,8202,1,8,0:0:0:0:
224,160,8442,5,0,0:0:0:0:
224,160,9162,1,0,0:0:0:0:
288,160,9882,1,8,0:0:0:0:
224,160,10362,1,0,0:0:0:0:
288,160,10602,1,8,0:0:0:0:
224,160,11082,1,0,0:0:0:0:
288,160,11322,1,8,0:0:0:0:
288,160,11802,1,8,0:0:0:0:
288,160,12282,1,8,0:0:0:0:
224,160,13002,1,0,0:0:0:0:
288,160,13722,1,8,0:0:0:0:
288,160,13962,1,8,0:0:0:0:
224,160,14202,1,0,0:0:0:0:
288,160,15642,1,8,0:0:0:0:
288,160,15882,1,8,0:0:0:0:
224,160,16122,1,0,0:0:0:0:
224,160,16842,1,0,0:0:0:0:
288,160,17562,1,8,0:0:0:0:
224,160,18042,1,0,0:0:0:0:
288,160,18282,1,8,0:0:0:0:
224,160,18762,1,0,0:0:0:0:
288,160,19002,1,8,0:0:0:0:
288,160,19482,1,8,0:0:0:0:
224,160,19962,1,0,0:0:0:0:
288,160,20682,1,8,0:0:0:0:
224,160,21162,1,0,0:0:0:0:
288,160,21402,1,8,0:0:0:0:
224,160,21882,1,0,0:0:0:0:
288,160,23322,1,8,0:0:0:0:
288,160,23562,1,8,0:0:0:0:
224,224,23802,5,4,0:0:0:0:
224,224,24522,1,12,0:0:0:0:
288,224,25242,1,12,0:0:0:0:
224,160,25722,1,0,0:0:0:0:
288,224,25962,1,12,0:0:0:0:
224,160,26442,1,0,0:0:0:0:
288,224,26682,1,12,0:0:0:0:
288,224,27162,1,12,0:0:0:0:
224,224,27642,1,4,0:0:0:0:
224,224,28362,1,4,0:0:0:0:
288,160,29082,1,8,0:0:0:0:
288,160,29322,1,8,0:0:0:0:
224,160,29562,1,0,0:0:0:0:
288,160,31002,1,8,0:0:0:0:
288,160,31242,1,8,0:0:0:0:
224,224,31482,1,4,0:0:0:0:
224,224,32202,1,4,0:0:0:0:
288,224,32922,1,12,0:0:0:0:
224,160,33402,1,0,0:0:0:0:
288,224,33642,1,12,0:0:0:0:
224,160,34122,1,0,0:0:0:0:
288,224,34362,1,12,0:0:0:0:
288,224,34842,1,12,0:0:0:0:
224,224,35322,1,4,0:0:0:0:
288,224,36042,1,12,0:0:0:0:
224,224,36762,1,4,0:0:0:0:
288,160,37482,1,8,0:0:0:0:
288,160,37722,1,8,0:0:0:0:
288,160,37962,1,8,0:0:0:0:
288,160,38682,1,8,0:0:0:0:
224,224,39162,5,4,0:0:0:0:
224,160,39522,1,0,0:0:0:0:
224,160,39882,1,0,0:0:0:0:
224,160,41082,1,0,0:0:0:0:
224,160,41442,1,0,0:0:0:0:
224,160,41802,1,0,0:0:0:0:
288,160,42282,1,8,0:0:0:0:
288,160,43002,1,8,0:0:0:0:
288,160,43362,1,8,0:0:0:0:
288,160,43722,1,8,0:0:0:0:
224,160,44682,1,0,0:0:0:0:
288,160,44922,1,8,0:0:0:0:
288,160,45282,1,8,0:0:0:0:
288,160,45642,1,8,0:0:0:0:
224,160,46842,1,0,0:0:0:0:
224,160,47202,1,0,0:0:0:0:
224,160,47562,1,0,0:0:0:0:
224,160,48762,1,0,0:0:0:0:
224,160,49122,1,0,0:0:0:0:
224,160,49482,1,0,0:0:0:0:
288,160,49962,1,8,0:0:0:0:
224,160,50442,1,0,0:0:0:0:
288,160,50682,1,8,0:0:0:0:
288,160,51042,1,8,0:0:0:0:
288,160,51402,1,8,0:0:0:0:
224,160,52362,1,0,0:0:0:0:
288,160,52602,1,8,0:0:0:0:
288,160,52962,1,8,0:0:0:0:
288,160,53322,1,8,0:0:0:0:
224,160,54042,1,0,0:0:0:0:
224,160,54522,5,0,0:0:0:0:
