osu file format v9

[General]
AudioFilename: ROTTER TAIYSHINKO [Nuclear Fusion x Rotter Tarmination].mp3
AudioLeadIn: 496
PreviewTime: 32434
Countdown: 0
SampleSet: Soft
StackLeniency: 0.7
Mode: 0
LetterboxInBreaks: 1

[Editor]
DistanceSpacing: 0.8
BeatDivisor: 6
GridSize: 8

[Metadata]
Title:ROTTER TAIYOSHINKO
Artist:Mahi feat. Hirune
Creator:OnosakiHito
Version:Saten's Hard
Source:
Tags:rotter tarmination nuclear fusion utsuho reiuji touhou taiko no tatsujin caution Saten-san CracK okuu

[Difficulty]
HPDrainRate:6
CircleSize:4
OverallDifficulty:6
ApproachRate:6
SliderMultiplier:1.3
SliderTickRate:1

[Events]
//Background and Video events
0,0,"osu_BG.jpg"
//Break Periods
//Storyboard Layer 0 (Background)
//Storyboard Layer 1 (Fail)
//Storyboard Layer 2 (Pass)
//Storyboard Layer 3 (Foreground)
Sprite,Foreground,Centre,"bulletMa007.png",320,240 M,0,92148,,156,118 R,0,92148,,-3.12 F,0,92148,92261,0,1 F,0,92261,92375,1,0
Sprite,Foreground,Centre,"bulletMa007.png",320,240 M,0,88284,,512,117 F,0,88284,88398,0,1 P,0,88284,88398,V F,0,88398,88511,1,0 P,0,88398,88511,V
Sprite,Foreground,Centre,"bulletMa007.png",320,240 M,0,89193,,164,119 F,0,89193,89307,0,1 P,0,89193,89307,V F,0,89307,89420,1,0 P,0,89307,89420,V
Sprite,Foreground,Centre,"objectAa000.png",320,240 M,0,74730,80430,543,-123,543,603 R,0,74730,80430,1.7408,-6.77888
Sprite,Foreground,Centre,"bulletNb000.png",320,240 M,0,41655,,440,418 F,0,41655,41730,0,1 S,0,41655,41880,0.1,1 F,0,41730,42030,1 S,0,41880,42030,1,1.14336 F,0,42030,42330,1,0 S,0,42030,42330,1.14336,1.32768
Sprite,Foreground,Centre,"objectAa000.png",320,240 M,0,2430,9630,339,-124,352,594 R,0,2430,9630,-0.38912,-7.495679
Sprite,Foreground,Centre,"objectAa000.png",320,240 M,0,1230,8430,98,-127,95,590 R,0,1230,8430,-0.16384,9.093121
Sprite,Foreground,Centre,"objectAa000.png",320,240 M,0,3630,10830,597,-130,606,594 R,0,3630,10830,-0.2048,7.249919
Sprite,Foreground,Centre,"bulletMa007.png",320,240 M,0,1230,,60,363 F,0,1230,1380,0,1 F,0,1380,1530,1,0
Sprite,Foreground,Centre,"bulletMa007.png",320,240 M,0,1680,,467,362 F,0,1680,1830,0,1 F,0,1830,1980,1,0
Sprite,Foreground,Centre,"bulletMa007.png",320,240 M,0,2130,,164,362 F,0,2130,2280,0,1 F,0,2280,2430,1,0
Sprite,Foreground,Centre,"bulletMa007.png",320,240 M,0,2580,,459,362 F,0,2580,2730,0,1 F,0,2730,2880,1,0
Sprite,Foreground,Centre,"bulletMa007.png",320,240 M,0,3030,,302,361 F,0,3030,3180,0,1 F,0,3180,3330,1,0
Sprite,Foreground,Centre,"bulletMa007.png",320,240 M,0,3330,,185,361 F,0,3330,3480,0,1 F,0,3480,3630,1,0
Sprite,Foreground,Centre,"bulletMa007.png",320,240 M,0,3630,,501,361 F,0,3630,3780,0,1 F,0,3780,3930,1,0
Sprite,Foreground,Centre,"bulletMa007.png",320,240 M,0,4080,,185,361 F,0,4080,4230,0,1 F,0,4230,4380,1,0
Sprite,Foreground,Centre,"bulletMa007.png",320,240 M,0,4530,,627,361 F,0,4530,4680,0,1 F,0,4680,4830,1,0
Sprite,Foreground,Centre,"bulletMa007.png",320,240 M,0,4980,,430,361 F,0,4980,5130,0,1 F,0,5130,5280,1,0
Sprite,Foreground,Centre,"bulletMa007.png",320,240 M,0,5430,,125,359 F,0,5430,5580,0,1 F,0,5580,5730,1,0
Sprite,Foreground,Centre,"bulletMa007.png",320,240 M,0,5730,,336,358 F,0,5730,5880,0,1 F,0,5880,6030,1,0
Sprite,Foreground,Centre,"bulletMa007.png",320,240 M,0,6030,,196,361 F,0,6030,6180,0,1 F,0,6180,6330,1,0
Sprite,Foreground,Centre,"bulletMa007.png",320,240 M,0,6480,,444,359 F,0,6480,6630,0,1 F,0,6630,6780,1,0
Sprite,Foreground,Centre,"bulletMa007.png",320,240 M,0,7380,,534,362 F,0,7380,7530,0,1 F,0,7530,7680,1,0
Sprite,Foreground,Centre,"bulletMa007.png",320,240 M,0,6930,,8,359 F,0,6930,7080,0,1 F,0,7080,7230,1,0
Sprite,Foreground,Centre,"bulletMa007.png",320,240 M,0,7830,,323,362 F,0,7830,7980,0,1 F,0,7980,8130,1,0 F,0,8130,8280,0,1 F,0,8280,8430,1,0
Sprite,Foreground,Centre,"bulletNb000.png",320,240 M,0,17655,,431,82 F,0,17655,17730,0,1 S,0,17655,17880,0.1,0.84752 F,0,17730,18030,1 S,0,17880,18030,0.84752,1.04208 F,0,18030,18330,1,0 S,0,18030,18330,1.04208,1.30832
Sprite,Foreground,Centre,"bulletNb000.png",320,240 M,0,41355,,40,38 F,0,41355,41430,0,1 S,0,41355,41580,0.1,1 F,0,41430,41730,1 S,0,41580,41730,1,1.17408 F,0,41730,42030,1,0 S,0,41730,42030,1.17408,1.33792
Sprite,Foreground,Centre,"bulletNb000.png",320,240 M,0,41505,,196,300 F,0,41505,41580,0,1 S,0,41505,41730,0.1,1 F,0,41580,41880,1 S,0,41730,41880,1,1.1536 F,0,41880,42180,1,0 S,0,41880,42180,1.1536,1.3072
Sprite,Foreground,Centre,"bulletNb000.png",320,240 M,0,36855,,296,247 F,0,36855,36930,0,1 S,0,36855,37080,0.1,1 F,0,36930,37230,1 S,0,37080,37230,1,1.13312 F,0,37230,37530,1,0 S,0,37230,37530,1.13312,1.32768
Sprite,Foreground,Centre,"bulletNb000.png",320,240 M,0,9555,,232,87 F,0,9555,9630,0,1 S,0,9555,9780,0.1,1 R,0,9630,,0 F,0,9630,9930,1 S,0,9780,9930,1,1.13312 F,0,9930,10230,1,0 S,0,9930,10230,1.13312,1.50176
Sprite,Foreground,Centre,"bulletNb000.png",320,240 M,0,10005,,138,342 F,0,10005,10080,0,1 S,0,10005,10230,0.1,1 F,0,10080,10380,1 S,0,10230,10380,1,1.22528 F,0,10380,10680,1,0 S,0,10380,10680,1.22528,1.45056
Sprite,Foreground,Centre,"bulletNb000.png",320,240 M,0,10455,,499,380 F,0,10455,10530,0,1 S,0,10455,10680,0.1,1 F,0,10530,10830,1 S,0,10680,10830,1,1.2048 F,0,10830,11130,1,0 S,0,10830,11130,1.2048,1.45056
Sprite,Foreground,Centre,"bulletCc000.png",320,240 F,0,10530,13230,0,1 M,0,10830,,324,-37 S,0,10830,,2.55648 F,0,13230,13380,1,0
Sprite,Foreground,Centre,"bulletCc000.png",320,240 M,0,10530,,324,532 S,0,10530,,2.56672 F,0,10530,13230,0,1 F,0,13230,13380,1,0
Sprite,Foreground,Centre,"bulletNb000.png",320,240 M,0,22155,,397,72 F,0,22155,22230,0,1 S,0,22155,22380,0.1,1 F,0,22230,22530,1 S,0,22380,22530,1,1.1536 F,0,22530,22830,1,0 S,0,22530,22830,1.1536,1.39936
Sprite,Foreground,Centre,"bulletNb000.png",320,240 M,0,22455,,151,378 F,0,22455,22530,0,1 S,0,22455,22680,0.1,1 F,0,22530,22830,1 S,0,22680,22830,1,1.16384 F,0,22830,23130,1,0 S,0,22830,23130,1.16384,1.41984
Sprite,Foreground,Centre,"objectAa000.png",320,240 M,0,24030,31230,184,-126,178,599 R,0,24030,31230,-0.4096,7.188481
Sprite,Foreground,Centre,"objectAa000.png",320,240 M,0,26430,33630,469,-123,477,590 R,0,26430,33630,0.2252799,-9.441278
Sprite,Foreground,Centre,"bulletMa007.png",320,240 M,0,8430,,59,358 R,0,8430,,0 F,0,8430,8580,0,1 F,0,8580,8730,1,0
Sprite,Foreground,Centre,"bulletMa007.png",320,240 M,0,8880,,212,358 F,0,8880,9030,0,1 F,0,9030,9180,1,0
Sprite,Foreground,Centre,"bulletMa007.png",320,240 M,0,9330,,457,360 F,0,9330,9480,0,1 F,0,9480,9630,1,0
Sprite,Foreground,Centre,"bulletMa007.png",320,240 M,0,9630,,231,359 F,0,9630,9780,0,1 F,0,9780,9930,1,0
Sprite,Foreground,Centre,"bulletMa007.png",320,240 M,0,10230,,356,359 F,0,10230,10380,0,1 F,0,10380,10530,1,0
Sprite,Foreground,Centre,"bulletMa007.png",320,240 M,0,10530,,29,360 F,0,10530,10680,0,1 F,0,10680,10830,1,0
Sprite,Foreground,Centre,"bulletHb000.png",320,240 S,0,44730,,0.4880002 M,0,44730,45330,94,545,98,174 R,0,44730,48030,0.3481598,-9.0112 M,0,45330,45480,98,174,98,171 M,0,45480,45780,98,171,98,177 M,0,45780,46080,98,177,98,172 M,0,46080,46380,98,172,98,179 M,0,46380,46680,98,179,97,169 M,0,46680,46980,97,169,98,178 M,0,46980,47280,98,178,98,171 M,0,47280,47580,98,171,98,179 M,0,47580,47880,98,179,98,173
Sprite,Foreground,Centre,"bulletHb000.png",320,240 S,0,45330,,0.5289601 M,0,45330,45780,265,532,259,249 R,0,45330,48330,0,-8.78592 M,0,45780,45930,259,249,259,245 M,0,45930,46230,259,245,259,251 M,0,46230,46530,259,251,258,245 M,0,46530,46830,258,245,258,253 M,0,46830,47130,258,253,258,248 M,0,47130,47430,258,248,258,252 M,0,47430,47730,258,252,258,247 M,0,47730,48030,258,247,258,252
Sprite,Foreground,Centre,"bulletHb000.png",320,240 S,0,45930,,0.51872 M,0,45930,46680,406,528,404,84 R,0,45930,48780,0,14.00832 M,0,46680,46830,404,84,404,80 M,0,46830,47130,404,80,404,85 M,0,47130,47430,404,85,404,80 M,0,47430,47730,404,80,404,85 M,0,47730,48030,404,85,404,81 M,0,48030,48330,404,81,404,84 M,0,48330,48630,404,84,404,81
Sprite,Foreground,Centre,"bulletHb000.png",320,240 S,0,46530,,0.5699199 M,0,46530,47130,589,534,583,241 R,0,46530,49080,0,-15.23712 M,0,47130,47280,583,241,586,237 M,0,47280,47580,586,237,586,247 M,0,47580,47880,586,247,586,236 M,0,47880,48180,586,236,586,242 M,0,48180,48480,586,242,586,232 M,0,48480,48780,586,232,585,246
Sprite,Foreground,Centre,"bulletDb000.png",320,240 M,0,48030,,99,176 F,0,48030,48330,1,0 S,0,48030,48330,0.42768,1
Sprite,Foreground,Centre,"bulletDb000.png",320,240 M,0,48330,,256,256 F,0,48330,48630,1,0 S,0,48330,48630,0.46752,1
Sprite,Foreground,Centre,"bulletDb000.png",320,240 M,0,48780,,403,83 F,0,48780,49080,1,0 S,0,48780,49080,0.4982401,1
Sprite,Foreground,Centre,"bulletDb000.png",320,240 M,0,49080,,584,248 F,0,49080,49380,1,0 S,0,49080,49380,0.5392001,1
Sprite,Foreground,Centre,"bulletNb000.png",320,240 M,0,48630,,350,249 S,0,48630,48855,0.1,1 S,0,48855,49005,1,1.1024 F,0,49005,49305,1,0 S,0,49005,49305,1.1024,1.28672
Sprite,Foreground,Centre,"bulletNb000.png",320,240 M,0,48930,,537,129 S,0,48930,49155,0.1,1 S,0,49155,49305,1,1.13312 F,0,49305,49605,1,0 S,0,49305,49605,1.13312,1.34816
Sprite,Foreground,Centre,"CAUTION.png",320,240 F,0,50430,50730,0,1 M,0,50430,51630,-403,139,1041,134 F,0,50730,51030,1,0 F,0,51030,51330,0,1 F,0,51330,51630,1,0 F,0,51630,51930,0,1 M,0,51630,52830,1041,134,-401,140 F,0,51930,52230,1,0 F,0,52230,52530,0,1 F,0,52530,52830,1,0
Sprite,Foreground,Centre,"CAUTION.png",320,240 F,0,50430,50730,1 M,0,50430,51630,1046,361,-402,361 F,0,50730,51030,1,0 F,0,51030,51330,0,1 F,0,51330,51630,1,0 F,0,51630,51930,0,1 M,0,51630,52830,-402,361,1040,360 F,0,51930,52230,1,0 F,0,52230,52530,0,1 F,0,52530,52830,1,0
Sprite,Foreground,Centre,"bulletMa007.png",320,240 M,0,55230,,71,361 F,0,55230,55380,0,1 F,0,55380,55530,1,0
Sprite,Foreground,Centre,"bulletMa007.png",320,240 M,0,55530,,545,362 F,0,55530,55680,0,1 F,0,55680,55830,1,0
Sprite,Foreground,Centre,"bulletMa007.png",320,240 M,0,55830,,222,362 F,0,55830,55980,1 F,0,55980,56130,1,0
Sprite,Foreground,Centre,"bulletMa007.png",320,240 M,0,56130,,355,359 F,0,56130,56280,0,1 F,0,56280,56430,1,0
Sprite,Foreground,Centre,"bulletMa007.png",320,240 M,0,56430,,546,332 S,0,56430,,1.256 F,0,56430,56580,0,1 F,0,56580,56730,1,0
Sprite,Foreground,Centre,"CAUTION.png",320,240 F,0,60030,60330,0,1 M,0,60030,60930,-400,144,1043,141 F,0,60330,60630,1,0 F,0,60630,60930,0,1 F,0,60930,61230,1,0 M,0,60930,62130,1043,141,-403,145 F,0,61230,61530,0,1 F,0,61530,61830,1,0 F,0,61830,62130,0,1
Sprite,Foreground,Centre,"CAUTION.png",320,240 F,0,60030,60330,0,1 M,0,60030,60930,1040,364,-402,365 F,0,60330,60630,1,0 F,0,60630,60930,0,1 F,0,60930,61151,1,0.8828533 M,0,60930,62130,-402,365,1041,365 F,0,61151,61230,0.8828533,0 F,0,61230,61530,0,1 F,0,61530,61830,1,0 F,0,61830,62130,0,1
Sprite,Foreground,Centre,"bulletGc001.png",320,240 M,0,62430,,68,86 S,0,62430,62655,0.1,1 F,0,62655,,1 F,0,62655,63030,1,0 S,0,62655,63030,1,1.21504
Sprite,Foreground,Centre,"bulletGc002.png",320,240 M,0,62730,,114,249 S,0,62730,62955,0.1,1 F,0,62955,,1 F,0,62955,63330,1,0 S,0,62955,63330,1,1.22528
Sprite,Foreground,Centre,"bulletGc003.png",320,240 M,0,63030,,239,361 S,0,63030,63255,0.1,1 F,0,63255,63630,1,0 S,0,63255,63630,1,1.21504
Sprite,Foreground,Centre,"bulletGc001.png",320,240 M,0,63330,,430,419 S,0,63330,63555,0.1,1 F,0,63555,63930,1,0 S,0,63555,63930,1,1.31744
Sprite,Foreground,Centre,"bulletGc002.png",320,240 M,0,64830,,353,74 S,0,64830,65055,0.1,1 F,0,65055,65430,1,0 S,0,65055,65430,1,1.3072
Sprite,Foreground,Centre,"bulletGc003.png",320,240 M,0,65130,,466,217 S,0,65130,65355,0.1,1 S,0,65355,65730,1,1.33792 F,0,65430,65730,1,0
Sprite,Foreground,Centre,"bulletGc001.png",320,240 M,0,65430,,421,364 S,0,65430,65655,0.1,1 F,0,65655,66030,1,0 S,0,65655,66030,1,1.3584
Sprite,Foreground,Centre,"bulletGc002.png",320,240 M,0,65730,,227,403 S,0,65730,65955,0.1,1 S,0,65955,66330,1,1.256 F,0,66030,66330,1,0
Sprite,Foreground,Centre,"bulletGc003.png",320,240 M,0,67230,,379,327 S,0,67230,67455,0.1,1 F,0,67455,67830,1,0 S,0,67455,67830,1,1.24576
Sprite,Foreground,Centre,"bulletGc001.png",320,240 S,0,67530,67755,0.1,1 F,0,67755,68130,1,0 S,0,67755,68130,1,1.29696
Sprite,Foreground,Centre,"bulletGc002.png",320,240 M,0,67830,,176,142 S,0,67830,68055,0.1,1 F,0,68055,68430,1,0 S,0,68055,68430,1,1.22528
Sprite,Foreground,Centre,"bulletGc003.png",320,240 M,0,68130,,381,88 S,0,68130,68355,0.1,1 F,0,68355,68730,1,0 S,0,68355,68730,1,1.27648
Sprite,Foreground,Centre,"bulletGc001.png",320,240 M,0,69630,,85,103 S,0,69630,69855,0.1,1 F,0,69855,70230,1,0 S,0,69855,70230,1,1.55296
Sprite,Foreground,Centre,"bulletGc002.png",320,240 M,0,69930,,559,317 S,0,69930,70155,0.1,1 F,0,70155,70530,1,0 S,0,70155,70530,1,1.3072
Sprite,Foreground,Centre,"bulletGc003.png",320,240 M,0,70230,,101,360 S,0,70230,70455,0.1,1 F,0,70455,70830,1,0 S,0,70455,70830,1,1.33792
Sprite,Foreground,Centre,"bulletNb000.png",320,240 F,0,70530,70605,0,1 S,0,70530,70680,0.1,1.55296 F,0,70605,70755,1 S,0,70680,70830,1.55296,2.16736 F,0,70755,70830,1,0
Sprite,Foreground,Centre,"objectAa000.png",320,240 M,0,71130,76830,657,-123,660,588 R,0,71130,76830,0,13.9264
Sprite,Foreground,Centre,"objectAa000.png",320,240 M,0,71730,77430,130,-125,133,588 R,0,71730,77430,0,11.75552
Sprite,Foreground,Centre,"objectAa000.png",320,240 F,0,72330,72630,0,1 M,0,72330,77730,384,112,392,601 R,0,72330,77730,0,-9.502719
Sprite,Foreground,Centre,"objectAa000.png",320,240 M,0,73530,77730,317,-127,314,597 R,0,73530,77730,2.2528,12.93312 R,0,77730,,12.93312
Sprite,Foreground,Centre,"objectAa000.png",320,240 M,0,74055,79230,26,-124,14,592 R,0,74055,79251,0,-9.564159
Sprite,Foreground,Centre,"objectAa000.png",320,240 F,0,75930,,1 M,0,75930,80430,188,-128,177,592 R,0,75930,80430,0,11.83744
Sprite,Foreground,Centre,"objectAa000.png",320,240 F,0,76530,76830,0,1 M,0,76530,79230,258,196,245,594 R,0,76530,79230,0,-10.07616
Sprite,Foreground,Centre,"objectAa000.png",320,240 F,0,77130,,1 M,0,77130,80430,417,-129,413,597 R,0,77130,80430,0,15.99488
Sprite,Foreground,Centre,"CAUTION.png",320,240 M,0,80430,,320,240 S,0,80430,,0.8054398 F,0,80430,81030,0,1 F,0,81030,81330,1,0 F,0,81330,81930,0,1 F,0,81930,82230,1,0 F,0,82230,82830,0,1 F,0,82830,83057,1,0 F,0,83057,83739,0,1 F,0,83739,84193,1,0
Sprite,Foreground,Centre,"caution_sign.png",320,240 M,0,80430,,0,0 F,0,80430,81030,0,1 R,0,80430,84193,-7.290878,15.31904 F,0,81030,81330,1,0 F,0,81330,81930,0,1 F,0,81930,82230,1,0 F,0,82230,82830,0,1 F,0,82830,83057,1,0 F,0,83057,83739,0,1 F,0,83739,84193,1,0
Sprite,Foreground,Centre,"caution_sign.png",320,240 M,0,80430,,640,480 F,0,80430,81030,0,1 R,0,80430,84193,-0.5324799,28.99968 F,0,81030,81330,1,0 F,0,81330,81930,0,1 F,0,81930,82230,1,0 F,0,82230,82830,0,1 F,0,82830,83057,1,0 F,0,83057,83739,0,1 F,0,83739,84193,1,0
Sprite,Foreground,Centre,"objectAa000.png",320,240 M,0,80430,,2,490 F,0,80430,81030,0,1 R,0,80430,84193,-0.3891205,-25.14944 F,0,81030,81330,1,0 F,0,81330,81930,0,1 F,0,81930,82230,1,0 F,0,82230,82830,0,1 F,0,82830,83057,1,0 F,0,83057,83739,0,1 F,0,83739,84193,1,0
Sprite,Foreground,Centre,"bulletMa007.png",320,240 M,0,82830,,239,361 F,0,82830,82943,0,1 F,0,82943,83057,1,0
Sprite,Foreground,Centre,"bulletIa000.png",320,240 M,0,80430,,634,3 F,0,80430,81030,0,1 R,0,80430,84193,-0.9420799,-50 F,0,81030,81330,1,0 F,0,81330,81930,0,1 F,0,81930,82230,1,0 F,0,82230,82830,0,1 F,0,82830,83057,1,0 F,0,83057,83739,0,1 F,0,83739,84193,1,0
Sprite,Foreground,Centre,"bulletMa007.png",320,240 M,0,83170,,508,360 F,0,83170,83284,0,1 F,0,83284,83398,1,0
Sprite,Foreground,Centre,"bulletMa007.png",320,240 M,0,83284,,397,362 F,0,83284,83398,0,1 F,0,83398,83511,1,0
Sprite,Foreground,Centre,"bulletMa007.png",320,240 F,0,83625,83739,0,1 M,0,83739,,208,120 R,0,83739,,-3.174401 F,0,83739,83852,1,0
Sprite,Foreground,Centre,"bulletMa007.png",320,240 M,0,83739,,506,360 F,0,83739,83852,0,1 F,0,83852,83966,1,0
Sprite,Foreground,Centre,"bulletMa007.png",320,240 M,0,84080,,81,362 F,0,84080,84193,0,1 F,0,84193,84307,1,0 F,0,84307,85244,0,0.02631581
Sprite,Foreground,Centre,"bulletMa007.png",320,240 F,0,84193,84307,0,1 M,0,84307,,377,116 R,0,84307,,-3.15392 F,0,84307,84420,1,0
Sprite,Foreground,Centre,"bulletMa007.png",320,240 M,0,84420,,358,359 F,0,84420,84534,0,1 F,0,84534,84648,1,0
Sprite,Foreground,Centre,"bulletMa007.png",320,240 M,0,84648,,178,116 R,0,84648,,-3.13344 F,0,84648,84761,0,1 F,0,84761,84875,1,0
Sprite,Foreground,Centre,"bulletMa007.png",320,240 M,0,84875,,366,364 F,0,84875,84989,0,1 F,0,84989,85102,1,0
Sprite,Foreground,Centre,"bulletIa000.png",320,240 F,0,85898,86011,0,1 M,0,86011,,69,61 F,0,86011,86466,1 R,0,86011,86466,0,-13.06624 F,0,86466,86580,1,0
Sprite,Foreground,Centre,"bulletMa007.png",320,240 M,0,85102,,58,370 F,0,85102,85216,0,1 F,0,85216,85330,1,0
Sprite,Foreground,Centre,"bulletIa000.png",320,240 F,0,89534,89648,0,1 M,0,89648,,566,446 F,0,89648,90102,1 R,0,89648,90102,0,-21.46304 F,0,90102,90216,1,0
Sprite,Foreground,Centre,"bulletMa007.png",320,240 M,0,90102,,324,368 F,0,90102,90216,0,1 F,0,90216,90330,1,0
Sprite,Foreground,Centre,"bulletMa007.png",320,240 M,0,90330,,436,116 R,0,90330,,-3.12 F,0,90330,90443,0,1 F,0,90443,90557,1,0
Sprite,Foreground,Centre,"bulletMa007.png",320,240 M,0,90557,,169,156 S,0,90557,,1.336 R,0,90557,,-3.136 F,0,90557,90670,0,1 F,0,90670,90784,1,0
Sprite,Foreground,Centre,"bulletMa007.png",320,240 M,0,91011,,97,368 F,0,91011,91125,0,1 F,0,91125,91239,1,0
Sprite,Foreground,Centre,"bulletMa007.png",320,240 M,0,91239,,241,366 F,0,91239,91352,0,1 F,0,91352,91466,1,0
Sprite,Foreground,Centre,"bulletMa007.png",320,240 M,0,91466,,487,318 S,0,91466,,1.408 F,0,91466,91580,0,1 F,0,91580,91693,1,0
Sprite,Foreground,Centre,"bulletMa007.png",320,240 M,0,91920,,527,117 R,0,91920,,-3.12 F,0,91920,92034,0,1 F,0,92034,92148,1,0
Sprite,Foreground,Centre,"bulletGc003.png",320,240 M,0,89989,,240,292 F,0,89989,90102,0,1 S,0,89989,90330,0.1,1 F,0,90102,90330,1 F,0,90330,90784,1,0 S,0,90330,90784,1,1.432
Sprite,Foreground,Centre,"bulletMa007.png",320,240 M,0,92261,,563,367 F,0,92261,92375,0.01600006,1 F,0,92375,92489,1,0
Sprite,Foreground,Centre,"bulletMa007.png",320,240 M,0,93739,,130,100 R,0,93739,,-3.136 F,0,93739,93852,0,1 F,0,93852,93966,1,0
Sprite,Foreground,Centre,"bulletMa007.png",320,240 M,0,93966,,483,367 F,0,93966,94080,0,1 F,0,94080,94193,1,0
Sprite,Foreground,Centre,"bulletMa007.png",320,240 M,0,94193,,162,365 F,0,94193,94307,0,1 F,0,94307,94420,1,0
Sprite,Foreground,Centre,"bulletMa007.png",320,240 M,0,94648,,333,367 F,0,94648,94761,0.00800003,1 F,0,94761,94875,1,0
Sprite,Foreground,Centre,"bulletMa007.png",320,240 M,0,94875,,319,118 R,0,94875,,-3.136 F,0,94875,94989,0,1 F,0,94989,95102,1,0
Sprite,Foreground,Centre,"bulletIa000.png",320,240 F,0,93170,93284,0,1 M,0,93284,,530,51 F,0,93284,93739,1 R,0,93284,93739,0,-23.01952 F,0,93739,93852,1,0
Sprite,Foreground,Centre,"CAUTION.png",320,240 F,0,84193,85102,0,1 M,0,84193,96466,1037,541,-400,544 F,0,85102,85330,1,0.8515201 F,0,85330,95557,0.8515201,1 F,0,95557,96466,1,0
Sprite,Foreground,Centre,"CAUTION.png",320,240 F,0,84193,85102,0,1 M,0,84193,96466,-417,-55,1044,-57 F,0,85102,85898,1,0.6568764 F,0,85898,95557,0.6568764,0.9988999 F,0,95557,96466,0.9988999,0
Sprite,Foreground,Centre,"bulletCc000.png",320,240 S,0,82830,,2.13664 R,0,82830,,-1.57696 M,0,82830,83511,-35,230 F,0,82830,84648,0,1 F,0,84648,95557,1,0.9977998 F,0,95557,96011,0.9977998,0
Sprite,Foreground,Centre,"bulletCc000.png",320,240 M,0,82830,,673,233 S,0,82830,,2.03424 R,0,82830,,-1.57696 F,0,82830,84080,0,0.5902886 F,0,84080,84648,0.5902886,1 F,0,84648,95557,1 F,0,95557,96011,1,0
Sprite,Foreground,Centre,"bulletNb000.png",320,240 F,0,95557,95670,0,1 S,0,95557,95898,0.1,1 F,0,95670,96466,1 S,0,95898,96125,1,1.203848 S,0,96125,96466,1.203848,1.541769 F,0,96466,96920,1,0 S,0,96466,96920,1.541769,2.113226
Sprite,Foreground,Centre,"bulletMa007.png",320,240 M,0,85330,,420,122 R,0,85330,,-3.13344 F,0,85330,85443,0,1 F,0,85443,85557,1,0
Sprite,Foreground,Centre,"bulletMa007.png",320,240 M,0,85557,,320,369 F,0,85557,85670,0,1 F,0,85670,85784,1,0
Sprite,Foreground,Centre,"bulletMa007.png",320,240 M,0,85784,,308,119 R,0,85784,,-3.13344 F,0,85784,85898,0,1 F,0,85898,86011,1,0
Sprite,Foreground,Centre,"bulletDb000.png",320,240 F,0,86011,86125,0,1 S,0,86011,86352,0.1,1 F,0,86125,86466,1,0
Sprite,Foreground,Centre,"bulletMa007.png",320,240 M,0,86466,,155,368 F,0,86466,86580,0,1 F,0,86580,86693,1,0
Sprite,Foreground,Centre,"bulletMa007.png",320,240 M,0,86693,,431,117 R,0,86693,,-3.13344 F,0,86693,86807,0,1 F,0,86807,86920,1,0.005120086
Sprite,Foreground,Centre,"bulletMa007.png",320,240 M,0,86920,,179,120 R,0,86920,,-3.11296 F,0,86920,87034,0,1 F,0,87034,87148,1,0
Sprite,Foreground,Centre,"bulletMa007.png",320,240 M,0,87375,,446,365 F,0,87375,87489,0,1 F,0,87489,87602,1,0
Sprite,Foreground,Centre,"bulletMa007.png",320,240 M,0,87602,,299,369 F,0,87602,87716,0,1 F,0,87716,87830,1,0
Sprite,Foreground,Centre,"bulletMa007.png",320,240 M,0,87830,,89,115 R,0,87830,,-3.1744 F,0,87830,87943,0,1 F,0,87943,88057,1,0
Sprite,Foreground,Centre,"bulletMa007.png",320,240 M,0,88739,,288,364 R,0,88739,,0 F,0,88739,88852,0,1 F,0,88852,88966,1,0
Sprite,Foreground,Centre,"bulletGc001.png",320,240 M,0,89648,,173,124 F,0,89648,89989,0,1 S,0,89648,89989,0.1,1 F,0,89989,90557,1,0 S,0,89989,90557,1,1.336
Sprite,Foreground,Centre,"bulletGc002.png",320,240 M,0,89761,,424,156 F,0,89761,89875,0,1 S,0,89761,90102,0.1,1 F,0,89875,90102,1 F,0,90102,90557,1,0 S,0,90102,90557,1,1.488
Sprite,Foreground,Centre,"bulletMa007.png",320,240 M,0,92489,,284,368 F,0,92489,92602,0,1 F,0,92602,92716,1,0
Sprite,Foreground,Centre,"bulletDb000.png",320,240 M,0,92830,,243,147 F,0,92830,92943,0,1 S,0,92830,93170,0.1,1 F,0,92943,93170,1 F,0,93170,93625,1,0 S,0,93170,93625,1,1.344
Sprite,Foreground,Centre,"bulletDb000.png",320,240 M,0,93170,,482,381 F,0,93170,93284,0,1 S,0,93170,93511,0.1,1 F,0,93284,93511,1 F,0,93511,93966,1,0 S,0,93511,93966,1,1.336
Sprite,Foreground,Centre,"bulletNb000.png",320,240 M,0,93170,,482,383 F,0,93170,93284,0,1 S,0,93170,93511,0.1,1 F,0,93284,93511,1 F,0,93511,93966,1,0 S,0,93511,93966,1,1.48
Sprite,Foreground,Centre,"bulletMa007.png",320,240 F,0,95102,95216,0,1 F,0,95216,95330,1,0 M,0,95330,,214,365
Sprite,Foreground,Centre,"CAUTION.png",320,240 M,0,95557,,320,240 F,0,95557,96011,0,1 F,0,96011,96466,1,0 F,0,96466,96920,0,1 F,0,96920,97410,1,0
Sprite,Foreground,Centre,"caution_sign.png",320,240 M,0,100110,,0,0 F,0,100110,101910,0,1 R,0,100110,104910,-7.290878,15.31904 F,0,101910,103110,1 F,0,103110,104910,1,0
Sprite,Foreground,Centre,"caution_sign.png",320,240 M,0,100110,,640,480 F,0,100110,101910,0,1 R,0,100110,104910,-7.290878,15.31904 F,0,101910,103110,1 F,0,103110,104910,1,0
Sprite,Foreground,Centre,"caution_sign.png",320,240 M,0,100110,,0,480 F,0,100110,101910,0,1 R,0,100110,104910,7.290878,-15.31904 F,0,101910,103110,1 F,0,103110,104910,1,0
Sprite,Foreground,Centre,"caution_sign.png",320,240 M,0,100110,,640,0 F,0,100110,101910,0,1 R,0,100110,104910,7.290878,-15.31904 F,0,101910,103110,1 F,0,103110,104910,1,0
//Storyboard Sound Samples
//Background Colour Transformations
3,100,163,162,255

[TimingPoints]
1230,300,4,1,0,100,1,0
10830,-100,4,2,0,100,0,0
13230,-100,4,1,0,100,0,0
60030,-200,4,1,0,100,0,0
61380,-100,4,1,0,100,0,0
69630,-100,4,2,0,100,0,0
70830,-100,4,1,0,100,0,0
82830,454.545454545455,3,1,0,100,1,1
82830,-66.6666666666667,3,1,0,100,0,1
97110,300,4,1,0,100,1,0
97710,300,4,1,0,100,1,0
103710,-100,4,1,0,100,0,0
104910,-200,4,1,0,100,0,0
106260,-200,4,2,0,100,0,0

[Colours]
Combo1 : 255,21,21
Combo2 : 255,255,91
Combo3 : 255,155,55
Combo4 : 255,106,106

[HitObjects]
256,80,1230,2,0,B|320:112|344:176,1,130,4|8
352,224,1680,1,0
336,272,1830,2,0,B|304:320|216:320,1,130,0|8
168,304,2280,1,0
136,264,2430,2,0,B|96:208|120:128,2,130
208,192,3330,1,8
288,256,3630,6,0,B|352:216|376:160,1,130,0|8
384,112,4080,1,0
360,72,4230,2,0,B|288:72|256:144,1,130,0|8
256,192,4680,1,0
256,240,4830,2,0,B|256:304,3,65,0|0|8|0
256,360,5430,1,0
256,360,5730,1,8
152,360,6030,6,0,B|112:296|120:232,1,130,0|8
88,200,6480,1,0
48,232,6630,2,0,B|40:291|72:360,2,130,0|8|0
88,200,7380,1,0
136,176,7530,1,8
184,168,7680,1,0
232,184,7830,2,0,B|296:184|360:144,1,130,0|8
448,96,8430,6,0,B|320:56|184:88,1,260
272,152,9330,1,8
192,216,9630,2,0,B|320:256|456:224,1,260
368,152,10530,1,8
256,192,10830,12,0,12630
48,192,13230,5,0
120,120,13530,1,8
216,168,13830,1,0
256,264,14130,1,8
336,200,14430,1,0
288,112,14730,1,8
192,80,15030,1,0
88,64,15330,1,8
40,152,15630,6,0,B|40:232|104:256,1,130,2|0
152,272,16080,1,0
200,280,16230,2,0,B|272:288|328:256,1,130,2|0
408,192,16830,1,0
416,144,16980,1,0
384,104,17130,2,0,B|320:80|256:96,1,130,2|0
168,152,17730,5,0
136,192,17880,1,0
128,240,18030,2,0,B|176:288|256:264,1,130,0|8
304,176,18630,2,0,B|328:112|400:96,1,130,0|8
392,200,19230,2,0,B|360:264|288:264,1,130,0|8
184,264,19830,1,0
80,264,20130,1,8
136,176,20430,6,0,B|184:128|256:144,1,130,2|0
296,176,20880,1,0
328,216,21030,2,0,B|392:200|432:136,1,130,2|0
440,88,21480,1,0
400,56,21630,2,0,B|336:40|272:72,1,130,2|0
232,96,22080,1,0
200,136,22230,2,0,B|176:200|96:200,1,130
40,288,22830,5,0
128,344,23130,1,8
232,328,23430,1,0
312,264,23730,1,8
360,176,24030,1,0
328,80,24330,1,8
232,40,24630,1,0
136,80,24930,1,8
96,176,25230,1,0
160,256,25530,6,0,B|232:232|232:160,1,130,2|0
336,160,26130,2,0,B|408:168|440:232,1,130,2|0
376,312,26730,2,0,B|320:352|248:344,1,130,2|0
152,328,27330,2,0,B|80:296|96:216,1,130,2|0
136,128,27930,1,0
224,72,28230,1,0
320,112,28530,1,0
256,312,28830,5,0
424,192,29130,1,0
256,64,29430,5,0
208,80,29580,1,8
184,128,29730,1,0
192,176,29880,1,8
168,224,30030,6,0,B|128:288|56:264,1,130,0|2
32,160,30630,2,0,B|64:96|136:80,1,130,0|2
224,128,31230,2,0,B|288:160|280:240,1,130,0|2
184,200,31830,2,0,B|128:152|160:80,1,130,0|2
256,56,32430,6,0,B|312:96|288:176,1,130,0|8
248,264,33030,1,0
336,320,33330,1,8
408,248,33630,1,0
408,144,33930,1,8
336,72,34230,1,0
264,144,34530,1,8
264,248,34830,6,0,B|200:280|136:256,1,130,2|8
96,224,35280,1,0
80,176,35430,2,0,B|72:112|128:56,1,130,2|8
176,40,35880,1,0
224,32,36030,2,0,B|288:32,1,65,2|0
336,56,36330,2,0,B|389:109|381:173,2,130,2|0|8
289,32,37080,1,0
240,56,37230,6,0,B|168:88|160:152,1,130,0|8
160,256,37830,1,0
248,312,38130,1,8
344,272,38430,1,0
376,176,38730,1,8
296,112,39030,1,0
192,136,39330,1,8
264,208,39630,6,0,B|240:272|160:272,1,130,2|8
128,232,40080,1,0
176,216,40230,2,0,B|232:256|240:328,1,130,2|8
200,360,40680,1,0
176,312,40830,2,0,B|216:256|288:256,1,130,2|8
336,272,41280,1,0
376,304,41430,2,0,B|432:248|392:184,1,130,0|8
304,136,42030,6,0,B|184:88|48:136,1,260
88,232,42930,2,0,B|206:181|269:50,1,260,8|0
160,56,43830,2,0,B|210:174|341:237,1,260
432,192,44730,5,2
368,112,45030,1,0
264,112,45330,1,2
192,192,45630,1,0
120,272,45930,1,2
192,192,46230,1,0
120,112,46530,1,2
48,192,46830,1,0
120,272,47130,6,0,B|344:344|456:152,1,390
256,80,48330,1,0
64,152,48630,1,0
40,200,48780,1,0
64,248,48930,1,8
112,264,49080,1,0
160,248,49230,6,0,B|208:200|280:208,1,130,0|2
360,136,49830,2,0,B|416:184|384:256,1,130,0|2
320,336,50430,1,2
40,32,51630,6,0,B|112:24|144:96,1,130,0|8
160,144,52080,2,0,B|168:208|248:232,1,130,0|8
296,248,52530,1,0
344,232,52680,2,0,B|384:176|384:104,1,130,0|8
352,72,53130,2,0,B|288:88|248:152,1,130
232,192,53580,2,0,B|208:256|128:264,2,130,8|0|0
168,112,54480,1,8
120,128,54630,2,0,B|64:168|48:232,1,130,0|8
112,312,55230,6,0,B|168:344|240:312,1,130,0|8
272,280,55680,2,0,B|320:232|392:240,1,130,0|8
432,272,56130,2,0,B|424:336|352:376,2,130,0|0|8
432,216,56880,2,0,B|424:152|352:112,1,130,0|8
256,136,57480,6,0,B|128:136,1,130,0|8
88,96,57930,2,0,B|216:96,1,130,0|0
264,96,58380,2,0,B|336:128|336:200,1,130,8|0
288,288,58980,2,0,B|232:328|160:296,1,130,0|8
128,264,59430,2,0,B|104:200|136:136,1,130,0|8
200,56,60030,6,8,B|400:88|312:264,1,292.5,8|8
120,192,61980,1,8
272,192,62430,2,0,B|352:208|376:136,1,130,0|8
280,96,63030,6,0,B|64:56|80:272,1,325,0|8
272,192,64380,1,8
392,96,64830,2,0,B|440:144|408:216,1,130,0|8
336,288,65430,6,0,B|128:272|104:96,1,325,0|8
304,40,66780,1,8
352,192,67230,2,0,B|336:256|280:304,1,130,0|8
184,312,67830,6,0,B|112:288|80:240|80:176|96:128|160:96|224:104,1,325,0|8
296,296,69180,1,8
416,192,69630,5,0
352,112,69930,1,0
256,80,70230,1,2
256,184,70530,1,2
256,288,70830,5,0
216,320,70980,1,8
168,328,71130,2,0,B|112:296|96:224,1,130
104,176,71580,1,8
120,128,71730,2,0,B|168:72|240:96,1,130
424,192,72330,5,0
256,320,72630,1,0
88,192,72930,1,0
256,64,73230,5,0
256,112,73380,1,8
256,160,73530,2,0,B|304:208|376:208,1,130
424,224,73980,1,8
439,272,74130,2,0,B|424:336|346:351,1,130,0|0
144,352,74730,5,0
16,192,75030,1,0
224,192,75330,1,0
432,192,75630,5,0
400,232,75780,1,8
352,248,75930,2,0,B|280:256|248:320,1,130
216,360,76380,1,8
168,336,76530,2,0,B|104:288|128:216,1,130
256,56,77130,5,0
416,192,77430,1,0
256,328,77730,1,0
144,192,78030,5,0
256,96,78330,1,0
367,192,78630,1,0
256,287,78930,1,0
144,192,79230,1,0
256,96,79530,1,0
256,192,79830,12,4,81630
256,192,82830,5,4
136,272,83284,1,2
256,192,83739,1,0
376,112,84193,1,2
256,192,84648,5,0
136,112,85102,1,0
256,192,85557,1,0
376,272,86011,1,2
256,352,86466,6,0,B|192:352,1,65,0|8
136,352,86769,2,0,B|96:352|88:312,1,65,0|2
96,176,87375,2,0,B|96:112,1,65,0|8
136,80,87678,2,0,B|208:80,1,65,0|2
280,200,88284,6,0,B|328:256,2,65,0|8|0
232,200,88739,2,0,B|184:256,2,65,0|8|0
256,160,89193,2,0,B|256:96,2,65,0|8|0
256,216,89648,5,2
256,264,89799,1,2
256,320,89951,1,2
256,368,90102,6,0,B|320:368,1,65,0|8
368,352,90405,2,0,B|424:320,1,65,0|2
480,176,91011,2,0,B|432:120,1,65,0|10
384,120,91314,2,0,B|320:120,1,65,0|2
160,120,91920,6,0,B|96:120,2,65,0|8|0
216,120,92375,2,0,B|280:120,2,65,0|8|0
184,80,92830,2,0,B|184:16,2,65,2|8|0
184,80,93284,1,2
184,240,93739,5,0
312,320,94193,1,2
448,240,94648,2,0,B|504:152|464:48,2,195,0|2|4
428,192,97710,5,0
351,119,98010,2,0,B|208:80|104:192,1,260,8|8
152,280,98910,1,0
239,324,99210,2,0,B|351:236|351:236|351:119,1,260,8|8
256,88,100110,5,0
256,192,100410,2,8,B|152:240|152:240|152:96,1,260,8|8
256,88,101310,2,0,B|216:32|216:32|152:32,1,130,0|8
64,88,101910,2,0,B|64:231,1,130,0|8
152,280,102510,5,0
256,280,102810,1,0
256,176,103110,1,0
176,112,103410,1,0
272,80,103710,5,2
344,160,104010,1,0
440,120,104310,1,0
472,216,104610,1,0
488,320,104910,2,0,B|392:360|224:336,1,260,0|4
256,192,106260,12,0,109710
