osu file format v9

[General]
AudioFilename: ROTTER TAIYSHINKO [Nuclear Fusion x Rotter Tarmination].mp3
AudioLeadIn: 507
PreviewTime: 32434
Countdown: 1
SampleSet: Normal
StackLeniency: 0.7
Mode: 1
LetterboxInBreaks: 1

[Editor]
Bookmarks: 13230,50580,61230
DistanceSpacing: 0.8
BeatDivisor: 4
GridSize: 8

[Metadata]
Title:ROTTER TAIYOSHINKO
Artist:Mahi feat. Hirune
Creator:OnosakiHito
Version:Taiko Oni
Source:
Tags:rotter tarmination nuclear fusion utsuho reiuji touhou taiko no tatsujin caution Saten-san CracK okuu

[Difficulty]
HPDrainRate:7
CircleSize:5
OverallDifficulty:6
ApproachRate:5
SliderMultiplier:1.4
SliderTickRate:1

[Events]
//Background and Video events
0,0,"Taiko_BG.jpg"
//Break Periods
//Storyboard Layer 0 (Background)
//Storyboard Layer 1 (Fail)
//Storyboard Layer 2 (Pass)
//Storyboard Layer 3 (Foreground)
//Storyboard Sound Samples
//Background Colour Transformations
3,100,163,162,255

[TimingPoints]
1230,300,4,1,0,100,1,0
82830,454.545454545455,4,1,0,100,1,1
82830,-133.333333333333,4,1,0,100,0,1
95557,-133.333333333333,4,1,0,100,0,0
96693,-66.6666666666667,4,1,0,100,0,1
97110,300,4,1,0,100,1,1
97710,300,4,1,0,100,1,1
108510,-100,4,1,0,100,0,0

[HitObjects]
256,192,1230,1,0
256,192,1455,1,0
256,192,1530,5,2
256,192,1680,1,2
256,192,1830,5,0
256,192,2055,5,2
256,192,2130,5,0
256,192,2280,1,0
256,192,2430,5,2
256,192,2655,5,0
256,192,2730,5,2
256,192,2880,5,0
256,192,3030,5,2
256,192,3105,1,2
256,192,3180,5,0
256,192,3255,1,0
256,192,3330,1,0
256,192,3405,5,2
256,192,3480,5,0
256,192,3555,1,0
256,192,3630,5,2
256,192,3855,1,2
256,192,3930,5,0
256,192,4080,1,0
256,192,4230,5,2
256,192,4455,1,2
256,192,4530,5,0
256,192,4680,1,0
256,192,4830,5,2
256,192,4905,1,2
256,192,4980,5,0
256,192,5055,5,2
256,192,5130,5,0
256,192,5280,1,0
256,192,5430,5,2
256,192,5505,5,0
256,192,5580,5,2
256,192,5655,1,2
256,192,5730,5,0
256,192,5805,1,0
256,192,5880,1,0
256,192,5955,5,2
256,192,6030,5,0
256,192,6255,5,2
256,192,6330,5,0
256,192,6480,1,0
256,192,6630,5,2
256,192,6705,5,0
256,192,6855,5,2
256,192,6930,5,0
256,192,7080,1,0
256,192,7230,5,2
256,192,7305,1,2
256,192,7380,5,0
256,192,7530,1,0
256,192,7680,1,0
256,192,7830,5,2
256,192,7905,1,2
256,192,7980,1,2
256,192,8055,1,2
256,192,8130,5,0
256,192,8205,1,0
256,192,8280,5,2
256,192,8355,5,0
256,192,8430,5,2
256,192,8580,5,0
256,192,8730,1,0
256,192,8880,5,2
256,192,9030,1,2
256,192,9180,1,2
256,192,9330,5,0
256,192,9405,1,0
256,192,9480,5,2
256,192,9630,1,2
256,192,10080,1,2
256,192,10530,5,0
256,192,10605,1,0
256,192,10680,1,0
256,192,10830,1,0
256,192,11130,1,0
256,192,11430,1,0
256,192,11580,1,0
256,192,11730,1,0
256,192,12030,5,8
256,192,12180,1,8
256,192,12330,1,8
256,192,12480,1,8
256,192,12630,1,8
256,192,12705,1,8
256,192,12780,1,8
256,192,12855,1,8
256,192,12930,1,8
256,192,13005,1,8
256,192,13080,1,8
256,192,13155,1,8
256,192,13230,5,0
256,192,13380,5,8
256,192,13530,1,8
256,192,13680,1,8
256,192,13830,5,0
256,192,13905,1,0
256,192,13980,5,2
256,192,14130,1,2
256,192,14280,1,2
256,192,14430,5,0
256,192,14505,1,0
256,192,14580,5,8
256,192,14730,1,8
256,192,14805,5,0
256,192,14880,1,0
256,192,15030,5,8
256,192,15180,1,8
256,192,15330,5,0
256,192,15405,1,0
256,192,15480,5,8
256,192,15630,1,8
256,192,15780,1,8
256,192,15855,1,8
256,192,15930,1,8
256,192,16080,1,8
256,192,16230,1,8
256,192,16305,1,8
256,192,16380,1,8
256,192,16530,1,8
256,192,16605,1,8
256,192,16680,1,8
256,192,16830,5,0
256,192,16905,1,0
256,192,16980,1,0
256,192,17130,5,8
256,192,17205,5,0
256,192,17280,5,8
256,192,17430,5,4
256,192,17730,1,4
256,192,17880,5,12
256,192,18030,1,8
256,192,18180,5,0
256,192,18330,5,8
256,192,18480,5,0
256,192,18630,5,8
256,192,18705,1,8
256,192,18780,5,0
256,192,18930,5,8
256,192,19080,1,8
256,192,19230,1,8
256,192,19305,1,8
256,192,19380,5,0
256,192,19455,5,8
256,192,19530,1,8
256,192,19680,1,8
256,192,19830,5,0
256,192,19905,1,0
256,192,19980,5,2
256,192,20055,1,2
256,192,20130,5,0
256,192,20280,5,2
256,192,20430,5,0
256,192,20580,5,2
256,192,20730,1,6
256,192,20880,1,6
256,192,21030,5,0
256,192,21180,5,2
256,192,21330,1,6
256,192,21480,1,2
256,192,21555,1,2
256,192,21630,1,2
256,192,21780,5,0
256,192,21930,5,2
256,192,22005,1,2
256,192,22080,1,2
256,192,22230,5,0
256,192,22380,5,2
256,192,22455,1,2
256,192,22530,1,2
256,192,22605,5,0
256,192,22680,1,0
256,192,22755,1,0
256,192,22830,5,2
256,192,22980,1,2
256,192,23130,5,0
256,192,23280,5,2
256,192,23430,5,0
256,192,23580,5,2
256,192,23655,1,2
256,192,23730,5,0
256,192,23880,5,2
256,192,23955,1,2
256,192,24030,5,0
256,192,24180,5,2
256,192,24255,1,2
256,192,24330,5,0
256,192,24405,5,2
256,192,24480,1,2
256,192,24555,1,2
256,192,24630,5,0
256,192,24780,1,0
256,192,24930,1,0
256,192,25080,5,2
256,192,25230,5,0
256,192,25305,1,0
256,192,25380,1,0
256,192,25530,1,4
256,192,25830,5,2
256,192,25905,1,2
256,192,25980,1,2
256,192,26130,1,6
256,192,26430,1,2
256,192,26505,1,2
256,192,26580,5,0
256,192,26655,1,0
256,192,26730,5,2
256,192,26805,1,2
256,192,26880,1,2
256,192,26955,5,0
256,192,27030,1,0
256,192,27180,1,0
256,192,27330,1,0
256,192,27405,5,2
256,192,27480,1,2
256,192,27780,5,0
256,192,27855,5,2
256,192,28080,5,0
256,192,28155,5,2
256,192,28380,5,0
256,192,28455,5,2
256,192,28680,1,2
256,192,28755,5,0
256,192,28830,5,2
256,192,29130,1,6
256,192,29430,1,6
256,192,29580,1,6
256,192,29730,1,2
256,192,29805,1,2
256,192,29880,5,0
256,192,29955,1,0
256,192,30030,5,2
256,192,30180,1,2
256,192,30255,1,2
256,192,30330,5,0
256,192,30480,5,2
256,192,30630,5,0
256,192,30705,1,0
256,192,30780,5,2
256,192,30930,1,2
256,192,31080,5,0
256,192,31155,1,0
256,192,31230,1,0
256,192,31380,1,0
256,192,31530,5,2
256,192,31605,1,2
256,192,31680,5,0
256,192,31830,1,0
256,192,31980,5,2
256,192,32130,1,2
256,192,32205,5,0
256,192,32280,5,2
256,192,32430,1,2
256,192,32505,1,2
256,192,32580,5,0
256,192,32730,1,0
256,192,32805,5,2
256,192,32880,1,2
256,192,33030,1,2
256,192,33105,1,2
256,192,33180,5,0
256,192,33330,1,0
256,192,33405,1,0
256,192,33480,5,2
256,192,33630,1,2
256,192,33780,1,2
256,192,33930,1,2
256,192,34080,1,2
256,192,34230,5,0
256,192,34305,1,0
256,192,34380,5,2
256,192,34455,1,2
256,192,34530,5,0
256,192,34680,5,2
256,192,34830,1,2
256,192,35130,5,0
256,192,35280,5,2
256,192,35430,5,0
256,192,35730,1,0
256,192,36030,1,0
256,192,36105,1,0
256,192,36180,5,2
256,192,36330,1,2
256,192,36480,5,0
256,192,36630,1,0
256,192,36930,5,2
256,192,37230,5,0
256,192,37380,5,2
256,192,37530,5,0
256,192,37680,5,2
256,192,37830,5,0
256,192,37905,1,0
256,192,37980,5,2
256,192,38130,5,0
256,192,38205,1,0
256,192,38280,5,2
256,192,38430,5,0
256,192,38505,1,0
256,192,38580,5,2
256,192,38655,1,2
256,192,38730,5,0
256,192,38805,1,0
256,192,38880,5,2
256,192,38955,1,2
256,192,39030,5,0
256,192,39180,1,0
256,192,39330,5,2
256,192,39630,5,0
256,192,39930,5,2
256,192,40080,5,0
256,192,40230,1,0
256,192,40305,5,2
256,192,40380,1,2
256,192,40530,1,2
256,192,40680,5,0
256,192,40830,5,2
256,192,40905,1,2
256,192,40980,1,2
256,192,41055,1,2
256,192,41130,5,0
256,192,41205,1,0
256,192,41280,1,0
256,192,41355,1,0
256,192,41430,5,2
256,192,41580,1,2
256,192,41730,1,2
256,192,42180,5,0
256,192,42480,1,0
256,192,42780,1,0
256,192,43080,1,0
256,192,43230,5,8
256,192,43380,5,0
256,192,43455,5,8
256,192,43530,5,0
256,192,43680,1,0
256,192,43830,5,8
256,192,43980,5,0
256,192,44055,5,8
256,192,44130,1,8
256,192,44280,5,0
256,192,44580,1,0
256,192,44730,5,8
256,192,44880,1,8
256,192,45180,5,0
256,192,45330,5,8
256,192,45405,1,8
256,192,45480,1,8
256,192,45630,5,0
256,192,45780,1,0
256,192,45855,5,8
256,192,45930,5,0
256,192,46080,5,8
256,192,46230,5,0
256,192,46380,1,0
256,192,46530,5,8
256,192,46605,5,0
256,192,46680,5,8
256,192,46980,5,0
256,192,47280,1,0
256,192,47580,1,0
256,192,47880,5,2
256,192,48030,5,0
256,192,48330,1,0
256,192,48630,1,0
256,192,48780,1,0
256,192,48930,1,0
256,192,49005,5,2
256,192,49080,1,2
256,192,49155,1,2
256,192,49230,1,2
256,192,49380,5,0
256,192,49530,5,2
256,192,49605,1,2
256,192,49680,1,2
256,192,49830,5,0
256,192,49980,1,0
256,192,50130,5,8
256,192,50205,1,8
256,192,50280,1,8
256,192,50355,1,8
256,192,50430,1,8
256,192,51630,1,2
256,192,51930,1,2
256,192,52005,5,0
256,192,52155,5,2
256,192,52380,5,0
256,192,52680,1,0
256,192,52980,5,2
256,192,53130,1,2
256,192,53430,5,0
256,192,53505,5,2
256,192,53655,1,2
256,192,53730,5,0
256,192,53880,1,0
256,192,54180,5,2
256,192,54480,5,0
256,192,54630,5,2
256,192,54930,5,0
256,192,55080,1,0
256,192,55230,1,4
256,192,55530,1,4
256,192,55680,5,2
256,192,55830,1,2
256,192,55905,1,2
256,192,55980,5,0
256,192,56055,5,2
256,192,56130,5,0
256,192,56430,1,0
256,192,56505,5,2
256,192,56730,5,0
256,192,56880,1,0
256,192,57180,5,2
256,192,57480,5,0
256,192,57630,1,0
256,192,57705,5,2
256,192,57780,1,2
256,192,57855,1,2
256,192,57930,5,0
256,192,58230,5,2
256,192,58305,5,0
256,192,58455,1,0
256,192,58530,5,2
256,192,58680,1,2
256,192,58980,5,0
256,192,59055,5,2
256,192,59280,1,2
256,192,59430,1,2
256,192,59730,1,2
256,192,60030,1,2
256,192,60630,1,8
256,192,60705,1,8
256,192,60780,1,8
256,192,60855,1,8
256,192,60930,1,8
256,192,61005,1,8
256,192,61080,1,8
256,192,61155,1,8
256,192,61230,5,0
256,192,61380,1,0
256,192,61680,1,0
256,192,61830,5,2
256,192,61980,1,2
256,192,62280,5,0
256,192,62430,1,0
256,192,62505,5,2
256,192,62580,1,2
256,192,62730,5,0
256,192,62805,5,2
256,192,62880,1,2
256,192,63030,1,2
256,192,63105,1,2
256,192,63180,1,2
256,192,63255,5,0
256,192,63330,1,0
256,192,63480,5,2
256,192,63630,5,0
256,192,63780,5,2
256,192,64080,1,2
256,192,64380,5,0
256,192,64455,5,2
256,192,64530,1,2
256,192,64830,5,0
256,192,64905,5,2
256,192,64980,1,2
256,192,65130,5,0
256,192,65205,5,2
256,192,65280,1,2
256,192,65430,5,0
256,192,65505,5,2
256,192,65580,1,2
256,192,65655,1,2
256,192,65730,5,0
256,192,65880,1,0
256,192,66030,1,0
256,192,66180,5,2
256,192,66255,5,0
256,192,66330,1,0
256,192,66405,5,2
256,192,66480,1,2
256,192,66555,1,2
256,192,66630,5,0
256,192,66780,1,0
256,192,67080,1,0
256,192,67230,5,2
256,192,67305,1,2
256,192,67380,5,0
256,192,67455,1,0
256,192,67530,5,2
256,192,67605,5,0
256,192,67680,1,0
256,192,67755,5,2
256,192,67830,5,0
256,192,67980,1,0
256,192,68130,5,2
256,192,68280,5,0
256,192,68430,1,0
256,192,68505,1,0
256,192,68580,5,2
256,192,68655,5,0
256,192,68730,1,0
256,192,68805,5,2
256,192,68880,5,0
256,192,69180,5,2
256,192,69480,5,0
256,192,69630,1,0
256,192,69930,5,2
256,192,70230,5,0
256,192,70530,5,6
256,192,70830,5,0
256,192,70980,1,0
256,192,71055,1,0
256,192,71130,5,2
256,192,71280,1,2
256,192,71430,5,0
256,192,71580,5,2
256,192,71655,5,0
256,192,71730,5,2
256,192,71880,1,2
256,192,72030,5,0
256,192,72105,1,0
256,192,72180,1,0
256,192,72330,5,2
256,192,72405,5,0
256,192,72480,1,0
256,192,72630,1,0
256,192,72705,1,0
256,192,72780,5,2
256,192,72930,1,2
256,192,73080,1,2
256,192,73230,5,0
256,192,73380,1,0
256,192,73455,1,0
256,192,73530,5,2
256,192,73680,1,2
256,192,73830,5,0
256,192,73905,5,2
256,192,73980,5,0
256,192,74130,5,2
256,192,74280,5,0
256,192,74430,5,2
256,192,74505,1,2
256,192,74580,1,2
256,192,74655,1,2
256,192,74730,5,0
256,192,74805,1,0
256,192,74880,1,0
256,192,74955,1,0
256,192,75030,5,2
256,192,75180,5,0
256,192,75330,5,2
256,192,75480,1,2
256,192,75630,5,0
256,192,75780,1,0
256,192,75855,1,0
256,192,75930,5,2
256,192,76005,1,2
256,192,76080,5,0
256,192,76380,1,0
256,192,76680,1,0
256,192,76830,1,2
256,192,76905,5,2
256,192,76980,5,0
256,192,77055,1,0
256,192,77130,5,2
256,192,77280,1,2
256,192,77430,5,0
256,192,77505,1,0
256,192,77580,5,2
256,192,77655,1,2
256,192,77730,5,0
256,192,77880,5,2
256,192,78030,5,0
256,192,78180,1,0
256,192,78330,5,2
256,192,78480,1,2
256,192,78630,5,0
256,192,78705,1,0
256,192,78780,1,0
256,192,78930,5,2
256,192,79005,1,2
256,192,79080,1,2
256,192,79230,5,0
256,192,79305,5,2
256,192,79380,5,0
256,192,79530,5,2
256,192,79605,5,0
256,192,79680,5,2
256,192,79830,5,0
256,192,79905,1,0
256,192,79980,5,2
256,192,80055,5,0
256,192,80130,5,2
256,192,80205,5,0
256,192,80280,5,2
256,192,80430,5,0
256,192,80505,1,0
256,192,80580,1,0
256,192,80655,1,0
256,192,80730,1,0
256,192,80805,1,0
256,192,80880,1,0
256,192,80955,1,0
256,192,81030,1,0
256,192,81105,1,0
256,192,81180,1,0
256,192,81255,1,0
256,192,81330,5,8
256,192,81405,1,8
256,192,81480,1,8
256,192,81630,5,0
256,192,81855,1,0
256,192,82080,1,0
256,192,82230,1,0
256,192,82830,1,0
256,192,82905,1,0
256,192,82981,1,0
256,192,83057,1,0
256,192,83133,1,0
256,192,83284,1,0
256,192,83739,1,0
256,192,83814,1,0
256,192,83890,1,0
256,192,83966,1,0
256,192,84042,1,0
256,192,84193,1,0
256,192,84648,1,0
256,192,84723,1,0
256,192,84799,1,0
256,192,84951,1,0
256,192,85102,1,0
256,192,85178,1,0
256,192,85254,1,0
256,192,85405,1,0
256,192,85557,1,0
256,192,85633,1,0
256,192,85708,1,0
256,192,85784,1,0
256,192,85860,1,0
256,192,86011,1,0
256,192,86466,1,0
256,192,86542,1,0
256,192,86617,1,0
256,192,86693,1,0
256,192,86769,5,2
256,192,86920,5,0
256,192,87375,1,0
256,192,87451,1,0
256,192,87526,1,0
256,192,87602,1,0
256,192,87678,5,2
256,192,87829,5,0
256,192,88284,1,0
256,192,88360,1,0
256,192,88436,1,0
256,192,88587,5,2
256,192,88739,5,0
256,192,88814,1,0
256,192,88890,1,0
256,192,89042,5,2
256,192,89193,5,0
256,192,89269,1,0
256,192,89345,1,0
256,192,89420,1,0
256,192,89496,5,2
256,192,89648,5,0
256,192,89799,5,2
256,192,89951,1,2
256,192,90102,5,0
248,184,90178,1,0
256,192,90254,1,0
256,192,90329,1,0
256,192,90405,1,0
256,192,90557,5,2
256,192,90708,5,0
256,192,90860,5,2
256,192,91011,5,0
256,192,91087,1,0
256,192,91163,1,0
256,192,91239,5,2
256,192,91314,5,0
256,192,91466,5,2
256,192,91920,5,0
256,192,91996,1,0
256,192,92072,1,0
256,192,92223,5,2
256,192,92375,5,0
256,192,92451,1,0
256,192,92526,5,2
256,192,92678,1,2
256,192,92829,5,0
256,192,92905,5,2
256,192,92981,1,2
256,192,93133,1,2
256,192,93284,5,0
256,192,93739,1,0
256,192,93814,1,0
256,192,93890,1,0
256,192,93966,5,2
256,192,94042,5,0
256,192,94193,1,0
256,192,94648,1,0
256,192,94723,1,0
256,192,94799,1,0
256,192,94875,5,2
256,192,94951,5,0
256,192,95102,1,0
256,192,95254,5,2
256,192,95405,1,2
256,192,95557,5,0
256,192,97110,5,2
256,192,97185,1,2
256,192,97260,1,2
256,192,97410,1,2
256,192,97560,1,2
256,192,97710,5,0
256,192,97860,5,2
256,192,98010,1,2
256,192,98160,5,0
256,192,98460,5,2
256,192,98760,5,0
256,192,98835,1,0
256,192,98910,5,2
256,192,99060,5,0
256,192,99210,5,2
256,192,99510,1,2
256,192,99660,1,2
256,192,99735,1,2
256,192,99810,1,2
256,192,99960,1,2
256,192,100110,5,0
256,192,100185,1,0
256,192,100260,5,2
256,192,100410,1,2
256,192,100710,5,0
256,192,100785,1,0
256,192,100860,5,2
256,192,101010,1,2
256,192,101310,5,0
256,192,101460,5,2
256,192,101610,5,0
256,192,101760,5,2
256,192,101910,5,0
256,192,102060,5,2
256,192,102210,5,0
256,192,102360,5,2
256,192,102510,5,0
256,192,102585,1,0
256,192,102660,1,0
256,192,102735,1,0
256,192,102810,5,2
256,192,102885,1,2
256,192,102960,1,2
256,192,103035,1,2
256,192,103110,5,0
256,192,103185,1,0
256,192,103260,1,0
256,192,103335,1,0
256,192,103410,5,2
256,192,103485,1,2
256,192,103560,1,2
256,192,103635,1,2
256,192,103710,5,0
256,192,103785,1,0
256,192,103860,5,2
256,192,103935,1,2
256,192,104010,5,0
256,192,104085,1,0
256,192,104160,5,2
256,192,104235,1,2
256,192,104310,5,0
256,192,104385,1,0
256,192,104460,5,2
256,192,104535,1,2
256,192,104610,5,0
256,192,104685,1,0
256,192,104760,5,2
256,192,104835,1,2
256,192,104910,1,2
256,192,105060,1,2
256,192,105210,1,2
256,192,105360,1,2
256,192,105510,1,2
256,192,105585,1,2
256,192,105660,1,2
256,192,105735,1,2
256,192,105810,1,2
256,192,105885,1,2
256,192,105960,1,2
256,192,106035,1,2
256,192,106110,1,2
256,192,106185,1,2
256,192,106260,1,2
256,192,106335,1,2
256,192,106410,1,2
256,192,106485,1,2
256,192,106560,1,2
256,192,106635,1,2
256,192,106710,1,2
256,192,106785,1,2
256,192,106860,1,2
256,192,106935,1,2
256,192,107010,1,2
256,192,107085,1,2
256,192,107160,1,2
256,192,107235,1,2
256,192,107310,1,2
256,192,107385,1,2
256,192,107460,1,2
256,192,107535,1,2
256,192,107610,1,2
256,192,107685,1,2
256,192,107760,1,2
256,192,107835,1,2
256,192,107910,5,0
256,192,107985,5,2
256,192,108060,5,0
256,192,108135,5,2
256,192,108210,5,0
256,192,108285,5,2
256,192,108360,5,0
256,192,108435,5,2
256,192,108510,5,0
256,192,108660,8,2,112110
