osu file format v9

[General]
AudioFilename: ROTTER TAIYSHINKO [Nuclear Fusion x Rotter Tarmination].mp3
AudioLeadIn: 2000
PreviewTime: 32434
Countdown: 0
SampleSet: Normal
StackLeniency: 0.3
Mode: 0
LetterboxInBreaks: 1

[Editor]
DistanceSpacing: 1.1
BeatDivisor: 6
GridSize: 8

[Metadata]
Title:ROTTER TAIYOSHINKO
Artist:Mahi feat. Hirune
Creator:OnosakiHito
Version:CracKed
Source:
Tags:rotter tarmination nuclear fusion utsuho reiuji touhou taiko no tatsujin caution Saten-san CracK okuu

[Difficulty]
HPDrainRate:7
CircleSize:4
OverallDifficulty:7
ApproachRate:8
SliderMultiplier:1.7
SliderTickRate:1

[Events]
//Background and Video events
0,0,"osu_BG.jpg"
//Break Periods
2,95757,96360
//Storyboard Layer 0 (Background)
Sprite,Background,Centre,"osu_BG.jpg",320,240 F,0,-2000,102510,1 S,0,0,,0.8 F,0,102510,105660,1,0 F,0,105660,106310,0 F,0,106310,108510,0 F,0,108510,112110,0,1 F,0,112110,116062,1
//Storyboard Layer 1 (Fail)
//Storyboard Layer 2 (Pass)
//Storyboard Layer 3 (Foreground)
Sprite,Foreground,Centre,"bulletMa007.png",320,240 M,0,92148,,156,118 R,0,92148,,-3.12 F,0,92148,92261,0,1 F,0,92261,92375,1,0
Sprite,Foreground,Centre,"bulletMa007.png",320,240 M,0,88284,,512,117 F,0,88284,88398,0,1 P,0,88284,88398,V F,0,88398,88511,1,0 P,0,88398,88511,V
Sprite,Foreground,Centre,"bulletMa007.png",320,240 M,0,89193,,164,119 F,0,89193,89307,0,1 P,0,89193,89307,V F,0,89307,89420,1,0 P,0,89307,89420,V
Sprite,Foreground,Centre,"objectAa000.png",320,240 M,0,74730,80430,543,-123,543,603 R,0,74730,80430,1.7408,-6.77888
Sprite,Foreground,Centre,"bulletNb000.png",320,240 M,0,41655,,440,418 F,0,41655,41730,0,1 S,0,41655,41880,0.1,1 F,0,41730,42030,1 S,0,41880,42030,1,1.14336 F,0,42030,42330,1,0 S,0,42030,42330,1.14336,1.32768
Sprite,Foreground,Centre,"objectAa000.png",320,240 M,0,2430,9630,339,-124,352,594 R,0,2430,9630,-0.38912,-7.495679
Sprite,Foreground,Centre,"objectAa000.png",320,240 M,0,1230,8430,98,-127,95,590 R,0,1230,8430,-0.16384,9.093121
Sprite,Foreground,Centre,"objectAa000.png",320,240 M,0,3630,10830,597,-130,606,594 R,0,3630,10830,-0.2048,7.249919
Sprite,Foreground,Centre,"bulletMa007.png",320,240 M,0,1230,,60,363 F,0,1230,1380,0,1 F,0,1380,1530,1,0
Sprite,Foreground,Centre,"bulletMa007.png",320,240 M,0,1680,,467,362 F,0,1680,1830,0,1 F,0,1830,1980,1,0
Sprite,Foreground,Centre,"bulletMa007.png",320,240 M,0,2130,,164,362 F,0,2130,2280,0,1 F,0,2280,2430,1,0
Sprite,Foreground,Centre,"bulletMa007.png",320,240 M,0,2580,,459,362 F,0,2580,2730,0,1 F,0,2730,2880,1,0
Sprite,Foreground,Centre,"bulletMa007.png",320,240 M,0,3030,,302,361 F,0,3030,3180,0,1 F,0,3180,3330,1,0
Sprite,Foreground,Centre,"bulletMa007.png",320,240 M,0,3330,,185,361 F,0,3330,3480,0,1 F,0,3480,3630,1,0
Sprite,Foreground,Centre,"bulletMa007.png",320,240 M,0,3630,,501,361 F,0,3630,3780,0,1 F,0,3780,3930,1,0
Sprite,Foreground,Centre,"bulletMa007.png",320,240 M,0,4080,,185,361 F,0,4080,4230,0,1 F,0,4230,4380,1,0
Sprite,Foreground,Centre,"bulletMa007.png",320,240 M,0,4530,,627,361 F,0,4530,4680,0,1 F,0,4680,4830,1,0
Sprite,Foreground,Centre,"bulletMa007.png",320,240 M,0,4980,,430,361 F,0,4980,5130,0,1 F,0,5130,5280,1,0
Sprite,Foreground,Centre,"bulletMa007.png",320,240 M,0,5430,,125,359 F,0,5430,5580,0,1 F,0,5580,5730,1,0
Sprite,Foreground,Centre,"bulletMa007.png",320,240 M,0,5730,,336,358 F,0,5730,5880,0,1 F,0,5880,6030,1,0
Sprite,Foreground,Centre,"bulletMa007.png",320,240 M,0,6030,,196,361 F,0,6030,6180,0,1 F,0,6180,6330,1,0
Sprite,Foreground,Centre,"bulletMa007.png",320,240 M,0,6480,,444,359 F,0,6480,6630,0,1 F,0,6630,6780,1,0
Sprite,Foreground,Centre,"bulletMa007.png",320,240 M,0,7380,,534,362 F,0,7380,7530,0,1 F,0,7530,7680,1,0
Sprite,Foreground,Centre,"bulletMa007.png",320,240 M,0,6930,,8,359 F,0,6930,7080,0,1 F,0,7080,7230,1,0
Sprite,Foreground,Centre,"bulletMa007.png",320,240 M,0,7830,,323,362 F,0,7830,7980,0,1 F,0,7980,8130,1,0 F,0,8130,8280,0,1 F,0,8280,8430,1,0
Sprite,Foreground,Centre,"bulletNb000.png",320,240 M,0,17655,,431,82 F,0,17655,17730,0,1 S,0,17655,17880,0.1,0.84752 F,0,17730,18030,1 S,0,17880,18030,0.84752,1.04208 F,0,18030,18330,1,0 S,0,18030,18330,1.04208,1.30832
Sprite,Foreground,Centre,"bulletNb000.png",320,240 M,0,41355,,40,38 F,0,41355,41430,0,1 S,0,41355,41580,0.1,1 F,0,41430,41730,1 S,0,41580,41730,1,1.17408 F,0,41730,42030,1,0 S,0,41730,42030,1.17408,1.33792
Sprite,Foreground,Centre,"bulletNb000.png",320,240 M,0,41505,,196,300 F,0,41505,41580,0,1 S,0,41505,41730,0.1,1 F,0,41580,41880,1 S,0,41730,41880,1,1.1536 F,0,41880,42180,1,0 S,0,41880,42180,1.1536,1.3072
Sprite,Foreground,Centre,"bulletNb000.png",320,240 M,0,36855,,296,247 F,0,36855,36930,0,1 S,0,36855,37080,0.1,1 F,0,36930,37230,1 S,0,37080,37230,1,1.13312 F,0,37230,37530,1,0 S,0,37230,37530,1.13312,1.32768
Sprite,Foreground,Centre,"bulletNb000.png",320,240 M,0,9555,,232,87 F,0,9555,9630,0,1 S,0,9555,9780,0.1,1 R,0,9630,,0 F,0,9630,9930,1 S,0,9780,9930,1,1.13312 F,0,9930,10230,1,0 S,0,9930,10230,1.13312,1.50176
Sprite,Foreground,Centre,"bulletNb000.png",320,240 M,0,10005,,138,342 F,0,10005,10080,0,1 S,0,10005,10230,0.1,1 F,0,10080,10380,1 S,0,10230,10380,1,1.22528 F,0,10380,10680,1,0 S,0,10380,10680,1.22528,1.45056
Sprite,Foreground,Centre,"bulletNb000.png",320,240 M,0,10455,,499,380 F,0,10455,10530,0,1 S,0,10455,10680,0.1,1 F,0,10530,10830,1 S,0,10680,10830,1,1.2048 F,0,10830,11130,1,0 S,0,10830,11130,1.2048,1.45056
Sprite,Foreground,Centre,"bulletCc000.png",320,240 F,0,10530,13230,0,1 M,0,10830,,324,-37 S,0,10830,,2.55648 F,0,13230,13380,1,0
Sprite,Foreground,Centre,"bulletCc000.png",320,240 M,0,10530,,324,532 S,0,10530,,2.56672 F,0,10530,13230,0,1 F,0,13230,13380,1,0
Sprite,Foreground,Centre,"bulletNb000.png",320,240 M,0,22155,,397,72 F,0,22155,22230,0,1 S,0,22155,22380,0.1,1 F,0,22230,22530,1 S,0,22380,22530,1,1.1536 F,0,22530,22830,1,0 S,0,22530,22830,1.1536,1.39936
Sprite,Foreground,Centre,"bulletNb000.png",320,240 M,0,22455,,151,378 F,0,22455,22530,0,1 S,0,22455,22680,0.1,1 F,0,22530,22830,1 S,0,22680,22830,1,1.16384 F,0,22830,23130,1,0 S,0,22830,23130,1.16384,1.41984
Sprite,Foreground,Centre,"objectAa000.png",320,240 M,0,24030,31230,184,-126,178,599 R,0,24030,31230,-0.4096,7.188481
Sprite,Foreground,Centre,"objectAa000.png",320,240 M,0,26430,33630,469,-123,477,590 R,0,26430,33630,0.2252799,-9.441278
Sprite,Foreground,Centre,"bulletMa007.png",320,240 M,0,8430,,59,358 R,0,8430,,0 F,0,8430,8580,0,1 F,0,8580,8730,1,0
Sprite,Foreground,Centre,"bulletMa007.png",320,240 M,0,8880,,212,358 F,0,8880,9030,0,1 F,0,9030,9180,1,0
Sprite,Foreground,Centre,"bulletMa007.png",320,240 M,0,9330,,457,360 F,0,9330,9480,0,1 F,0,9480,9630,1,0
Sprite,Foreground,Centre,"bulletMa007.png",320,240 M,0,9630,,231,359 F,0,9630,9780,0,1 F,0,9780,9930,1,0
Sprite,Foreground,Centre,"bulletMa007.png",320,240 M,0,10230,,356,359 F,0,10230,10380,0,1 F,0,10380,10530,1,0
Sprite,Foreground,Centre,"bulletMa007.png",320,240 M,0,10530,,29,360 F,0,10530,10680,0,1 F,0,10680,10830,1,0
Sprite,Foreground,Centre,"bulletHb000.png",320,240 S,0,44730,,0.4880002 M,0,44730,45330,94,545,98,174 R,0,44730,48030,0.3481598,-9.0112 M,0,45330,45480,98,174,98,171 M,0,45480,45780,98,171,98,177 M,0,45780,46080,98,177,98,172 M,0,46080,46380,98,172,98,179 M,0,46380,46680,98,179,97,169 M,0,46680,46980,97,169,98,178 M,0,46980,47280,98,178,98,171 M,0,47280,47580,98,171,98,179 M,0,47580,47880,98,179,98,173
Sprite,Foreground,Centre,"bulletHb000.png",320,240 S,0,45330,,0.5289601 M,0,45330,45780,265,532,259,249 R,0,45330,48330,0,-8.78592 M,0,45780,45930,259,249,259,245 M,0,45930,46230,259,245,259,251 M,0,46230,46530,259,251,258,245 M,0,46530,46830,258,245,258,253 M,0,46830,47130,258,253,258,248 M,0,47130,47430,258,248,258,252 M,0,47430,47730,258,252,258,247 M,0,47730,48030,258,247,258,252
Sprite,Foreground,Centre,"bulletHb000.png",320,240 S,0,45930,,0.51872 M,0,45930,46680,406,528,404,84 R,0,45930,48780,0,14.00832 M,0,46680,46830,404,84,404,80 M,0,46830,47130,404,80,404,85 M,0,47130,47430,404,85,404,80 M,0,47430,47730,404,80,404,85 M,0,47730,48030,404,85,404,81 M,0,48030,48330,404,81,404,84 M,0,48330,48630,404,84,404,81
Sprite,Foreground,Centre,"bulletHb000.png",320,240 S,0,46530,,0.5699199 M,0,46530,47130,589,534,583,241 R,0,46530,49080,0,-15.23712 M,0,47130,47280,583,241,586,237 M,0,47280,47580,586,237,586,247 M,0,47580,47880,586,247,586,236 M,0,47880,48180,586,236,586,242 M,0,48180,48480,586,242,586,232 M,0,48480,48780,586,232,585,246
Sprite,Foreground,Centre,"bulletDb000.png",320,240 M,0,48030,,99,176 F,0,48030,48330,1,0 S,0,48030,48330,0.42768,1
Sprite,Foreground,Centre,"bulletDb000.png",320,240 M,0,48330,,256,256 F,0,48330,48630,1,0 S,0,48330,48630,0.46752,1
Sprite,Foreground,Centre,"bulletDb000.png",320,240 M,0,48780,,403,83 F,0,48780,49080,1,0 S,0,48780,49080,0.4982401,1
Sprite,Foreground,Centre,"bulletDb000.png",320,240 M,0,49080,,584,248 F,0,49080,49380,1,0 S,0,49080,49380,0.5392001,1
Sprite,Foreground,Centre,"bulletNb000.png",320,240 M,0,48630,,350,249 S,0,48630,48855,0.1,1 S,0,48855,49005,1,1.1024 F,0,49005,49305,1,0 S,0,49005,49305,1.1024,1.28672
Sprite,Foreground,Centre,"bulletNb000.png",320,240 M,0,48930,,537,129 S,0,48930,49155,0.1,1 S,0,49155,49305,1,1.13312 F,0,49305,49605,1,0 S,0,49305,49605,1.13312,1.34816
Sprite,Foreground,Centre,"CAUTION.png",320,240 F,0,50430,50730,0,1 M,0,50430,51630,-403,139,1041,134 F,0,50730,51030,1,0 F,0,51030,51330,0,1 F,0,51330,51630,1,0 F,0,51630,51930,0,1 M,0,51630,52830,1041,134,-401,140 F,0,51930,52230,1,0 F,0,52230,52530,0,1 F,0,52530,52830,1,0
Sprite,Foreground,Centre,"CAUTION.png",320,240 F,0,50430,50730,1 M,0,50430,51630,1046,361,-402,361 F,0,50730,51030,1,0 F,0,51030,51330,0,1 F,0,51330,51630,1,0 F,0,51630,51930,0,1 M,0,51630,52830,-402,361,1040,360 F,0,51930,52230,1,0 F,0,52230,52530,0,1 F,0,52530,52830,1,0
Sprite,Foreground,Centre,"bulletMa007.png",320,240 M,0,55230,,71,361 F,0,55230,55380,0,1 F,0,55380,55530,1,0
Sprite,Foreground,Centre,"bulletMa007.png",320,240 M,0,55530,,545,362 F,0,55530,55680,0,1 F,0,55680,55830,1,0
Sprite,Foreground,Centre,"bulletMa007.png",320,240 M,0,55830,,222,362 F,0,55830,55980,1 F,0,55980,56130,1,0
Sprite,Foreground,Centre,"bulletMa007.png",320,240 M,0,56130,,355,359 F,0,56130,56280,0,1 F,0,56280,56430,1,0
Sprite,Foreground,Centre,"bulletMa007.png",320,240 M,0,56430,,546,332 S,0,56430,,1.256 F,0,56430,56580,0,1 F,0,56580,56730,1,0
Sprite,Foreground,Centre,"CAUTION.png",320,240 F,0,60030,60330,0,1 M,0,60030,60930,-400,144,1043,141 F,0,60330,60630,1,0 F,0,60630,60930,0,1 F,0,60930,61230,1,0 M,0,60930,62130,1043,141,-403,145 F,0,61230,61530,0,1 F,0,61530,61830,1,0 F,0,61830,62130,0,1
Sprite,Foreground,Centre,"CAUTION.png",320,240 F,0,60030,60330,0,1 M,0,60030,60930,1040,364,-402,365 F,0,60330,60630,1,0 F,0,60630,60930,0,1 F,0,60930,61151,1,0.8828533 M,0,60930,62130,-402,365,1041,365 F,0,61151,61230,0.8828533,0 F,0,61230,61530,0,1 F,0,61530,61830,1,0 F,0,61830,62130,0,1
Sprite,Foreground,Centre,"bulletGc001.png",320,240 M,0,62430,,68,86 S,0,62430,62655,0.1,1 F,0,62655,,1 F,0,62655,63030,1,0 S,0,62655,63030,1,1.21504
Sprite,Foreground,Centre,"bulletGc002.png",320,240 M,0,62730,,114,249 S,0,62730,62955,0.1,1 F,0,62955,,1 F,0,62955,63330,1,0 S,0,62955,63330,1,1.22528
Sprite,Foreground,Centre,"bulletGc003.png",320,240 M,0,63030,,239,361 S,0,63030,63255,0.1,1 F,0,63255,63630,1,0 S,0,63255,63630,1,1.21504
Sprite,Foreground,Centre,"bulletGc001.png",320,240 M,0,63330,,430,419 S,0,63330,63555,0.1,1 F,0,63555,63930,1,0 S,0,63555,63930,1,1.31744
Sprite,Foreground,Centre,"bulletGc002.png",320,240 M,0,64830,,353,74 S,0,64830,65055,0.1,1 F,0,65055,65430,1,0 S,0,65055,65430,1,1.3072
Sprite,Foreground,Centre,"bulletGc003.png",320,240 M,0,65130,,466,217 S,0,65130,65355,0.1,1 S,0,65355,65730,1,1.33792 F,0,65430,65730,1,0
Sprite,Foreground,Centre,"bulletGc001.png",320,240 M,0,65430,,421,364 S,0,65430,65655,0.1,1 F,0,65655,66030,1,0 S,0,65655,66030,1,1.3584
Sprite,Foreground,Centre,"bulletGc002.png",320,240 M,0,65730,,227,403 S,0,65730,65955,0.1,1 S,0,65955,66330,1,1.256 F,0,66030,66330,1,0
Sprite,Foreground,Centre,"bulletGc003.png",320,240 M,0,67230,,379,327 S,0,67230,67455,0.1,1 F,0,67455,67830,1,0 S,0,67455,67830,1,1.24576
Sprite,Foreground,Centre,"bulletGc001.png",320,240 S,0,67530,67755,0.1,1 F,0,67755,68130,1,0 S,0,67755,68130,1,1.29696
Sprite,Foreground,Centre,"bulletGc002.png",320,240 M,0,67830,,176,142 S,0,67830,68055,0.1,1 F,0,68055,68430,1,0 S,0,68055,68430,1,1.22528
Sprite,Foreground,Centre,"bulletGc003.png",320,240 M,0,68130,,381,88 S,0,68130,68355,0.1,1 F,0,68355,68730,1,0 S,0,68355,68730,1,1.27648
Sprite,Foreground,Centre,"bulletGc001.png",320,240 M,0,69630,,85,103 S,0,69630,69855,0.1,1 F,0,69855,70230,1,0 S,0,69855,70230,1,1.55296
Sprite,Foreground,Centre,"bulletGc002.png",320,240 M,0,69930,,559,317 S,0,69930,70155,0.1,1 F,0,70155,70530,1,0 S,0,70155,70530,1,1.3072
Sprite,Foreground,Centre,"bulletGc003.png",320,240 M,0,70230,,101,360 S,0,70230,70455,0.1,1 F,0,70455,70830,1,0 S,0,70455,70830,1,1.33792
Sprite,Foreground,Centre,"bulletNb000.png",320,240 F,0,70530,70605,0,1 S,0,70530,70680,0.1,1.55296 F,0,70605,70755,1 S,0,70680,70830,1.55296,2.16736 F,0,70755,70830,1,0
Sprite,Foreground,Centre,"objectAa000.png",320,240 M,0,71130,76830,657,-123,660,588 R,0,71130,76830,0,13.9264
Sprite,Foreground,Centre,"objectAa000.png",320,240 M,0,71730,77430,130,-125,133,588 R,0,71730,77430,0,11.75552
Sprite,Foreground,Centre,"objectAa000.png",320,240 F,0,72330,72630,0,1 M,0,72330,77730,384,112,392,601 R,0,72330,77730,0,-9.502719
Sprite,Foreground,Centre,"objectAa000.png",320,240 M,0,73530,77730,317,-127,314,597 R,0,73530,77730,2.2528,12.93312 R,0,77730,,12.93312
Sprite,Foreground,Centre,"objectAa000.png",320,240 M,0,74055,79230,26,-124,14,592 R,0,74055,79251,0,-9.564159
Sprite,Foreground,Centre,"objectAa000.png",320,240 F,0,75930,,1 M,0,75930,80430,188,-128,177,592 R,0,75930,80430,0,11.83744
Sprite,Foreground,Centre,"objectAa000.png",320,240 F,0,76530,76830,0,1 M,0,76530,79230,258,196,245,594 R,0,76530,79230,0,-10.07616
Sprite,Foreground,Centre,"objectAa000.png",320,240 F,0,77130,,1 M,0,77130,80430,417,-129,413,597 R,0,77130,80430,0,15.99488
Sprite,Foreground,Centre,"CAUTION.png",320,240 M,0,80430,,320,240 S,0,80430,,0.8054398 F,0,80430,81030,0,1 F,0,81030,81330,1,0 F,0,81330,81930,0,1 F,0,81930,82230,1,0 F,0,82230,82830,0,1 F,0,82830,83057,1,0 F,0,83057,83739,0,1 F,0,83739,84193,1,0
Sprite,Foreground,Centre,"caution_sign.png",320,240 M,0,80430,,0,0 F,0,80430,81030,0,1 R,0,80430,84193,-7.290878,15.31904 F,0,81030,81330,1,0 F,0,81330,81930,0,1 F,0,81930,82230,1,0 F,0,82230,82830,0,1 F,0,82830,83057,1,0 F,0,83057,83739,0,1 F,0,83739,84193,1,0
Sprite,Foreground,Centre,"caution_sign.png",320,240 M,0,80430,,640,480 F,0,80430,81030,0,1 R,0,80430,84193,-0.5324799,28.99968 F,0,81030,81330,1,0 F,0,81330,81930,0,1 F,0,81930,82230,1,0 F,0,82230,82830,0,1 F,0,82830,83057,1,0 F,0,83057,83739,0,1 F,0,83739,84193,1,0
Sprite,Foreground,Centre,"objectAa000.png",320,240 M,0,80430,,2,490 F,0,80430,81030,0,1 R,0,80430,84193,-0.3891205,-25.14944 F,0,81030,81330,1,0 F,0,81330,81930,0,1 F,0,81930,82230,1,0 F,0,82230,82830,0,1 F,0,82830,83057,1,0 F,0,83057,83739,0,1 F,0,83739,84193,1,0
Sprite,Foreground,Centre,"bulletMa007.png",320,240 M,0,82830,,239,361 F,0,82830,82943,0,1 F,0,82943,83057,1,0
Sprite,Foreground,Centre,"bulletIa000.png",320,240 M,0,80430,,634,3 F,0,80430,81030,0,1 R,0,80430,84193,-0.9420799,-50 F,0,81030,81330,1,0 F,0,81330,81930,0,1 F,0,81930,82230,1,0 F,0,82230,82830,0,1 F,0,82830,83057,1,0 F,0,83057,83739,0,1 F,0,83739,84193,1,0
Sprite,Foreground,Centre,"bulletMa007.png",320,240 M,0,83170,,508,360 F,0,83170,83284,0,1 F,0,83284,83398,1,0
Sprite,Foreground,Centre,"bulletMa007.png",320,240 M,0,83284,,397,362 F,0,83284,83398,0,1 F,0,83398,83511,1,0
Sprite,Foreground,Centre,"bulletMa007.png",320,240 F,0,83625,83739,0,1 M,0,83739,,208,120 R,0,83739,,-3.174401 F,0,83739,83852,1,0
Sprite,Foreground,Centre,"bulletMa007.png",320,240 M,0,83739,,506,360 F,0,83739,83852,0,1 F,0,83852,83966,1,0
Sprite,Foreground,Centre,"bulletMa007.png",320,240 M,0,84080,,81,362 F,0,84080,84193,0,1 F,0,84193,84307,1,0 F,0,84307,85244,0,0.02631581
Sprite,Foreground,Centre,"bulletMa007.png",320,240 F,0,84193,84307,0,1 M,0,84307,,377,116 R,0,84307,,-3.15392 F,0,84307,84420,1,0
Sprite,Foreground,Centre,"bulletMa007.png",320,240 M,0,84420,,358,359 F,0,84420,84534,0,1 F,0,84534,84648,1,0
Sprite,Foreground,Centre,"bulletMa007.png",320,240 M,0,84648,,178,116 R,0,84648,,-3.13344 F,0,84648,84761,0,1 F,0,84761,84875,1,0
Sprite,Foreground,Centre,"bulletMa007.png",320,240 M,0,84875,,366,364 F,0,84875,84989,0,1 F,0,84989,85102,1,0
Sprite,Foreground,Centre,"bulletIa000.png",320,240 F,0,85898,86011,0,1 M,0,86011,,69,61 F,0,86011,86466,1 R,0,86011,86466,0,-13.06624 F,0,86466,86580,1,0
Sprite,Foreground,Centre,"bulletMa007.png",320,240 M,0,85102,,58,370 F,0,85102,85216,0,1 F,0,85216,85330,1,0
Sprite,Foreground,Centre,"bulletIa000.png",320,240 F,0,89534,89648,0,1 M,0,89648,,566,446 F,0,89648,90102,1 R,0,89648,90102,0,-21.46304 F,0,90102,90216,1,0
Sprite,Foreground,Centre,"bulletMa007.png",320,240 M,0,90102,,324,368 F,0,90102,90216,0,1 F,0,90216,90330,1,0
Sprite,Foreground,Centre,"bulletMa007.png",320,240 M,0,90330,,436,116 R,0,90330,,-3.12 F,0,90330,90443,0,1 F,0,90443,90557,1,0
Sprite,Foreground,Centre,"bulletMa007.png",320,240 M,0,90557,,169,156 S,0,90557,,1.336 R,0,90557,,-3.136 F,0,90557,90670,0,1 F,0,90670,90784,1,0
Sprite,Foreground,Centre,"bulletMa007.png",320,240 M,0,91011,,97,368 F,0,91011,91125,0,1 F,0,91125,91239,1,0
Sprite,Foreground,Centre,"bulletMa007.png",320,240 M,0,91239,,241,366 F,0,91239,91352,0,1 F,0,91352,91466,1,0
Sprite,Foreground,Centre,"bulletMa007.png",320,240 M,0,91466,,487,318 S,0,91466,,1.408 F,0,91466,91580,0,1 F,0,91580,91693,1,0
Sprite,Foreground,Centre,"bulletMa007.png",320,240 M,0,91920,,527,117 R,0,91920,,-3.12 F,0,91920,92034,0,1 F,0,92034,92148,1,0
Sprite,Foreground,Centre,"bulletGc003.png",320,240 M,0,89989,,240,292 F,0,89989,90102,0,1 S,0,89989,90330,0.1,1 F,0,90102,90330,1 F,0,90330,90784,1,0 S,0,90330,90784,1,1.432
Sprite,Foreground,Centre,"bulletMa007.png",320,240 M,0,92261,,563,367 F,0,92261,92375,0.01600006,1 F,0,92375,92489,1,0
Sprite,Foreground,Centre,"bulletMa007.png",320,240 M,0,93739,,130,100 R,0,93739,,-3.136 F,0,93739,93852,0,1 F,0,93852,93966,1,0
Sprite,Foreground,Centre,"bulletMa007.png",320,240 M,0,93966,,483,367 F,0,93966,94080,0,1 F,0,94080,94193,1,0
Sprite,Foreground,Centre,"bulletMa007.png",320,240 M,0,94193,,162,365 F,0,94193,94307,0,1 F,0,94307,94420,1,0
Sprite,Foreground,Centre,"bulletMa007.png",320,240 M,0,94648,,333,367 F,0,94648,94761,0.00800003,1 F,0,94761,94875,1,0
Sprite,Foreground,Centre,"bulletMa007.png",320,240 M,0,94875,,319,118 R,0,94875,,-3.136 F,0,94875,94989,0,1 F,0,94989,95102,1,0
Sprite,Foreground,Centre,"bulletIa000.png",320,240 F,0,93170,93284,0,1 M,0,93284,,530,51 F,0,93284,93739,1 R,0,93284,93739,0,-23.01952 F,0,93739,93852,1,0
Sprite,Foreground,Centre,"CAUTION.png",320,240 F,0,84193,85102,0,1 M,0,84193,96466,1037,541,-400,544 F,0,85102,85330,1,0.8515201 F,0,85330,95557,0.8515201,1 F,0,95557,96466,1,0
Sprite,Foreground,Centre,"CAUTION.png",320,240 F,0,84193,85102,0,1 M,0,84193,96466,-417,-55,1044,-57 F,0,85102,85898,1,0.6568764 F,0,85898,95557,0.6568764,0.9988999 F,0,95557,96466,0.9988999,0
Sprite,Foreground,Centre,"bulletCc000.png",320,240 S,0,82830,,2.13664 R,0,82830,,-1.57696 M,0,82830,83511,-35,230 F,0,82830,84648,0,1 F,0,84648,95557,1,0.9977998 F,0,95557,96011,0.9977998,0
Sprite,Foreground,Centre,"bulletCc000.png",320,240 M,0,82830,,673,233 S,0,82830,,2.03424 R,0,82830,,-1.57696 F,0,82830,84080,0,0.5902886 F,0,84080,84648,0.5902886,1 F,0,84648,95557,1 F,0,95557,96011,1,0
Sprite,Foreground,Centre,"bulletNb000.png",320,240 F,0,95557,95670,0,1 S,0,95557,95898,0.1,1 F,0,95670,96466,1 S,0,95898,96125,1,1.203848 S,0,96125,96466,1.203848,1.541769 F,0,96466,96920,1,0 S,0,96466,96920,1.541769,2.113226
Sprite,Foreground,Centre,"bulletMa007.png",320,240 M,0,85330,,420,122 R,0,85330,,-3.13344 F,0,85330,85443,0,1 F,0,85443,85557,1,0
Sprite,Foreground,Centre,"bulletMa007.png",320,240 M,0,85557,,320,369 F,0,85557,85670,0,1 F,0,85670,85784,1,0
Sprite,Foreground,Centre,"bulletMa007.png",320,240 M,0,85784,,308,119 R,0,85784,,-3.13344 F,0,85784,85898,0,1 F,0,85898,86011,1,0
Sprite,Foreground,Centre,"bulletDb000.png",320,240 F,0,86011,86125,0,1 S,0,86011,86352,0.1,1 F,0,86125,86466,1,0
Sprite,Foreground,Centre,"bulletMa007.png",320,240 M,0,86466,,155,368 F,0,86466,86580,0,1 F,0,86580,86693,1,0
Sprite,Foreground,Centre,"bulletMa007.png",320,240 M,0,86693,,431,117 R,0,86693,,-3.13344 F,0,86693,86807,0,1 F,0,86807,86920,1,0.005120086
Sprite,Foreground,Centre,"bulletMa007.png",320,240 M,0,86920,,179,120 R,0,86920,,-3.11296 F,0,86920,87034,0,1 F,0,87034,87148,1,0
Sprite,Foreground,Centre,"bulletMa007.png",320,240 M,0,87375,,446,365 F,0,87375,87489,0,1 F,0,87489,87602,1,0
Sprite,Foreground,Centre,"bulletMa007.png",320,240 M,0,87602,,299,369 F,0,87602,87716,0,1 F,0,87716,87830,1,0
Sprite,Foreground,Centre,"bulletMa007.png",320,240 M,0,87830,,89,115 R,0,87830,,-3.1744 F,0,87830,87943,0,1 F,0,87943,88057,1,0
Sprite,Foreground,Centre,"bulletMa007.png",320,240 M,0,88739,,288,364 R,0,88739,,0 F,0,88739,88852,0,1 F,0,88852,88966,1,0
Sprite,Foreground,Centre,"bulletGc001.png",320,240 M,0,89648,,173,124 F,0,89648,89989,0,1 S,0,89648,89989,0.1,1 F,0,89989,90557,1,0 S,0,89989,90557,1,1.336
Sprite,Foreground,Centre,"bulletGc002.png",320,240 M,0,89761,,424,156 F,0,89761,89875,0,1 S,0,89761,90102,0.1,1 F,0,89875,90102,1 F,0,90102,90557,1,0 S,0,90102,90557,1,1.488
Sprite,Foreground,Centre,"bulletMa007.png",320,240 M,0,92489,,284,368 F,0,92489,92602,0,1 F,0,92602,92716,1,0
Sprite,Foreground,Centre,"bulletDb000.png",320,240 M,0,92830,,243,147 F,0,92830,92943,0,1 S,0,92830,93170,0.1,1 F,0,92943,93170,1 F,0,93170,93625,1,0 S,0,93170,93625,1,1.344
Sprite,Foreground,Centre,"bulletDb000.png",320,240 M,0,93170,,482,381 F,0,93170,93284,0,1 S,0,93170,93511,0.1,1 F,0,93284,93511,1 F,0,93511,93966,1,0 S,0,93511,93966,1,1.336
Sprite,Foreground,Centre,"bulletNb000.png",320,240 M,0,93170,,482,383 F,0,93170,93284,0,1 S,0,93170,93511,0.1,1 F,0,93284,93511,1 F,0,93511,93966,1,0 S,0,93511,93966,1,1.48
Sprite,Foreground,Centre,"bulletMa007.png",320,240 F,0,95102,95216,0,1 F,0,95216,95330,1,0 M,0,95330,,214,365
Sprite,Foreground,Centre,"CAUTION.png",320,240 M,0,95557,,320,240 F,0,95557,96011,0,1 F,0,96011,96466,1,0 F,0,96466,96920,0,1 F,0,96920,97410,1,0
Sprite,Foreground,Centre,"bulletCc000.png",320,240 F,0,103710,106110,0,0.3853126 F,0,103710,106110,0,0.511419 M,0,105210,,316,-62 S,0,105210,,2.64864 R,0,105210,,3.13344 F,0,106110,106210,0.511419,0.9710842 F,0,106210,108460,0.9710842,0.32048 F,0,108460,108610,0.32048,0
Sprite,Foreground,Centre,"bulletCc000.png",320,240 M,0,103710,,317,535 S,0,103710,,2.64864 R,0,103710,,-7.390976E-07 F,0,103710,106110,0,0.511419 F,0,106110,106210,0.511419,0.9710842 F,0,106210,108460,0.9710842,0.32048 F,0,108460,108610,0.32048,0
Sprite,Foreground,Centre,"caution_sign.png",320,240 M,0,100110,,0,0 F,0,100110,101910,0,1 R,0,100110,104910,-7.290878,15.31904 F,0,101910,103110,1 F,0,103110,104910,1,0
Sprite,Foreground,Centre,"caution_sign.png",320,240 M,0,100110,,640,480 F,0,100110,101910,0,1 R,0,100110,104910,-7.290878,15.31904 F,0,101910,103110,1 F,0,103110,104910,1,0
Sprite,Foreground,Centre,"caution_sign.png",320,240 M,0,100110,,0,480 F,0,100110,101910,0,1 R,0,100110,104910,7.290878,-15.31904 F,0,101910,103110,1 F,0,103110,104910,1,0
Sprite,Foreground,Centre,"caution_sign.png",320,240 M,0,100110,,640,0 F,0,100110,101910,0,1 R,0,100110,104910,7.290878,-15.31904 F,0,101910,103110,1 F,0,103110,104910,1,0
//Storyboard Sound Samples
//Background Colour Transformations
3,100,163,162,255

[TimingPoints]
1230,300,4,1,0,70,1,0
20130,-133.333333333333,4,1,0,70,0,0
20580,-100,4,1,0,70,0,0
82830,454.545454545455,3,1,0,70,1,0
82830,-88.4955752212389,3,1,0,70,0,0
97110,300,4,1,0,70,1,0
97710,300,4,1,0,70,1,0

[Colours]
Combo1 : 255,21,21
Combo2 : 255,255,91
Combo3 : 255,155,55
Combo4 : 255,106,106

[HitObjects]
56,72,630,5,0
64,168,780,1,2
96,256,930,1,8
168,320,1080,1,0
256,360,1230,5,4
256,360,1455,1,0
336,168,1680,6,0,B|256:192,1,85,0|0
254,192,2055,1,0
176,48,2280,6,0,B|256:24,1,85,0|0
257,23,2655,1,0
360,288,2880,5,0
456,312,3030,1,0
448,216,3180,1,2
416,128,3330,1,8
344,64,3480,1,0
256,24,3630,5,4
256,24,3855,1,0
160,224,4080,5,0
256,192,4230,1,0
256,192,4455,1,0
352,328,4680,5,0
256,360,4830,1,0
256,360,5055,1,0
56,96,5280,6,0,B|123:148,1,85
56,288,5580,2,0,B|123:235,1,85,2|8
208,192,5880,1,0
304,192,6030,6,0,B|456:192,1,127.5,4|0
344,80,6480,5,0
256,40,6630,2,0,B|256:184,1,127.5
168,304,7080,5,0
256,344,7230,2,0,B|256:200,1,127.5
408,192,7680,5,0
408,192,7830,1,0
104,192,8130,1,8
256,112,8430,6,0,B|256:16,2,85,2|0|0
256,272,8880,2,0,B|256:368,2,85,0|8|0
376,80,9330,5,0
256,192,9480,1,2
136,80,9630,1,4
64,328,9930,5,0
64,328,10080,1,0
448,328,10380,5,0
448,328,10530,1,8
256,192,10830,12,0,12930
72,160,13230,5,0
72,160,13380,1,0
136,88,13530,2,0,B|216:32|304:72,1,170,2|0
376,112,13980,2,0,B|432:192|392:280,1,170
304,304,14430,2,0,B|224:336,2,85,2|0|0
288,208,14880,2,0,B|240:136,1,85
176,64,15180,1,0
88,104,15330,1,2
88,104,15480,1,0
88,104,15630,1,0
400,304,15930,6,0,B|328:248,1,85,8|0
256,304,16230,1,0
179,251,16380,2,0,B|112:304,1,85,8|0
72,216,16680,1,0
96,128,16830,6,0,B|184:128,1,85,2|0
416,128,17130,2,0,B|312:128,1,85
256,72,17430,1,0
256,72,17730,1,8
400,320,18030,5,0
400,320,18180,1,0
464,248,18330,2,0,B|496:160|424:88,1,170,2|0
368,168,18780,2,0,B|304:104,1,85,0|0
256,32,19080,1,0
168,32,19230,5,2
344,32,19380,1,0
192,104,19530,1,2
320,104,19680,1,0
216,176,19830,1,0
296,176,19980,1,2
256,248,20130,2,0,B|288:288|224:320|256:368,1,127.499996200204
96,152,20730,6,0,B|176:96,1,85,8|0
256,80,21030,1,0
416,152,21180,6,0,B|336:96,1,85,8|0
256,80,21480,1,0
256,176,21630,5,0
256,176,21705,1,0
256,176,21780,1,2
256,272,21930,2,0,B|160:336,1,85,0|0
256,272,22230,2,0,B|352:336,1,85,0|0
408,272,22530,1,0
408,272,22680,1,8
64,320,22980,6,0,B|64:232,1,85
128,272,23280,2,0,B|128:160,1,85,2|0
192,224,23580,2,0,B|192:112,1,85,0|2
256,64,23880,1,0
448,320,24030,6,0,B|448:232,1,85,2|0
384,272,24330,2,0,B|384:160,1,85,10|0
320,224,24630,2,0,B|320:112,1,85,0|2
256,64,24930,1,0
256,64,25080,1,8
352,288,25380,5,0
352,288,25530,2,0,B|433:251|425:147,1,170,2|0
160,288,25980,5,0
160,288,26130,2,0,B|78:251|86:147,1,170,2|0
136,88,26580,5,0
256,160,26730,1,8
256,296,26880,1,0
376,224,27030,5,0
376,88,27180,1,0
256,160,27330,1,8
256,296,27480,1,0
40,80,27780,6,0,B|136:80,1,85,0|0
72,136,28080,2,0,B|184:136,1,85,2|0
104,192,28380,2,0,B|200:192,1,85,0|2
256,232,28680,1,0
472,304,28830,6,0,B|376:304,1,85,2|0
440,248,29130,2,0,B|328:248,1,85,10|0
408,192,29430,2,0,B|312:192,1,85
256,152,29730,1,0
256,232,29880,1,8
128,80,30180,5,0
92,148,30330,2,0,B|72:192|92:236,1,85,2|0
128,304,30630,1,0
384,304,30780,5,0
420,236,30930,2,0,B|440:192|420:148,1,85,8|0
384,80,31230,1,0
256,192,31380,12,0,32130
256,72,32430,5,0
256,72,32580,1,0
344,104,32730,2,0,B|432:80,1,85,2|0
168,104,33030,2,0,B|80:80,1,85,0|2
360,192,33330,2,0,B|464:192,1,85
152,192,33630,2,0,B|48:192,1,85,2|0
344,280,33930,2,0,B|432:304,1,85,0|2
168,280,34230,2,0,B|80:304,1,85,0|0
256,312,34530,1,8
256,312,34680,1,0
256,192,34830,5,0
440,224,35130,5,2
456,136,35280,2,0,B|400:64|304:88,1,170,0|8
207,87,35730,2,0,B|112:64|56:136,1,170
72,224,36180,1,0
184,296,36330,6,0,B|96:296,2,85,2|0|0
328,296,36780,2,0,B|416:296,2,85,0|8|0
256,192,37230,5,0
256,192,37380,1,0
288,104,37530,2,0,B|328:16|432:32,1,170,2|0
480,144,37980,2,0,B|440:232|336:216,1,170
256,192,38430,1,2
176,144,38580,1,0
112,72,38730,6,0,B|64:72|32:104,1,85,0|2
34,282,39030,2,0,B|64:312|112:312,1,85
176,240,39330,2,0,B|232:312,2,85,0|0|0
400,72,39930,6,0,B|448:72|480:104,1,85,8|0
440,192,40230,1,0
478,282,40380,2,0,B|448:312|400:312,1,85,8|0
336,240,40680,1,0
256,192,40830,5,0
256,192,40905,1,0
256,192,40980,1,2
152,232,41130,2,0,B|176:280|232:288,1,85,0|0
360,152,41430,2,0,B|336:104|280:96,1,85,0|0
256,192,41730,5,0
256,192,41880,1,8
48,88,42180,6,0,B|142:64,1,85
192,192,42480,2,0,B|104:192,1,85,2|0
48,296,42780,2,0,B|142:319,1,85,0|2
256,296,43080,5,0
256,296,43230,1,10
360,112,43380,1,0
360,112,43530,1,2
152,112,43680,1,0
152,112,43830,1,0
256,192,43980,1,2
256,192,44130,1,0
256,192,44280,1,8
384,328,44580,5,0
384,328,44730,2,0,B|344:232|424:152,1,170,2|0
480,112,45180,1,0
480,112,45330,2,0,B|436:40|332:48,1,170,2|0
256,88,45780,5,0
136,160,45930,1,8
160,296,46080,1,0
256,208,46230,5,0
376,160,46380,1,0
352,296,46530,1,8
256,208,46680,1,0
152,48,46980,6,0,B|128:142,1,85
256,192,47280,2,0,B|256:104,1,85,2|0
360,48,47580,2,0,B|383:142,1,85,0|2
408,224,47880,1,0
392,320,48030,6,0,B|312:272,1,85,2|0
120,320,48330,2,0,B|200:272,1,85,10|0
256,192,48630,2,0,B|256:96,2,85
256,192,49080,1,8
128,56,49380,5,0
128,56,49530,2,0,B|168:152|88:232,1,170,2|0
32,272,49980,1,0
32,272,50130,2,0,B|75:343|179:335,1,170,2|0
256,192,50580,12,0,51330
416,152,51630,6,0,B|392:64|296:32,1,170,0|8
208,34,52080,2,0,B|120:64|96:152,2,170
256,120,52830,5,0
320,192,52980,1,0
256,264,53130,1,8
184,328,53280,2,0,B|80:328|40:232,1,170
72,152,53730,5,0
160,176,53880,1,0
176,88,54030,6,0,B|220:56|292:56|336:88,1,170,0|8
336,296,54480,2,0,B|292:328|220:328|176:296,2,170
408,232,55230,6,0,B|392:184|344:168,1,85,4|0
104,232,55530,2,0,B|120:184|168:168,1,85,4|0
320,96,55830,5,0
256,160,55980,1,0
192,96,56130,1,0
256,32,56280,1,0
256,32,56430,6,0,B|256:208,1,170,0|8
208,280,56880,6,0,B|184:320|144:336,1,85,0|0
120,240,57180,2,0,B|80:216|48:160|80:80,1,170
168,120,57630,5,0
256,160,57780,1,0
344,120,57930,1,8
435,89,58080,6,0,B|461:163|432:216|392:240,1,170
304,280,58530,2,0,B|328:320|368:336,1,85
456,304,58830,5,0
408,56,59130,1,8
408,56,59280,1,0
104,56,59580,1,0
104,56,59730,1,8
40,304,60030,1,4
256,192,60180,12,0,60930
88,112,61230,6,0,B|168:56,1,85,0|0
256,64,61530,1,8
256,64,61680,1,0
424,272,61830,6,0,B|344:328,1,85,2|0
256,320,62130,1,8
256,320,62280,1,0
256,192,62430,5,0
256,192,62505,1,0
256,192,62580,1,0
208,88,62730,6,0,B|124:103,1,85,2|0
124,280,63030,2,0,B|208:296,1,85,2|0
344,248,63330,5,8
344,136,63480,1,0
464,80,63630,6,0,B|464:176,1,85
384,224,63930,1,8
384,224,64080,1,0
48,304,64230,6,0,B|48:208,1,85,2|0
128,160,64530,1,8
128,160,64680,1,0
256,104,64830,5,0
256,104,64905,1,0
256,104,64980,1,0
336,192,65130,1,0
256,280,65280,1,2
256,280,65355,1,0
256,280,65430,1,2
256,280,65505,1,0
256,280,65580,1,2
176,192,65730,1,8
256,104,65880,1,0
376,64,66030,5,0
464,48,66180,2,0,B|488:88|464:128,1,85,0|8
376,152,66480,2,0,B|352:192|376:232,1,85,0|2
464,256,66780,2,0,B|488:296|464:336,1,85,0|8
376,320,67080,1,0
296,264,67230,6,0,B|208:264,2,85,0|0|8
352,192,67680,1,0
296,120,67830,2,0,B|208:120,1,85,2|0
160,192,68130,1,10
64,192,68280,1,2
64,96,68430,5,0
144,48,68580,1,0
232,80,68730,2,0,B|288:104|296:176,1,85,8|0
223,243,69030,6,0,B|240:288|279:303,1,85,0|0
368,336,69329,1,8
448,288,69480,1,0
448,288,69630,1,0
256,192,69780,12,0,70530
352,208,70830,6,0,B|376:168|376:120,1,85
344,40,71130,1,8
256,64,71280,2,0,B|256:152,2,85
168,40,71730,1,10
136,127,71880,2,0,B|135:167|159:207,1,85
200,320,72180,5,0
320,320,72330,1,8
256,216,72480,1,0
256,216,72555,1,0
256,216,72630,1,2
256,216,72705,1,0
256,216,72780,1,2
256,120,72930,2,0,B|256:24,1,85,8|0
344,72,73230,6,0,B|448:72,1,85
488,144,73530,1,8
488,240,73680,1,0
429,312,73830,2,0,B|344:312,1,85
256,272,74130,1,10
168,192,74280,1,0
256,112,74430,1,0
344,192,74580,6,0,B|432:192,2,85,0|8|0
344,96,75030,6,0,B|280:96|256:152,1,85
344,288,75330,2,0,B|280:288|256:232,1,85,8|0
88,152,75630,6,0,B|96:104|136:72,1,85
216,104,75930,1,10
256,192,76080,1,0
424,152,76230,6,0,B|416:104|376:72,1,85
296,104,76530,1,8
256,192,76680,1,0
344,248,76830,5,0
256,320,76980,1,0
168,248,77130,1,2
168,136,77280,1,0
168,136,77355,1,0
168,136,77430,1,2
256,64,77580,1,0
344,136,77730,1,8
344,136,77805,1,0
344,136,77880,1,0
392,288,78030,6,0,B|480:352,2,85,2|0|6
304,248,78480,1,2
120,288,78630,6,0,B|32:352,2,85,2|0|6
208,248,79080,1,2
352,152,79230,6,0,B|362:111|362:111|350:68,1,85
160,72,79530,2,0,B|148:115|148:115|158:155,1,85,8|0
256,264,79830,5,0
256,240,79905,1,0
256,216,79980,1,0
256,192,80055,1,0
256,168,80130,1,2
256,144,80205,1,0
256,120,80280,1,2
256,192,80430,12,0,81630
256,192,81855,5,4
256,192,82080,1,0
256,192,82305,1,0
56,112,82830,5,0
136,56,82981,1,2
192,136,83133,1,0
112,184,83284,2,0,B|104:256|144:304,1,127.499996200204,8|0
456,112,83739,5,0
376,56,83890,1,2
320,136,84042,1,0
400,184,84193,2,0,B|408:256|368:304,1,127.499996200204,8|0
144,280,84648,5,0
112,192,84799,1,2
144,104,84951,1,0
368,104,85102,5,0
400,192,85254,1,2
368,280,85405,1,0
184,192,85557,5,0
256,128,85708,1,2
328,192,85860,1,0
256,256,86011,2,0,B|256:96,1,127.499996200204,8|0
432,80,86466,6,0,B|496:80,1,63.749998100102,0|2
496,168,86769,1,0
432,224,86920,1,8
160,128,87223,5,0
80,80,87375,2,0,B|16:80,1,63.749998100102,0|2
16,168,87678,1,0
80,224,87829,1,8
360,320,88133,5,0
424,264,88284,2,0,B|472:216|448:120,1,127.499996200204,4|0
344,80,88739,2,0,B|296:128|320:224,1,127.499996200204,4|0
168,288,89193,2,0,B|216:240|192:144,1,127.499996200204,4|0
152,96,89648,1,10
64,120,89799,1,0
152,96,89951,1,8
360,96,90102,5,0
448,120,90253,1,2
360,96,90405,1,0
376,184,90557,2,0,B|352:248,2,63.749998100102,8|0|0
288,304,91011,5,0
200,296,91162,1,2
120,256,91314,1,0
64,184,91466,2,0,B|40:96|104:48,1,127.499996200204,8|0
286,224,91920,6,0,B|325:286|288:344,1,127.499996200204,4|0
262,150,92375,2,0,B|296:86|365:88,1,127.499996200204,4|0
213,208,92830,2,0,B|140:211|109:150,1,127.499996200204,4|0
256,32,93284,5,8
256,32,93436,1,0
256,32,93587,1,8
426,73,93739,6,0,B|468:121|448:193,1,127.499996200204,0|0
416,272,94193,5,8
336,304,94345,1,0
256,336,94496,1,0
96,112,94648,37,0
176,80,94800,1,0
256,48,94951,1,0
336,232,95102,21,8
256,192,95253,1,0
176,152,95405,1,8
256,192,95557,5,4
256,128,97110,5,0
256,128,97260,2,0,B|256:40,2,85
256,224,97710,5,0
312,296,97860,1,0
368,224,98010,2,0,B|416:144,1,85,2|0
256,224,98310,5,0
200,296,98460,1,0
144,224,98610,2,0,B|96:144,1,85,10|0
192,83,98910,6,0,B|192:168,1,85
320,168,99211,2,0,B|320:83,1,85,2|0
96,32,99511,6,0,B|48:102,1,85,2|0
415,31,99810,2,0,B|463:102,1,85,8|0
320,216,100110,6,0,B|288:256|248:264,1,85
192,168,100410,2,0,B|224:128|264:120,1,85,8|0
312,260,100710,6,0,B|250:284|200:267,1,85,2|0
199,123,101010,2,0,B|261:99|311:116,1,85,8|0
284,303,101310,6,0,B|224:304|176:280,1,85
227,80,101610,2,0,B|288:80|336:104,1,85,8|0
231,325,101910,6,0,B|166:295|126:246,1,85,2|0
280,58,102210,2,0,B|345:88|385:137,1,85,8|0
416,296,102510,6,0,B|416:344,2,42.5
312,296,102810,2,0,B|312:352,2,42.5,0|0|0
208,296,103110,2,0,B|208:352,2,42.5
104,296,103410,2,8,B|104:352,2,42.5,0|0|0
104,192,103710,5,2
104,192,103785,1,0
104,192,103860,1,0
208,192,104010,1,0
208,192,104085,1,0
208,192,104160,1,0
312,192,104310,1,0
312,192,104385,1,0
312,192,104460,1,0
416,192,104610,1,8
416,192,104685,1,0
416,192,104760,1,0
472,104,104910,5,0
392,56,105060,1,0
304,24,105210,1,0
208,24,105360,1,0
120,56,105510,1,0
40,104,105660,5,0
40,104,105735,1,0
40,104,105810,1,8
40,104,105960,1,0
80,192,106110,5,10
96,192,106185,1,0
112,192,106260,1,0
128,192,106335,1,0
144,192,106410,1,0
160,192,106485,1,0
176,192,106560,1,0
192,192,106635,1,0
208,192,106710,1,0
224,192,106785,1,0
240,192,106860,1,0
256,192,106935,1,0
272,192,107010,1,0
288,192,107085,1,0
304,192,107160,1,0
320,192,107235,1,0
320,192,107310,6,0,B|320:224,1,21.25
328,192,107385,2,0,B|328:160,1,21.25
336,192,107460,2,0,B|336:224,1,21.25
344,192,107535,2,0,B|344:160,1,21.25
352,192,107610,2,0,B|392:192,1,21.25,0|0
360,192,107685,2,0,B|400:192,1,21.25,0|0
368,192,107760,2,0,B|408:192,1,21.25,0|0
376,192,107835,2,0,B|416:192,1,21.25,0|0
408,192,107910,6,0,B|408:160,1,21.25,0|0
408,192,107985,2,0,B|408:224,1,21.25,0|0
408,192,108060,2,0,B|376:192,1,21.25,0|0
408,192,108135,2,0,B|440:192,1,21.25,0|0
416,192,108210,2,0,B|416:224,1,21.25,0|0
416,192,108285,2,0,B|416:160,1,21.25,0|0
416,192,108360,2,0,B|384:192,1,21.25,0|0
416,192,108435,2,0,B|448:192,1,21.25,0|0
440,192,108510,5,4
