osu file format v9

[General]
AudioFilename: Magome Togoshi - Gentle Jena.mp3
AudioLeadIn: 0
PreviewTime: 47365
Countdown: 0
SampleSet: Soft
StackLeniency: 0.7
Mode: 0
LetterboxInBreaks: 0

[Editor]
Bookmarks: 92,14632,47348,76430,109146,138227,170944,200013
DistanceSpacing: 0.7
BeatDivisor: 4
GridSize: 8

[Metadata]
Title:Gentle Jena
Artist:Magome Togoshi
Creator:FireballFlame
Version:Normal
Source:Planetarian ~Chiisana Hoshi no Yume~
Tags:The Reverie of a Little Planet Hoshino Yumemi Key

[Difficulty]
HPDrainRate:4
CircleSize:5
OverallDifficulty:4
ApproachRate:3
SliderMultiplier:1.8
SliderTickRate:2

[Events]
//Background and Video events
0,0,"reverie.png"
//Break Periods
//Storyboard Layer 0 (Background)
//Storyboard Layer 1 (Fail)
//Storyboard Layer 2 (Pass)
//Storyboard Layer 3 (Foreground)
//Storyboard Sound Samples
//Background Colour Transformations
3,100,0,0,0

[TimingPoints]
84,908.911880993138,4,2,1,35,1,0
109142,-100,4,2,1,35,0,0
138223,-100,4,2,1,35,0,0

[Colours]
Combo1 : 182,31,101
Combo2 : 231,231,231
Combo3 : 183,233,255
Combo4 : 252,203,121
Combo5 : 134,105,79

[HitObjects]
88,176,14626,5,4
120,120,15081,1,0
168,80,15535,1,0
224,56,15989,1,0
288,56,16444,1,2
352,72,16898,2,0,B|400:88|424:135,2,90
424,208,18262,5,8
392,264,18716,1,0
344,304,19171,1,0
288,328,19625,1,0
224,328,20080,1,2
160,312,20534,2,0,B|112:296|88:248,2,90
88,176,21897,5,4
120,120,22352,1,0
168,80,22806,1,0
224,56,23261,1,0
288,56,23715,1,2
352,72,24170,2,0,B|400:88|424:135,2,90
424,208,25533,5,8
392,264,25987,1,0
344,304,26442,1,0
288,328,26896,1,0
224,328,27351,1,2
160,312,27805,2,0,B|112:296|88:248,1,90
56,200,28714,6,2,B|56:176|88:160,3,30,0|0|0|4
112,128,29623,1,0
160,176,30078,1,0
208,128,30532,1,0
256,176,30987,1,2
304,128,31441,1,0
352,176,31895,1,0
400,224,32350,6,0,B|429:251|434:287|417:304,1,90,0|8
368,349,33259,1,0
303,336,33713,1,0
283,272,34168,1,0
330,225,34622,1,2
393,203,35077,1,0
430,148,35531,1,0
422,82,35986,6,2,B|422:58|390:42,3,30,0|0|0|4
352,96,36894,1,0
304,48,37349,1,0
256,96,37803,1,0
208,48,38258,1,2
160,96,38712,1,0
112,144,39167,5,0
112,144,39621,1,0
64,192,40076,1,8
112,240,40530,1,0
176,248,40985,1,0
224,208,41439,1,0
256,152,41893,1,2
288,208,42348,1,0
336,248,42802,1,0
400,240,43257,1,0
448,192,43711,5,4
256,192,44620,1,8
64,192,45529,1,2
176,288,47347,6,0,B|224:336|288:336|336:288,1,180,4|0
384,168,49165,1,2
368,104,49619,1,0
328,56,50074,1,0
264,40,50528,1,0
200,48,50983,1,8
272,152,51891,5,0
304,208,52346,1,0
352,248,52800,1,2
440,280,53482,2,0,B|456:288|480:288,2,22.5
208,320,54618,6,0,B|128:304|112:240|144:184,1,180,4|0
208,80,56436,1,2
264,48,56890,1,0
328,40,57345,1,0
392,56,57799,1,0
432,104,58254,1,8
256,192,58708,12,2,60072
176,64,61890,6,0,B|112:72|64:120|96:200,1,180,4|0
152,304,63707,1,2
208,336,64162,1,0
272,352,64616,1,0
336,344,65071,1,0
384,304,65525,1,8
280,232,66434,5,0
232,192,66889,1,0
200,136,67343,1,2
176,48,68025,2,0,B|168:24|176:8,2,22.5
400,72,69161,6,0,B|456:104|472:168|424:224,1,180,4|0
328,304,70979,1,2
272,336,71433,1,0
208,336,71888,1,0
152,304,72342,1,0
120,248,72796,1,8
256,192,73251,12,2,74614
256,192,76432,5,4
232,136,76887,2,0,B|208:88|168:72,1,90
112,48,77795,1,0
48,40,78250,1,2
112,48,78704,1,0
170,72,79159,2,0,B|208:88|232:136,1,90,0|0
256,192,80068,5,8
280,248,80522,2,0,B|304:296|344:312,1,90
400,336,81431,1,0
464,344,81886,1,2
400,336,82340,1,0
341,311,82794,2,0,B|304:296|280:248,1,90,0|0
256,192,83703,5,4
192,176,84158,1,0
128,176,84612,2,0,B|72:176|56:216|72:248,1,90
80,288,85521,1,2
136,320,85976,1,0
192,296,86430,1,0
232,248,86885,1,0
256,192,87339,5,8
280,136,87793,1,0
320,88,88248,2,0,B|355:44|396:57|411:89,1,90
448,112,89157,1,2
440,176,89611,1,0
384,208,90066,1,0
320,224,90520,6,2,B|304:232|288:216,3,30,0|0|0|4
240,184,91429,1,0
233,119,91884,1,0
174,92,92338,1,0
122,130,92793,1,2
128,194,93247,1,0
187,221,93701,1,0
240,184,94156,5,0
181,157,94610,1,8
239,185,95065,1,0
297,212,95519,2,0,B|339:232|375:269,4,90,0|0|2|0|0
239,185,97792,6,2,B|223:176|207:169,3,30,0|0|0|4
152,144,98700,1,0
104,192,99155,1,0
56,240,99609,1,0
8,192,100064,1,2
56,144,100518,1,0
104,192,100973,5,0
152,240,101427,1,0
216,212,101882,2,0,B|249:181|297:176,1,90,8|0
256,268,102791,2,0,B|293:240|345:252,1,90
296,324,103699,1,2
256,268,104154,1,0
216,212,104608,1,0
256,268,105063,1,0
256,344,105517,5,4
256,192,106426,1,8
256,48,107335,1,2
256,192,109153,5,4
360,112,110062,1,0
376,240,110971,2,0,B|376:296|320:320,1,90,2|0
272,336,111880,2,0,B|216:344|184:304,1,90
144,264,112789,1,8
256,192,113697,5,0
312,155,114152,1,0
256,192,114606,1,2
180,241,115288,2,0,B|151:259,2,22.5
256,192,116424,5,4
152,112,117333,1,0
256,32,118242,2,0,B|298:9|351:25,1,90,2|0
347,93,119151,2,0,B|304:65|261:102,1,90
310,144,120060,1,8
256,192,120514,12,2,121878
256,192,123696,5,4
168,280,124604,1,0
256,192,125513,1,2
304,144,125968,1,0
352,96,126422,1,0
304,144,126877,1,0
256,192,127331,1,8
136,160,128240,5,0
136,224,128695,1,0
168,280,129149,1,2
256,320,129831,2,0,B|272:320|296:312,2,22.5
384,192,130967,5,4
256,192,131876,1,0
256,64,132785,1,2
256,128,133239,1,0
256,192,133694,1,0
320,192,134148,1,0
384,192,134602,1,8
256,192,135057,12,4,138238
