osu file format v9

[General]
AudioFilename: Magome Togoshi - Gentle Jena.mp3
AudioLeadIn: 0
PreviewTime: 47365
Countdown: 0
SampleSet: Soft
StackLeniency: 0.7
Mode: 0
LetterboxInBreaks: 0

[Editor]
Bookmarks: 92,14632,38712,47348,76430,109146,138227,170944,200013
DistanceSpacing: 0.8
BeatDivisor: 8
GridSize: 8

[Metadata]
Title:Gentle Jena
Artist:Magome Togoshi
Creator:FireballFlame
Version:Hard
Source:Planetarian ~Chiisana Hoshi no Yume~
Tags:The Reverie of a Little Planet Hoshino Yumemi Key

[Difficulty]
HPDrainRate:6
CircleSize:6
OverallDifficulty:6
ApproachRate:6
SliderMultiplier:2.4
SliderTickRate:2

[Events]
//Background and Video events
0,0,"reverie.png"
//Break Periods
//Storyboard Layer 0 (Background)
//Storyboard Layer 1 (Fail)
//Storyboard Layer 2 (Pass)
//Storyboard Layer 3 (Foreground)
//Storyboard Sound Samples
//Background Colour Transformations
3,100,0,0,0

[TimingPoints]
84,908.911880993138,4,2,1,35,1,0
103467,-96.1538461538461,4,2,1,35,0,0
105284,-100,4,2,1,35,0,0
109142,-100,4,2,1,35,0,0
138223,-100,4,2,1,35,0,0

[Colours]
Combo1 : 182,31,101
Combo2 : 231,231,231
Combo3 : 183,233,255
Combo4 : 252,203,121
Combo5 : 134,105,79

[HitObjects]
160,312,14626,1,4
96,240,15081,1,0
96,144,15535,1,0
160,72,15989,1,0
256,56,16444,1,2
352,72,16898,1,0
416,144,17353,1,0
416,240,17807,1,0
352,312,18262,5,8
416,240,18716,1,0
416,144,19171,1,0
352,72,19625,1,0
256,56,20080,1,2
160,72,20534,1,0
96,144,20988,1,0
96,232,21443,1,0
160,312,21897,5,4
256,336,22352,1,0
352,312,22806,1,0
416,240,23261,1,0
416,144,23715,1,2
352,72,24170,1,0
256,56,24624,1,0
160,72,25079,1,0
96,144,25533,5,8
160,72,25987,1,0
256,56,26442,1,0
352,72,26896,1,0
416,144,27351,1,2
416,240,27805,1,0
352,312,28260,1,0
289,225,28714,5,0
267,203,28866,1,0
244,180,29017,1,0
222,158,29169,1,4
105,151,29623,5,0
234,57,30078,1,0
139,275,30532,1,0
335,81,30987,1,2
238,297,31441,1,0
366,202,31895,1,0
336,296,32350,1,0
288,232,32804,6,0,B|216:136,1,120,8|0
152,64,33713,1,0
216,136,34168,1,0
272,208,34622,1,2
360,232,35077,2,0,B|360:264|333:291|304:304|272:304,1,120
223,225,35986,5,0
248,208,36137,1,0
272,192,36288,1,0
296,176,36440,1,4
311,59,36894,5,0
399,193,37349,1,0
188,83,37803,1,0
370,292,38258,1,2
160,184,38712,1,0
247,316,39167,1,0
160,280,39621,1,0
160,104,40076,5,8
352,104,40530,1,0
352,280,40985,1,0
160,280,41439,1,0
160,104,41893,2,0,B|209:125|254:176,1,120,2|0
304,240,42802,2,0,B|349:291|398:312,1,120,0|0
488,336,43711,5,4
256,192,44620,1,8
24,48,45529,1,2
184,264,47347,5,4
312,120,48256,1,0
392,296,49165,1,2
352,208,49619,1,0
312,120,50074,1,0
248,192,50528,1,0
184,264,50983,1,8
112,88,51891,5,0
192,40,52346,1,0
288,32,52800,1,2
424,72,53482,1,0
444,84,53596,1,0
461,99,53709,1,0
344,240,54618,5,4
184,352,55527,1,0
152,160,56436,5,2
184,352,56890,1,0
344,240,57345,1,0
184,352,57799,1,0
344,240,58254,1,8
256,192,58708,12,2,60072
192,64,61890,5,4
183,255,62798,1,0
9,169,63707,1,2
96,212,64162,1,0
183,255,64616,1,0
187,159,65071,1,0
192,64,65525,1,8
384,32,66434,5,0
440,112,66889,1,0
456,208,67343,1,2
416,344,68025,1,0
401,363,68138,1,0
383,379,68252,1,0
216,280,69161,5,4
148,96,70070,1,0
342,114,70979,5,2
148,96,71433,1,0
216,280,71888,1,0
148,96,72342,1,0
342,114,72796,1,8
256,192,73251,12,2,74614
256,192,76432,5,4
160,184,76887,1,0
216,104,77341,1,0
64,176,77795,1,0
176,16,78250,1,2
64,176,78704,1,0
216,104,79159,1,0
160,184,79613,1,0
256,192,80068,5,8
296,280,80522,1,0
352,200,80977,1,0
336,368,81431,1,0
448,208,81886,1,2
336,368,82340,1,0
352,200,82794,1,0
296,280,83249,1,0
256,192,83703,5,4
176,248,84158,1,0
166,152,84612,2,0,B|96:160|83:225,1,120
96,304,85521,1,2
176,248,85976,1,0
165,342,86430,2,0,B|231:353|262:289,1,120
256,192,87339,5,8
336,136,87793,1,0
249,94,88248,2,0,B|280:30|346:41,1,120
416,80,89157,1,2
336,136,89611,1,0
428,158,90066,2,0,B|416:224|345:231,1,120
313,228,90672,5,0
283,214,90823,1,0
256,192,90975,1,4
256,336,91429,5,0
256,192,91884,1,0
145,284,92338,1,0
256,192,92793,1,2
114,166,93247,1,0
256,192,93701,1,0
184,67,94156,1,0
305,56,94610,5,8
256,192,95065,1,0
206,327,95519,1,0
256,192,95974,1,0
458,265,96428,2,0,B|346:225,1,120,2|0
54,119,97337,2,0,B|166:159,1,120
196,171,97943,5,0
226,181,98094,1,0
256,192,98246,1,4
256,48,98700,5,0
256,192,99155,1,0
366,99,99609,1,0
256,192,100064,1,2
397,217,100518,1,0
256,192,100973,1,0
328,316,101427,1,0
206,327,101882,5,8
120,240,102336,1,0
131,119,102791,1,0
231,50,103245,1,0
131,119,103699,2,0,B|101:181|120:240,1,124.800003570557,2|0
205,327,104608,2,0,B|143:298|120:240,1,124.800003570557,0|0
32,272,105517,5,4
256,192,106426,1,8
480,112,107335,1,2
256,192,109153,5,4
96,80,110062,1,0
64,272,110971,1,2
80,176,111425,1,0
96,80,111880,1,0
176,136,112334,1,0
256,192,112789,1,8
192,320,113697,5,0
288,320,114152,1,0
368,264,114606,1,2
392,120,115288,1,0
399,142,115402,1,0
401,165,115515,1,0
248,280,116424,5,4
160,104,117333,1,0
352,120,118242,5,2
248,280,118697,1,0
160,104,119151,1,0
352,120,119605,1,0
160,104,120060,1,8
256,192,120514,12,2,121878
160,176,123696,5,4
293,315,124604,1,0
382,144,125513,1,2
338,229,125968,1,0
293,315,126422,1,0
227,249,126877,1,0
160,176,127331,1,8
304,48,128240,5,0
384,96,128695,1,0
424,184,129149,1,2
352,312,129831,1,0
371,298,129944,1,0
386,279,130058,1,0
192,288,130967,5,4
208,96,131876,1,0
368,208,132785,5,2
192,288,133239,1,0
208,96,133694,1,0
368,208,134148,1,0
192,288,134602,1,8
256,192,135057,12,2,136420
256,192,136648,12,4,138238
