osu file format v9

[General]
AudioFilename: Magome Togoshi - Gentle Jena.mp3
AudioLeadIn: 0
PreviewTime: 47365
Countdown: 0
SampleSet: Soft
StackLeniency: 0.7
Mode: 0
LetterboxInBreaks: 0

[Editor]
Bookmarks: 92,14632,47348,76430,109146,138227,170944,200013
DistanceSpacing: 0.9
BeatDivisor: 4
GridSize: 8

[Metadata]
Title:Gentle Jena
Artist:Magome Togoshi
Creator:FireballFlame
Version:Easy
Source:Planetarian ~Chiisana Hoshi no Yume~
Tags:The Reverie of a Little Planet Hoshino Yumemi Key

[Difficulty]
HPDrainRate:2
CircleSize:4
OverallDifficulty:2
ApproachRate:1
SliderMultiplier:1.4
SliderTickRate:2

[Events]
//Background and Video events
0,0,"reverie.png"
//Break Periods
//Storyboard Layer 0 (Background)
//Storyboard Layer 1 (Fail)
//Storyboard Layer 2 (Pass)
//Storyboard Layer 3 (Foreground)
//Storyboard Sound Samples
//Background Colour Transformations
3,100,0,0,0

[TimingPoints]
84,908.911880993138,4,2,1,35,1,0
59843,-100,4,2,1,10,0,0
60297,-100,4,2,1,35,0,0
109142,-100,4,2,1,35,0,0
138223,-100,4,2,1,35,0,0

[Colours]
Combo1 : 182,31,101
Combo2 : 231,231,231
Combo3 : 183,233,255
Combo4 : 252,203,121
Combo5 : 134,105,79

[HitObjects]
112,176,14626,6,0,B|119:136|160:96,1,70,4|0
192,72,15535,2,0,B|224:48|280:48,1,70
272,112,16444,2,0,B|224:112|176:152|168:216,1,140,2|0
400,208,18262,6,0,B|392:247|352:288,1,70,8|0
320,312,19171,2,0,B|288:336|232:336,1,70
240,272,20080,2,0,B|288:272|336:232|344:168,1,140,2|0
112,176,21897,6,0,B|119:136|160:96,1,70,4|0
192,72,22806,2,0,B|224:48|280:48,1,70
272,112,23715,2,0,B|224:112|176:152|168:216,1,140,2|0
400,208,25533,6,0,B|392:247|352:288,1,70,8|0
320,312,26442,2,0,B|288:336|232:336,1,70
240,272,27351,2,0,B|288:272|336:232|344:168,1,140,2|0
344,128,28714,6,2,B|344:112|336:88,3,23.3333333333333,0|0|0|4
216,144,30078,1,0
240,272,30987,1,2
120,312,31895,2,0,B|96:264|104:224,1,70
104,184,32804,6,0,B|104:144|136:112,1,70,8|0
176,80,33713,2,0,B|208:56|253:63,1,70
304,64,34622,1,2
168,256,35986,6,2,B|168:272|176:296,3,23.3333333333333,0|0|0|4
296,240,37349,1,0
272,112,38258,1,2
392,72,39167,6,0,B|408:104|408:144,1,70
408,200,40076,2,0,B|408:248|392:280,4,70,8|0|0|0|2
384,320,42802,1,0
256,192,43711,5,4
256,192,44620,1,8
256,192,45529,1,2
256,64,47347,6,0,B|176:64|136:136,1,140,4|0
140,255,49165,2,0,B|160:287|192:303,1,70,2|0
248,320,50074,2,0,B|285:324|328:296,1,70,0|0
366,266,50983,1,8
256,192,51891,5,0
256,128,52346,1,0
256,64,52800,1,2
256,192,53709,1,0
137,122,54618,6,0,B|169:66|225:58|273:66,1,140,4|0
296,192,56436,2,0,B|264:232|224:232,4,70,2|0|0|0|8
48,232,60072,1,2
256,320,61890,6,0,B|336:320|376:248,1,140,4|0
372,129,63707,2,0,B|352:97|320:81,1,70,2|0
264,64,64616,2,0,B|227:60|184:88,1,70,0|0
146,118,65525,1,8
256,192,66434,5,0
256,256,66889,1,0
256,320,67343,1,2
256,192,68252,1,0
375,262,69161,6,0,B|343:318|287:326|239:318,1,140,4|0
216,192,70979,2,0,B|248:152|288:152,3,70,2|0|0|0
335,145,72796,1,8
256,192,73251,12,4,76432
67,43,78250,6,0,B|95:32|136:48,1,70,2|0
188,82,79159,2,0,B|216:96|232:136,1,70,0|0
256,192,80068,1,8
444,340,81886,6,0,B|416:351|376:336,1,70,2|0
323,301,82794,2,0,B|296:288|280:248,1,70,0|0
256,192,83703,1,4
441,38,85521,5,2
378,45,85976,1,0
325,80,86430,1,0
283,127,86885,2,0,B|258:155|256:192,1,70,0|8
71,346,89157,5,2
134,339,89611,1,0
187,304,90066,1,0
232,256,90520,6,2,B|240:248|248:216,3,23.3333333333333,0|0|0|4
256,104,91884,1,0
272,232,92793,1,2
424,68,94156,5,0
448,128,94610,1,8
459,192,95065,1,0
448,256,95519,2,0,B|442:294|412:330,2,70,0|0|2
280,256,97792,6,2,B|272:248|264:216,3,23.3333333333333,0|0|0|4
256,104,99155,1,0
240,232,100064,1,2
117,344,100973,6,0,B|90:321|75:288,1,70
56,227,101882,2,0,B|48:192|56:158,1,70,8|0
75,95,102791,2,0,B|90:63|117:40,2,70,0|0|2
256,192,105517,5,4
256,192,106426,1,8
256,192,107335,1,2
256,192,109153,5,4
149,121,110062,1,0
264,64,110971,2,0,B|302:65|328:88,1,70,2|0
370,134,111880,2,0,B|388:168|382:202,1,70
362,262,112789,1,8
256,192,113697,5,0
202,227,114152,1,0
149,262,114606,1,2
256,192,115515,1,0
149,121,116424,5,4
256,192,117333,1,0
379,231,118242,2,0,B|366:268|341:290,4,70,2|0|0|0|8
379,231,121878,1,2
256,192,123696,5,4
363,263,124604,1,0
248,320,125513,2,0,B|210:319|184:296,1,70,2|0
142,250,126422,2,0,B|124:216|130:182,1,70
150,122,127331,1,8
256,192,128240,5,0
310,157,128695,1,0
363,122,129149,1,2
256,192,130058,1,0
363,263,130967,5,4
256,192,131876,1,0
132,152,132785,2,0,B|145:115|170:93,3,70,2|0|0|0
216,56,134602,1,8
256,192,135057,12,4,138238
