osu file format v9

[General]
AudioFilename: Etude pour les petites supercordes.mp3
AudioLeadIn: 2000
PreviewTime: 8946
Countdown: 0
SampleSet: Soft
StackLeniency: 0.7
Mode: 0
LetterboxInBreaks: 0

[Editor]
Bookmarks: 43858,87514,131170
DistanceSpacing: 1.2
BeatDivisor: 4
GridSize: 4

[Metadata]
Title:Etude Pour les Petites Supercordes
Artist:Magome Togoshi
Creator:wowshakhov
Version:Hard
Source:Clannad
Tags:ichinose kotomi key black_cherry_ita BCI

[Difficulty]
HPDrainRate:6
CircleSize:5
OverallDifficulty:6
ApproachRate:6
SliderMultiplier:1.4
SliderTickRate:2

[Events]
//Background and Video events
0,0,"ichinose-kotomi-wallpaper.jpg"
//Break Periods
//Storyboard Layer 0 (Background)
//Storyboard Layer 1 (Fail)
//Storyboard Layer 2 (Pass)
//Storyboard Layer 3 (Foreground)
//Storyboard Sound Samples
//Background Colour Transformations
3,100,163,162,255

[TimingPoints]
195,545.702592087312,4,2,1,19,1,0
8380,566.304860783388,4,2,1,19,1,0
8946,545.702592087312,4,2,1,19,1,0
41688,550.45871559633,4,2,1,19,1,0
42788,1043.47826086957,4,2,1,19,1,0
43831,545.950864422202,4,2,1,19,1,0
85323,566.037735849057,4,2,1,19,1,0
86455,1034.48275862069,4,2,1,19,1,0
87489,545.950864422202,4,1,1,13,1,0
87625,-100,4,2,1,19,0,0
88444,-100,4,1,1,13,0,0
88717,-100,4,2,1,19,0,0
89553,-100,4,1,1,13,0,0
89826,-100,4,2,1,19,0,0
90644,-100,4,1,1,13,0,0
90917,-100,4,2,1,19,0,0
91735,-100,4,1,1,13,0,0
92008,-100,4,2,1,19,0,0
92827,-100,4,1,1,13,0,0
93100,-100,4,2,1,19,0,0
93918,-100,4,1,1,13,0,0
94191,-100,4,2,1,19,0,0
95010,-100,4,1,1,13,0,0
95282,-100,4,2,1,19,0,0
96101,-100,4,1,1,13,0,0
96374,-100,4,2,1,19,0,0
97192,-100,4,1,1,13,0,0
97465,-100,4,2,1,19,0,0
98284,-100,4,1,1,13,0,0
98557,-100,4,2,1,19,0,0
99375,-100,4,1,1,13,0,0
99648,-100,4,2,1,19,0,0
100467,-100,4,1,1,13,0,0
100740,-100,4,2,1,19,0,0
101558,-100,4,1,1,13,0,0
101831,-100,4,2,1,19,0,0
102649,-100,4,1,1,13,0,0
102922,-100,4,2,1,19,0,0
103741,-100,4,1,1,13,0,0
104014,-100,4,2,1,19,0,0
104832,-100,4,1,1,13,0,0
105105,-100,4,2,1,19,0,0
105924,-100,4,1,1,13,0,0
106197,-100,4,2,1,19,0,0
107015,-100,4,1,1,13,0,0
107288,-100,4,2,1,19,0,0
108107,-100,4,1,1,13,0,0
108379,-100,4,2,1,19,0,0
109198,-100,4,1,1,13,0,0
109471,-100,4,2,1,19,0,0
112472,-100,4,1,1,13,0,0
112745,-100,4,2,1,19,0,0
113018,-100,4,1,1,13,0,0
113836,-100,4,2,1,19,0,0
114655,-100,4,1,1,13,0,0
114928,-100,4,2,1,19,0,0
115746,-100,4,1,1,13,0,0
116019,-100,4,2,1,19,0,0
116838,-100,4,1,1,13,0,0
117111,-100,4,2,1,19,0,0
117929,-100,4,1,1,13,0,0
118203,-100,4,2,1,19,0,0
119021,-100,4,1,1,13,0,0
119293,-100,4,2,1,19,0,0
120112,-100,4,1,1,13,0,0
120385,-100,4,2,1,19,0,0
121203,-100,4,1,1,13,0,0
121476,-100,4,2,1,19,0,0
122295,-100,4,1,1,13,0,0
122568,-100,4,2,1,19,0,0
123386,-100,4,1,1,13,0,0
123659,-100,4,2,1,19,0,0
124478,-100,4,1,1,13,0,0
124750,-100,4,2,1,19,0,0
125570,-100,4,1,1,13,0,0
125843,-100,4,2,1,19,0,0
126660,-100,4,1,1,13,0,0
126933,-100,4,2,1,19,0,0
127752,-100,4,1,1,13,0,0
128025,-100,4,2,1,19,0,0

[Colours]
Combo1 : 210,210,210
Combo2 : 255,64,64
Combo3 : 128,128,255
Combo4 : 255,192,128

[HitObjects]
256,340,195,1,2
216,268,467,1,0
256,192,740,1,0
296,116,1013,1,0
256,44,1286,5,2
256,340,1832,1,0
256,44,2377,1,2
216,268,2923,5,0
148,324,3196,1,0
60,340,3469,1,2
76,172,4014,1,0
172,36,4560,5,2
192,116,4833,1,0
256,168,5106,1,0
340,164,5379,1,0
412,120,5652,5,2
204,308,6197,1,0
172,36,6743,1,2
256,252,7289,5,0
256,168,7561,1,0
256,84,7834,1,2
256,84,8380,1,0
87,80,8946,6,0,B|20:112|0:192|20:272|86:311,1,280,2|0
160,348,10310,1,0
160,348,10583,2,0,B|160:248,1,70,0|0
224,336,11128,2,0,B|224:240,1,70,2|0
288,324,11674,2,0,B|288:252,1,70
352,308,12220,2,0,B|352:244|352:244|348:212|332:208|328:192|296:188|296:188|296:128,1,210,2|0
211,127,13311,6,0,B|139:127,1,70,2|0
199,191,13857,2,0,B|119:191,1,70
201,193,14403,2,0,B|169:261|201:329,1,140,2|0
256,264,15221,1,0
312,328,15494,2,0,B|343:260|311:192,1,140,2|0
311,192,16312,1,0
311,192,16585,2,0,B|383:192,1,70,2|0
313,194,17131,2,0,B|280:152|280:104|312:65,1,140,0|0
472,48,18222,6,0,B|496:96|472:140|472:140|472:184,1,140,2|0
408,152,19041,1,0
408,152,19314,2,0,B|408:220,1,70
472,184,19860,2,0,B|472:260,1,70,2|0
408,222,20405,2,0,B|408:292,1,70
472,254,20951,2,0,B|472:295|472:295|472:352|408:380|344:352|344:295|344:295|344:251,1,280,2|0
344,72,22588,5,0
344,72,22861,1,0
344,72,23134,2,0,B|313:41|249:41|215:72,1,140,2|0
215,154,23952,1,0
215,154,24225,2,0,B|215:294,1,140,2|0
148,244,25044,1,0
148,244,25317,2,0,B|148:316,1,70,2|0
148,159,25862,2,0,B|148:63|148:63|152:19|188:7,1,140,0|0
331,22,26954,6,0,B|331:94,1,70
408,60,27499,2,0,B|480:60,1,70,2|0
444,136,28045,2,0,B|444:204,1,70
368,168,28591,2,0,B|296:168,1,70,2|0
352,232,29136,2,0,B|268:232,1,70
228,136,29682,2,0,B|152:232|228:328,1,210,2|0
312,328,30774,5,2
388,292,31046,1,0
416,208,31319,1,0
416,124,31592,1,0
416,123,31865,2,0,B|416:69|416:69|416:21|356:21,1,140,2|0
256,24,32684,1,0
154,21,32956,2,0,B|96:21|96:69|96:69|96:123,1,140,2|0
96,208,33775,1,0
124,292,34048,1,2
200,328,34321,1,0
283,328,34594,2,0,B|315:297|315:233|283:199,1,140,0|0
195,54,35685,6,0,B|212:32|256:8|300:32|318:53,1,140,2|0
332,140,36503,1,0
332,140,36776,2,0,B|408:140,1,70
344,204,37322,2,0,B|424:204,1,70,2|0
356,268,37868,2,0,B|432:268,1,70
356,332,38413,2,0,B|255:387|156:332,1,210,2|0
155,247,39505,1,0
256,100,40051,5,0
256,100,40323,1,0
256,99,40596,2,0,B|220:148|256:196|256:196|292:244|255:293,1,210,2|0
256,192,41688,12,0,43570
112,272,43831,5,2
176,336,44103,1,0
256,356,44376,1,8
336,336,44649,1,0
400,272,44922,5,2
256,24,45468,1,8
112,272,46014,1,2
176,116,46560,5,8
256,152,46833,1,0
336,116,47106,1,8
256,264,47652,1,4
336,116,48198,5,2
256,76,48471,1,0
176,116,48744,1,8
256,152,49017,1,0
116,192,49290,5,2
396,192,49836,1,8
116,192,50382,1,2
172,348,50928,5,8
256,348,51201,1,0
340,348,51474,1,8
172,348,52020,1,4
320,260,52566,6,0,B|279:292|231:292|191:260,2,140,2|8|8
256,208,53931,1,0
204,144,54204,2,0,B|204:68,1,70
276,124,54750,2,0,B|276:48,1,70,2|0
352,28,55295,1,8
352,28,55568,1,0
352,28,55841,2,0,B|352:244,1,210,8|0
351,328,56933,6,0,B|328:356|289:353,1,70,2|0
223,353,57479,2,0,B|184:356|160:328,1,70,4|0
160,244,58025,2,0,B|160:72,1,140,2|4
256,44,58844,1,0
352,104,59117,2,4,B|352:244,1,140,2|4
336,328,59936,1,0
256,360,60209,1,8
176,328,60482,1,0
256,296,60755,2,0,B|256:136,1,140,8|0
316,56,61847,6,0,B|300:32|256:8|212:32|196:56,1,140,8|8
156,132,62666,1,0
156,132,62939,2,0,B|124:200,1,70
208,168,63485,2,0,B|176:232,1,70,2|0
260,204,64031,2,0,B|224:276,1,70,8|0
300,308,64577,2,0,B|365:357|441:337|499:285|487:200,1,280,8|0
388,64,66214,5,0
388,64,66487,1,0
388,64,66760,2,0,B|336:64|336:64|316:84|316:84|236:84,1,140,2|0
328,148,67579,1,0
327,148,67852,2,0,B|179:148,1,140,2|0
256,84,68671,1,0
256,84,68944,2,0,B|257:12,1,70,2|0
257,86,69490,2,0,B|198:86|198:86|178:66|178:66|126:66,1,140,4|0
120,232,70582,6,0,B|48:232,1,70,8|0
104,296,71128,2,0,B|176:296,1,70,8|0
252,232,71674,2,0,B|180:232,1,70
236,296,72220,2,0,B|308:296,1,70,2|0
384,232,72766,2,0,B|312:232,1,70,8|0
360,168,73312,2,0,B|132:168,1,210,8|0
112,92,74404,5,2
176,40,74677,1,0
256,20,74950,1,4
336,40,75223,1,0
400,92,75496,2,0,B|400:260,1,140,2|4
368,312,76315,1,0
284,312,76588,2,0,B|242:344|194:344|155:312,1,140,2|4
112,232,77406,1,0
196,240,77679,1,8
156,312,77952,1,0
112,232,78225,2,0,B|112:92,1,140,8|0
256,24,79317,6,0,B|256:188,1,140,8|8
320,108,80136,1,0
320,108,80409,2,0,B|320:180,1,70
384,124,80955,2,0,B|384:208,1,70,2|0
448,136,81501,2,0,B|448:216,1,70,8|0
448,290,82047,2,0,B|320:394|192:290,1,280,8|0
193,123,83685,5,0
193,207,83958,1,0
193,291,84231,2,0,B|152:323|104:323|64:291,1,140,2|0
128,236,85050,1,0
256,192,85323,12,0,87230
256,120,87489,5,0
208,192,87761,1,0
256,264,88034,1,4
304,192,88307,1,0
256,32,88580,5,0
256,352,89126,1,4
256,32,89672,1,0
288,240,90218,5,4
360,192,90491,1,0
288,152,90764,1,0
384,296,91310,1,4
215,296,91856,5,0
130,296,92129,1,0
130,211,92402,1,4
213,211,92675,1,0
256,64,92948,5,0
256,64,93494,1,4
256,64,94040,1,0
256,240,94586,5,4
256,152,94859,1,0
256,64,95132,1,0
256,240,95678,1,4
104,176,96224,6,0,B|72:215|72:263|104:304,2,140,0|4|0
184,120,97589,1,0
184,120,97862,2,0,B|184:40,1,70
184,224,98408,2,0,B|184:294,1,70
256,252,98953,1,4
256,168,99226,1,0
320,112,99499,2,0,B|395:207|320:303,1,210,0|0
236,288,100591,6,0,B|236:360,1,70
176,288,101137,2,0,B|176:360,1,70,4|0
116,284,101683,2,0,B|116:204|116:204|84:140,1,140,0|4
89,150,102502,1,0
160,32,102775,2,0,B|160:112|160:112|192:176,1,140,0|4
186,249,103594,1,0
256,296,103867,1,0
326,249,104140,1,0
325,165,104413,2,0,B|352:112|352:112|352:32,1,140,4|0
472,168,105505,6,0,B|440:207|440:255|472:296,1,140,4|0
384,264,106324,1,0
384,264,106597,2,0,B|416:336,1,70,0|0
384,192,107143,2,0,B|416:128,1,70
328,232,107689,2,0,B|248:232,1,70,4|0
204,328,108235,2,0,B|128:231|203:136,1,210,0|0
256,72,109327,1,0
424,72,109872,5,0
380,136,110145,1,0
380,136,110418,2,0,B|380:190|380:190|380:238|322:238,1,140,2|0
256,288,111237,1,0
189,238,111510,2,0,B|132:238|132:190|132:190|132:136,1,140,2|0
60,92,112329,5,0
60,176,112602,1,0
60,259,112875,1,0
60,343,113148,1,0
60,343,113694,1,0
228,348,114240,6,0,B|228:272,1,70,4|0
292,348,114786,2,0,B|292:268,1,70
356,348,115332,2,0,B|356:268,1,70,0|0
420,348,115878,2,0,B|420:268,1,70
484,348,116424,2,0,B|484:268,1,70,4|0
412,212,116970,2,0,B|292:229|246:116,1,210,0|0
232,24,118062,5,0
148,28,118335,1,0
72,60,118608,1,4
28,132,118881,1,0
24,216,119154,2,0,B|24:270|24:270|24:318|81:318,1,140,0|4
165,318,119973,1,0
248,318,120246,2,0,B|302:318|302:318|350:318|350:260,1,140,0|4
352,176,121064,1,0
392,104,121337,1,0
352,32,121610,1,0
312,104,121883,2,0,B|160:104,1,140,4|0
32,104,122975,6,0,B|0:143|0:191|32:232,1,140
116,232,123794,1,0
116,232,124067,2,0,B|192:232,1,70
136,296,124613,2,0,B|224:296,1,70
260,232,125159,2,0,B|336:232,1,70,4|0
308,296,125705,2,0,B|335:296|335:296|391:288|415:232|391:176|335:168|335:168|271:168,1,280
104,168,127343,5,0
187,168,127616,1,0
272,168,127889,2,0,B|432:168,1,140
496,168,128708,1,0
256,192,128981,12,2,131165
