osu file format v14

[General]
AudioFilename: Y Sers Cancin [2010] Mago de Oz Gaia Epilogo HD.mp3
AudioLeadIn: 0
PreviewTime: 74655
Countdown: 0
SampleSet: Normal
StackLeniency: 0.7
Mode: 1
LetterboxInBreaks: 0
WidescreenStoryboard: 0

[Editor]
Bookmarks: 6804,19694,27429,42429,57429,76179,89304,98679,111569,119304,134304,149304,168054,181179,190554,205554,220554,235554,252429,261804,274929,288054,301179,314304,323679,341725
DistanceSpacing: 0.5
BeatDivisor: 4
GridSize: 8
TimelineZoom: 2.12

[Metadata]
Title:Y Seras Cancion [2010]
TitleUnicode:Y Serás Canción [2010]
Artist:Mago de Oz
ArtistUnicode:Mägo de Oz
Creator:zigizigiefe
Version:Acordes, guitarras y luz.
Source:
Tags:Gaia: Epílogo The Big Simon José Andrëa Andrea Txus Di Fellatio Leo Jiménez Carlos Escobedo David Curtonates Morti Silver Beatriz Albert Belén Arjona Jorge Escobedo Jorge Salán Alberto Marín Rodrigo Muro Carlos Prieto Guijarro Mohamed Isabel García Pepe Herrero Jero Ramiro Rown Houland Jesús Pulido Fernando Almoneda Alberto Madrid Marathon
BeatmapID:1759608
BeatmapSetID:840676

[Difficulty]
HPDrainRate:5
CircleSize:2
OverallDifficulty:6
ApproachRate:5
SliderMultiplier:1.4
SliderTickRate:1

[Events]
//Background and Video events
0,0,"ya ispanyol bi dur zaten ortalik karisik.jpg",0,110
//Break Periods
//Storyboard Layer 0 (Background)
//Storyboard Layer 1 (Fail)
//Storyboard Layer 2 (Pass)
//Storyboard Layer 3 (Foreground)
//Storyboard Sound Samples

[TimingPoints]
262,468.75,4,1,0,20,1,0
5887,468.75,4,1,0,20,1,8
6121,-100,4,1,0,35,0,8
6355,-100,4,1,0,50,0,8
6590,-100,4,1,0,65,0,8
6804,468.75,4,1,0,90,1,0
57429,-100,4,1,0,80,0,0
74421,-100,4,1,0,50,0,0
75710,-90.9090909090909,4,1,0,50,0,0
76179,-90.9090909090909,4,1,0,90,0,1
97975,-93.0232558139535,4,1,0,90,0,1
98093,-94.1176470588235,4,1,0,90,0,1
98210,-95.2380952380952,4,1,0,90,0,1
98327,-96.3855421686747,4,1,0,90,0,1
98444,-97.5609756097561,4,1,0,90,0,1
98561,-98.7654320987654,4,1,0,90,0,1
98679,-100,4,1,0,90,0,0
149304,-100,4,1,0,80,0,0
166296,-100,4,1,0,50,0,0
167585,-90.9090909090909,4,1,0,50,0,0
168054,-90.9090909090909,4,1,0,90,0,1
189850,-92.5925925925926,4,1,0,90,0,1
189968,-93.4579439252336,4,1,0,90,0,1
190085,-94.3396226415094,4,1,0,90,0,1
190202,-95.2380952380952,4,1,0,90,0,1
190319,-96.1538461538461,4,1,0,90,0,1
190436,-97.0873786407767,4,1,0,90,0,1
190554,-98.0392156862745,4,1,0,90,0,0
190671,-99.009900990099,4,1,0,90,0,0
190788,-100,4,1,0,90,0,0
220202,-97.5609756097561,4,1,0,90,0,0
220319,-95.2380952380952,4,1,0,90,0,0
220436,-93.0232558139535,4,1,0,90,0,0
220554,-90.9090909090909,4,1,0,90,0,0
252546,-90.8235516368222,4,1,0,70,0,0
253132,-94.1176470588235,4,1,0,70,0,0
253600,-96.3855421686747,4,1,0,70,0,0
253835,-97.5609756097561,4,1,0,70,0,0
254069,-98.7654320987654,4,1,0,70,0,0
254304,-100,4,1,0,70,0,0
254538,-101.26582278481,4,1,0,70,0,0
255007,-103.896103896104,4,1,0,70,0,0
255475,-106.666666666667,4,1,0,70,0,0
255710,-108.108108108108,4,1,0,70,0,0
255944,-109.58904109589,4,1,0,70,0,0
256179,-111.111111111111,4,1,0,70,0,0
260632,-106.666666666667,4,1,0,70,0,0
261100,-103.896103896104,4,1,0,75,0,0
261335,-102.564102564103,4,1,0,80,0,0
261569,-101.26582278481,4,1,0,85,0,0
261804,-100,4,1,0,90,0,0
269421,-100,4,1,0,50,0,0
274929,-90.9090909090909,4,1,0,90,0,1
299772,-88.8888888888889,4,1,0,90,0,1
300007,-87.9120879120879,4,1,0,90,0,1
300241,-86.9565217391304,4,1,0,90,0,1
300358,-86.4864864864865,4,1,0,90,0,1
300475,-86.0215053763441,4,1,0,90,0,1
300710,-85.1063829787234,4,1,0,90,0,1
300827,-84.6560846560847,4,1,0,90,0,1
300944,-84.2105263157895,4,1,0,90,0,1
301061,-83.7696335078534,4,1,0,90,0,1
301179,-83.3333333333333,4,1,0,90,0,1
322272,-86.9565217391304,4,1,0,90,0,1
322507,-88.8888888888889,4,1,0,90,0,1
322624,-89.8876404494382,4,1,0,90,0,1
322741,-90.9090909090909,4,1,0,90,0,1
322975,-93.0232558139535,4,1,0,90,0,1
323093,-94.1176470588235,4,1,0,90,0,1
323210,-95.2380952380952,4,1,0,90,0,1
323327,-96.3855421686747,4,1,0,90,0,1
323444,-97.5609756097561,4,1,0,90,0,1
323561,-98.7654320987654,4,1,0,90,0,1
323679,-100,4,1,0,90,0,0
336804,-100,4,1,0,75,0,0
337272,-100,4,1,0,60,0,0
337741,-100,4,1,0,45,0,0
338210,-100,4,1,0,30,0,0
338679,-100,4,1,0,90,0,0

[HitObjects]
224,136,261,5,8,0:0:0:0:
224,136,730,1,0,0:0:0:0:
184,128,1198,1,8,0:0:0:0:
184,120,1433,1,8,0:0:0:0:
184,120,1667,1,8,0:0:0:0:
184,120,1902,1,0,0:0:0:0:
136,112,2370,1,0,0:0:0:0:
224,136,4011,1,8,0:0:0:0:
224,136,4480,1,8,0:0:0:0:
184,120,4948,1,8,0:0:0:0:
184,128,5183,1,0,0:0:0:0:
184,120,5417,1,0,0:0:0:0:
184,120,5652,1,8,0:0:0:0:
120,200,5887,2,0,L|160:200,6,35
248,176,6804,1,4,0:0:0:0:
240,160,7272,1,8,0:0:0:0:
248,168,7741,1,0,0:0:0:0:
248,168,7975,1,0,0:0:0:0:
248,168,8209,1,8,0:0:0:0:
240,168,8444,1,0,0:0:0:0:
240,168,8912,1,0,0:0:0:0:
240,168,9147,1,8,0:0:0:0:
240,168,9381,1,0,0:0:0:0:
248,168,9850,1,0,0:0:0:0:
248,160,10084,1,8,0:0:0:0:
248,160,10319,1,8,0:0:0:0:
136,88,10436,1,8,0:0:0:0:
248,160,10553,1,0,0:0:0:0:
240,160,11022,1,8,0:0:0:0:
248,168,11491,1,0,0:0:0:0:
248,168,11725,1,8,0:0:0:0:
248,168,11959,1,8,0:0:0:0:
240,168,12194,1,0,0:0:0:0:
240,168,12662,1,0,0:0:0:0:
240,168,12897,1,8,0:0:0:0:
240,168,13131,1,0,0:0:0:0:
168,96,13366,1,0,0:0:0:0:
168,96,13483,1,0,0:0:0:0:
248,168,13600,1,0,0:0:0:0:
248,160,13834,1,8,0:0:0:0:
248,160,14069,1,0,0:0:0:0:
136,88,14186,1,8,0:0:0:0:
248,160,14303,1,0,0:0:0:0:
240,160,14772,1,8,0:0:0:0:
248,168,15241,1,8,0:0:0:0:
248,168,15475,1,8,0:0:0:0:
248,168,15709,1,8,0:0:0:0:
240,168,15944,1,0,0:0:0:0:
240,168,16412,1,0,0:0:0:0:
240,168,16647,1,8,0:0:0:0:
240,168,16881,1,0,0:0:0:0:
248,168,17350,1,0,0:0:0:0:
248,160,17584,1,8,0:0:0:0:
248,160,17819,1,8,0:0:0:0:
136,88,17936,1,8,0:0:0:0:
248,160,18053,1,4,0:0:0:0:
192,88,18287,1,0,0:0:0:0:
240,160,18522,1,8,0:0:0:0:
192,88,18580,1,8,0:0:0:0:
192,88,18756,1,0,0:0:0:0:
248,168,18991,1,8,0:0:0:0:
192,80,19049,1,8,0:0:0:0:
248,168,19225,1,0,0:0:0:0:
176,120,19283,1,0,0:0:0:0:
176,120,19342,1,0,0:0:0:0:
176,120,19401,1,0,0:0:0:0:
248,168,19459,1,8,0:0:0:0:
240,168,19694,1,4,0:0:0:0:
240,168,20163,1,0,0:0:0:0:
240,168,20398,1,0,0:0:0:0:
240,168,20632,1,8,0:0:0:0:
224,88,20867,1,8,0:0:0:0:
248,160,21101,1,0,0:0:0:0:
248,168,21335,1,8,0:0:0:0:
136,88,21570,1,8,0:0:0:0:
248,160,21804,1,0,0:0:0:0:
240,168,22273,1,0,0:0:0:0:
240,168,22507,1,8,0:0:0:0:
192,48,22742,1,8,0:0:0:0:
192,48,22800,1,8,0:0:0:0:
248,160,22976,1,4,0:0:0:0:
248,160,23445,1,0,0:0:0:0:
136,88,23679,1,12,0:0:0:0:
240,168,24148,1,4,0:0:0:0:
240,168,24382,1,8,0:0:0:0:
224,88,24617,1,8,0:0:0:0:
248,160,24851,1,0,0:0:0:0:
248,168,25085,1,8,0:0:0:0:
136,88,25320,1,8,0:0:0:0:
248,160,25554,1,0,0:0:0:0:
240,168,26023,1,8,0:0:0:0:
240,168,26257,1,0,0:0:0:0:
192,48,26374,1,0,0:0:0:0:
192,48,26492,1,0,0:0:0:0:
248,160,26726,1,0,0:0:0:0:
248,160,26960,1,8,0:0:0:0:
128,152,27018,1,8,0:0:0:0:
272,176,27194,1,8,0:0:0:0:
136,88,27429,1,4,0:0:0:0:
168,80,27897,1,8,0:0:0:0:
168,80,28132,1,8,0:0:0:0:
168,80,28366,1,0,0:0:0:0:
168,80,28600,1,0,0:0:0:0:
192,96,28835,1,8,0:0:0:0:
192,96,29069,1,8,0:0:0:0:
200,88,29186,1,8,0:0:0:0:
192,96,29303,1,0,0:0:0:0:
184,96,29538,1,0,0:0:0:0:
192,96,29772,1,8,0:0:0:0:
184,112,30007,1,0,0:0:0:0:
168,88,30475,1,0,0:0:0:0:
168,80,30710,1,8,0:0:0:0:
168,80,30944,1,0,0:0:0:0:
168,80,31061,1,0,0:0:0:0:
168,80,31178,1,0,0:0:0:0:
184,88,31647,1,8,0:0:0:0:
184,88,31882,1,0,0:0:0:0:
184,96,32116,1,0,0:0:0:0:
184,88,32350,1,0,0:0:0:0:
184,88,32585,1,8,0:0:0:0:
192,80,32819,1,8,0:0:0:0:
192,72,32936,1,8,0:0:0:0:
192,72,33053,1,8,0:0:0:0:
224,104,33522,1,8,0:0:0:0:
216,96,33992,1,0,0:0:0:0:
216,104,34226,1,0,0:0:0:0:
216,96,34461,1,8,0:0:0:0:
216,96,34695,1,0,0:0:0:0:
216,96,34812,1,8,0:0:0:0:
216,96,34929,1,8,0:0:0:0:
168,80,35398,1,8,0:0:0:0:
168,80,35633,1,8,0:0:0:0:
168,80,35867,1,0,0:0:0:0:
168,80,36101,1,0,0:0:0:0:
192,96,36336,1,8,0:0:0:0:
192,96,36570,1,8,0:0:0:0:
200,88,36687,1,8,0:0:0:0:
192,96,36804,1,0,0:0:0:0:
184,96,37039,1,0,0:0:0:0:
192,96,37273,1,8,0:0:0:0:
184,112,37508,1,0,0:0:0:0:
168,88,37976,1,0,0:0:0:0:
168,80,38211,1,8,0:0:0:0:
168,80,38445,1,0,0:0:0:0:
168,80,38562,1,0,0:0:0:0:
168,80,38679,1,0,0:0:0:0:
240,64,38914,1,0,0:0:0:0:
184,88,39148,1,8,0:0:0:0:
184,88,39383,1,0,0:0:0:0:
192,120,39500,1,0,0:0:0:0:
184,96,39617,1,0,0:0:0:0:
184,88,39851,1,0,0:0:0:0:
184,88,40086,1,8,0:0:0:0:
192,80,40320,1,8,0:0:0:0:
192,72,40437,1,8,0:0:0:0:
192,72,40554,1,8,0:0:0:0:
184,96,40789,1,0,0:0:0:0:
224,104,41023,1,8,0:0:0:0:
216,96,41258,1,8,0:0:0:0:
216,104,41492,1,0,0:0:0:0:
216,104,41726,1,8,0:0:0:0:
216,96,41961,1,8,0:0:0:0:
216,96,42195,1,8,0:0:0:0:
216,96,42312,1,8,0:0:0:0:
216,96,42429,1,0,0:0:0:0:
200,144,42664,1,0,0:0:0:0:
168,80,42898,1,8,0:0:0:0:
168,80,43133,1,8,0:0:0:0:
152,168,43250,1,0,0:0:0:0:
168,80,43367,1,0,0:0:0:0:
168,80,43601,1,0,0:0:0:0:
192,96,43836,1,8,0:0:0:0:
192,96,44070,1,0,0:0:0:0:
200,88,44187,1,0,0:0:0:0:
192,96,44304,1,0,0:0:0:0:
184,96,44539,1,0,0:0:0:0:
192,96,44773,1,8,0:0:0:0:
184,112,45008,1,0,0:0:0:0:
224,120,45125,1,8,0:0:0:0:
224,120,45242,1,0,0:0:0:0:
168,88,45476,1,0,0:0:0:0:
168,80,45711,1,8,0:0:0:0:
168,80,45945,1,0,0:0:0:0:
168,80,46179,1,0,0:0:0:0:
168,80,46414,1,0,0:0:0:0:
160,104,46531,1,0,0:0:0:0:
184,88,46648,1,8,0:0:0:0:
184,88,46883,1,0,0:0:0:0:
184,96,47117,1,0,0:0:0:0:
144,144,47233,1,0,0:0:0:0:
184,88,47351,1,8,0:0:0:0:
200,72,47468,1,0,0:0:0:0:
184,88,47586,1,8,0:0:0:0:
192,80,47820,1,8,0:0:0:0:
192,72,48054,1,0,0:0:0:0:
224,104,48289,1,8,0:0:0:0:
208,80,48523,1,0,0:0:0:0:
240,80,48758,1,8,0:0:0:0:
176,40,48875,1,8,0:0:0:0:
232,80,48992,1,8,0:0:0:0:
216,96,49226,1,8,0:0:0:0:
216,104,49461,1,0,0:0:0:0:
216,96,49695,1,8,0:0:0:0:
216,96,49812,1,8,0:0:0:0:
216,96,49929,1,0,0:0:0:0:
200,144,50164,1,0,0:0:0:0:
200,96,50281,1,0,0:0:0:0:
168,80,50398,1,8,0:0:0:0:
168,80,50633,1,0,0:0:0:0:
168,80,50867,1,8,0:0:0:0:
152,168,50984,1,8,0:0:0:0:
168,80,51101,1,0,0:0:0:0:
192,96,51336,1,8,0:0:0:0:
192,96,51570,1,0,0:0:0:0:
200,88,51687,1,8,0:0:0:0:
192,96,51804,1,0,0:0:0:0:
184,96,52039,1,0,0:0:0:0:
192,96,52273,1,8,0:0:0:0:
184,112,52508,1,0,0:0:0:0:
224,120,52625,1,0,0:0:0:0:
224,120,52742,1,0,0:0:0:0:
168,88,52976,1,0,0:0:0:0:
168,80,53211,1,8,0:0:0:0:
168,80,53445,1,0,0:0:0:0:
208,80,53562,1,8,0:0:0:0:
168,80,53679,1,8,0:0:0:0:
168,80,53914,1,0,0:0:0:0:
184,88,54148,1,8,0:0:0:0:
184,88,54383,1,0,0:0:0:0:
160,104,54500,1,0,0:0:0:0:
184,96,54617,1,0,0:0:0:0:
184,88,54851,1,0,0:0:0:0:
184,88,55086,1,8,0:0:0:0:
192,80,55203,1,8,0:0:0:0:
144,144,55320,1,0,0:0:0:0:
192,72,55554,1,0,0:0:0:0:
208,80,55789,1,0,0:0:0:0:
224,104,56023,1,8,0:0:0:0:
240,80,56258,1,8,0:0:0:0:
176,40,56375,1,8,0:0:0:0:
232,80,56492,1,8,0:0:0:0:
216,96,56726,1,0,0:0:0:0:
216,96,56961,1,12,0:0:0:0:
216,104,57195,1,0,0:0:0:0:
216,96,57429,1,4,0:0:0:0:
176,72,57897,1,8,0:0:0:0:
176,72,58366,1,0,0:0:0:0:
328,80,58600,1,8,0:0:0:0:
328,80,58835,1,0,0:0:0:0:
328,80,59069,1,8,0:0:0:0:
328,80,59303,1,0,0:0:0:0:
176,72,59772,1,8,0:0:0:0:
176,72,60241,1,0,0:0:0:0:
328,80,60475,1,0,0:0:0:0:
328,80,60710,1,0,0:0:0:0:
328,80,60944,1,8,0:0:0:0:
328,80,61178,1,0,0:0:0:0:
176,72,61647,1,8,0:0:0:0:
176,72,62116,1,0,0:0:0:0:
328,80,62350,1,8,0:0:0:0:
328,80,62585,1,0,0:0:0:0:
328,80,62819,1,0,0:0:0:0:
328,80,63053,1,0,0:0:0:0:
176,72,63522,1,8,0:0:0:0:
224,72,63757,1,0,0:0:0:0:
224,72,63874,1,0,0:0:0:0:
176,72,63991,1,0,0:0:0:0:
224,72,64108,1,0,0:0:0:0:
328,80,64225,1,0,0:0:0:0:
328,80,64460,1,12,0:0:0:0:
328,80,64694,1,8,0:0:0:0:
192,72,64811,1,8,0:0:0:0:
328,80,64928,1,4,0:0:0:0:
176,72,65397,1,8,0:0:0:0:
176,72,65866,1,0,0:0:0:0:
328,80,66100,1,8,0:0:0:0:
328,80,66335,1,0,0:0:0:0:
328,80,66569,1,8,0:0:0:0:
328,80,66803,1,0,0:0:0:0:
176,72,67272,1,8,0:0:0:0:
176,72,67741,1,0,0:0:0:0:
328,80,67975,1,0,0:0:0:0:
328,80,68210,1,0,0:0:0:0:
328,80,68444,1,8,0:0:0:0:
328,80,68678,1,0,0:0:0:0:
176,72,69147,1,8,0:0:0:0:
176,72,69616,1,0,0:0:0:0:
328,80,69850,1,8,0:0:0:0:
328,80,70085,1,0,0:0:0:0:
328,80,70319,1,0,0:0:0:0:
328,80,70553,1,12,0:0:0:0:
176,72,71022,1,8,0:0:0:0:
224,72,71257,1,8,0:0:0:0:
176,72,71491,1,8,0:0:0:0:
328,80,71725,1,4,0:0:0:0:
328,80,71960,1,4,0:0:0:0:
328,80,72194,1,4,0:0:0:0:
328,80,72428,1,0,0:0:0:0:
192,32,72663,1,8,0:0:0:0:
192,32,72721,1,8,0:0:0:0:
328,80,72897,1,0,0:0:0:0:
192,32,73132,1,8,0:0:0:0:
192,32,73190,1,8,0:0:0:0:
192,32,73366,1,8,0:0:0:0:
192,32,73425,1,8,0:0:0:0:
328,80,73600,1,0,0:0:0:0:
192,32,73835,1,8,0:0:0:0:
192,32,73893,1,8,0:0:0:0:
328,80,74069,1,0,0:0:0:0:
176,96,74303,1,8,0:0:0:0:
208,160,74362,1,8,0:0:0:0:
72,176,75710,2,0,L|168:176,1,77.0000023498536
224,88,76179,1,4,0:0:0:0:
176,80,76648,1,8,0:0:0:0:
176,88,76882,1,0,0:0:0:0:
184,80,77351,1,0,0:0:0:0:
176,80,77585,1,8,0:0:0:0:
176,80,77820,1,0,0:0:0:0:
176,80,77937,1,8,0:0:0:0:
176,80,78054,1,0,0:0:0:0:
176,80,78523,1,8,0:0:0:0:
176,88,78757,1,0,0:0:0:0:
192,96,78874,1,0,0:0:0:0:
192,104,78992,1,0,0:0:0:0:
184,80,79226,1,0,0:0:0:0:
176,80,79460,1,8,0:0:0:0:
176,80,79695,1,8,0:0:0:0:
176,80,79812,1,8,0:0:0:0:
176,80,79929,1,0,0:0:0:0:
240,64,80398,1,8,0:0:0:0:
240,64,80632,1,0,0:0:0:0:
232,64,80867,1,0,0:0:0:0:
240,64,80984,1,0,0:0:0:0:
232,64,81101,1,0,0:0:0:0:
240,64,81218,1,0,0:0:0:0:
240,64,81335,1,8,0:0:0:0:
224,96,81804,1,4,0:0:0:0:
176,80,82273,1,8,0:0:0:0:
176,88,82507,1,0,0:0:0:0:
184,80,82976,1,0,0:0:0:0:
176,80,83210,1,8,0:0:0:0:
176,80,83445,1,0,0:0:0:0:
176,80,83562,1,8,0:0:0:0:
176,80,83679,1,0,0:0:0:0:
176,80,84148,1,8,0:0:0:0:
176,88,84382,1,8,0:0:0:0:
224,88,84499,1,8,0:0:0:0:
192,104,84617,1,0,0:0:0:0:
184,80,84851,1,0,0:0:0:0:
176,80,85085,1,8,0:0:0:0:
176,80,85320,1,0,0:0:0:0:
176,80,85437,1,8,0:0:0:0:
176,80,85554,1,8,0:0:0:0:
240,64,86023,1,8,0:0:0:0:
240,64,86257,1,0,0:0:0:0:
232,64,86492,1,0,0:0:0:0:
240,64,86609,1,0,0:0:0:0:
232,64,86726,1,0,0:0:0:0:
240,64,86960,1,8,0:0:0:0:
240,64,87195,1,8,0:0:0:0:
232,88,87429,1,0,0:0:0:0:
160,120,87898,1,8,0:0:0:0:
160,120,88132,1,0,0:0:0:0:
160,120,88367,1,8,0:0:0:0:
160,120,88484,1,8,0:0:0:0:
160,120,88601,1,8,0:0:0:0:
160,128,88835,1,8,0:0:0:0:
160,128,88952,1,8,0:0:0:0:
160,128,89070,1,8,0:0:0:0:
160,128,89187,1,8,0:0:0:0:
224,88,89304,1,4,0:0:0:0:
176,80,89773,1,8,0:0:0:0:
176,88,90007,1,0,0:0:0:0:
184,80,90476,1,0,0:0:0:0:
176,80,90710,1,8,0:0:0:0:
176,80,90945,1,0,0:0:0:0:
176,80,91062,1,8,0:0:0:0:
176,80,91179,1,0,0:0:0:0:
176,80,91648,1,8,0:0:0:0:
176,88,91882,1,0,0:0:0:0:
192,96,91999,1,0,0:0:0:0:
192,104,92117,1,0,0:0:0:0:
184,80,92351,1,0,0:0:0:0:
176,80,92585,1,8,0:0:0:0:
176,80,92820,1,8,0:0:0:0:
176,80,92937,1,8,0:0:0:0:
176,80,93054,1,0,0:0:0:0:
240,64,93523,1,8,0:0:0:0:
240,64,93757,1,0,0:0:0:0:
232,64,93992,1,0,0:0:0:0:
240,64,94109,1,0,0:0:0:0:
232,64,94226,1,0,0:0:0:0:
240,64,94343,1,0,0:0:0:0:
240,64,94460,1,8,0:0:0:0:
224,96,94929,1,4,0:0:0:0:
176,80,95398,1,8,0:0:0:0:
176,88,95632,1,0,0:0:0:0:
184,80,96101,1,0,0:0:0:0:
176,80,96335,1,8,0:0:0:0:
176,80,96570,1,0,0:0:0:0:
176,80,96687,1,8,0:0:0:0:
176,80,96804,1,0,0:0:0:0:
176,80,97273,1,8,0:0:0:0:
176,88,97507,1,8,0:0:0:0:
224,88,97624,1,8,0:0:0:0:
192,104,97742,1,0,0:0:0:0:
176,80,97976,1,8,0:0:0:0:
176,80,98093,1,8,0:0:0:0:
208,80,98210,1,8,0:0:0:0:
208,80,98327,1,8,0:0:0:0:
208,80,98445,1,8,0:0:0:0:
208,80,98562,1,8,0:0:0:0:
248,176,98679,1,4,0:0:0:0:
240,160,99147,1,8,0:0:0:0:
248,168,99616,1,0,0:0:0:0:
248,168,99850,1,0,0:0:0:0:
248,168,100084,1,8,0:0:0:0:
240,168,100319,1,0,0:0:0:0:
240,168,100787,1,0,0:0:0:0:
240,168,101022,1,8,0:0:0:0:
240,168,101256,1,0,0:0:0:0:
248,168,101725,1,0,0:0:0:0:
248,160,101959,1,8,0:0:0:0:
248,160,102194,1,8,0:0:0:0:
136,88,102311,1,8,0:0:0:0:
248,160,102428,1,0,0:0:0:0:
240,160,102897,1,8,0:0:0:0:
248,168,103366,1,8,0:0:0:0:
248,168,103600,1,0,0:0:0:0:
248,168,103834,1,8,0:0:0:0:
240,168,104069,1,0,0:0:0:0:
240,168,104537,1,0,0:0:0:0:
240,168,104772,1,8,0:0:0:0:
240,168,105006,1,0,0:0:0:0:
168,96,105241,1,0,0:0:0:0:
248,168,105475,1,0,0:0:0:0:
168,96,105592,1,0,0:0:0:0:
248,160,105709,1,8,0:0:0:0:
248,160,105944,1,0,0:0:0:0:
136,88,106061,1,8,0:0:0:0:
248,160,106178,1,0,0:0:0:0:
240,160,106647,1,8,0:0:0:0:
248,168,107116,1,8,0:0:0:0:
248,168,107350,1,8,0:0:0:0:
248,168,107584,1,8,0:0:0:0:
240,168,107819,1,0,0:0:0:0:
240,168,108287,1,0,0:0:0:0:
240,168,108522,1,8,0:0:0:0:
240,168,108756,1,0,0:0:0:0:
248,168,109225,1,0,0:0:0:0:
248,160,109459,1,8,0:0:0:0:
248,160,109694,1,0,0:0:0:0:
248,160,109928,1,8,0:0:0:0:
136,88,109987,1,8,0:0:0:0:
248,168,110162,1,0,0:0:0:0:
176,120,110221,1,0,0:0:0:0:
176,120,110280,1,0,0:0:0:0:
176,120,110338,1,0,0:0:0:0:
248,168,110397,1,8,0:0:0:0:
248,168,110631,1,8,0:0:0:0:
176,120,110690,1,8,0:0:0:0:
176,120,110748,1,8,0:0:0:0:
176,120,110807,1,8,0:0:0:0:
248,168,110866,1,0,0:0:0:0:
248,168,111100,1,0,0:0:0:0:
248,168,111334,1,8,0:0:0:0:
240,168,111569,1,4,0:0:0:0:
192,96,112038,1,0,0:0:0:0:
200,96,112156,1,0,0:0:0:0:
192,104,112273,1,0,0:0:0:0:
192,96,112390,1,8,0:0:0:0:
200,96,112507,1,0,0:0:0:0:
200,96,112624,1,0,0:0:0:0:
200,96,112742,1,8,0:0:0:0:
200,104,112976,1,0,0:0:0:0:
200,104,113093,1,8,0:0:0:0:
192,104,113327,1,8,0:0:0:0:
192,96,113445,1,0,0:0:0:0:
192,104,113562,1,8,0:0:0:0:
216,24,113796,1,0,0:0:0:0:
216,24,113913,1,0,0:0:0:0:
216,24,114148,1,8,0:0:0:0:
216,24,114265,1,0,0:0:0:0:
160,128,114382,1,0,0:0:0:0:
168,136,114499,1,0,0:0:0:0:
168,136,114617,1,8,0:0:0:0:
168,136,114675,1,8,0:0:0:0:
176,136,114851,1,4,0:0:0:0:
192,96,115320,1,0,0:0:0:0:
192,104,115437,1,8,0:0:0:0:
216,24,115671,1,0,0:0:0:0:
216,24,115788,1,8,0:0:0:0:
216,24,116023,1,8,0:0:0:0:
216,24,116140,1,0,0:0:0:0:
160,128,116257,1,0,0:0:0:0:
168,136,116374,1,0,0:0:0:0:
168,136,116492,1,8,0:0:0:0:
200,104,116726,1,0,0:0:0:0:
200,104,116843,1,8,0:0:0:0:
192,96,117195,1,0,0:0:0:0:
216,24,117663,1,8,0:0:0:0:
288,32,117898,1,8,0:0:0:0:
160,128,118132,1,0,0:0:0:0:
168,136,118367,1,0,0:0:0:0:
184,72,118425,1,0,0:0:0:0:
176,136,118601,1,0,0:0:0:0:
168,136,118835,1,8,0:0:0:0:
184,72,118894,1,8,0:0:0:0:
192,152,119304,1,4,0:0:0:0:
192,96,119538,1,0,0:0:0:0:
192,96,119656,1,0,0:0:0:0:
192,104,119773,1,8,0:0:0:0:
200,96,119890,1,0,0:0:0:0:
200,96,120007,1,0,0:0:0:0:
200,96,120124,1,8,0:0:0:0:
200,96,120242,1,8,0:0:0:0:
216,104,120359,1,0,0:0:0:0:
200,104,120476,1,8,0:0:0:0:
200,104,120593,1,8,0:0:0:0:
176,136,120710,1,0,0:0:0:0:
192,104,120827,1,8,0:0:0:0:
192,96,120945,1,0,0:0:0:0:
192,104,121062,1,8,0:0:0:0:
216,88,121179,1,0,0:0:0:0:
216,24,121296,1,0,0:0:0:0:
216,24,121413,1,8,0:0:0:0:
208,88,121531,1,0,0:0:0:0:
192,104,121648,1,8,0:0:0:0:
200,96,121765,1,8,0:0:0:0:
200,96,121882,1,0,0:0:0:0:
200,96,121999,1,8,0:0:0:0:
200,96,122117,1,0,0:0:0:0:
216,104,122234,1,0,0:0:0:0:
200,104,122351,1,8,0:0:0:0:
200,104,122468,1,8,0:0:0:0:
176,136,122585,1,0,0:0:0:0:
192,104,122702,1,8,0:0:0:0:
192,96,122820,1,8,0:0:0:0:
192,104,122937,1,8,0:0:0:0:
112,120,123054,1,0,0:0:0:0:
160,112,123171,1,0,0:0:0:0:
192,96,123288,1,8,0:0:0:0:
192,96,123406,1,8,0:0:0:0:
192,104,123523,1,8,0:0:0:0:
200,96,123640,1,0,0:0:0:0:
200,96,123757,1,8,0:0:0:0:
200,96,123874,1,8,0:0:0:0:
200,96,123992,1,0,0:0:0:0:
200,104,124226,1,8,0:0:0:0:
192,104,124460,1,0,0:0:0:0:
192,96,124577,1,0,0:0:0:0:
192,104,124695,1,8,0:0:0:0:
224,88,125163,1,0,0:0:0:0:
216,96,125398,1,8,0:0:0:0:
200,104,125632,1,0,0:0:0:0:
200,104,125749,1,8,0:0:0:0:
192,96,125984,1,8,0:0:0:0:
192,96,126101,1,0,0:0:0:0:
192,96,126218,1,0,0:0:0:0:
192,96,126335,1,8,0:0:0:0:
192,104,126570,1,0,0:0:0:0:
184,104,126687,1,8,0:0:0:0:
184,104,126804,1,8,0:0:0:0:
192,96,127038,1,0,0:0:0:0:
192,96,127156,1,0,0:0:0:0:
192,104,127273,1,8,0:0:0:0:
200,96,127390,1,0,0:0:0:0:
200,96,127507,1,0,0:0:0:0:
200,96,127624,1,8,0:0:0:0:
200,96,127742,1,8,0:0:0:0:
216,104,127859,1,0,0:0:0:0:
200,104,127976,1,8,0:0:0:0:
200,104,128093,1,8,0:0:0:0:
176,136,128210,1,0,0:0:0:0:
192,104,128327,1,8,0:0:0:0:
192,96,128445,1,0,0:0:0:0:
192,104,128562,1,8,0:0:0:0:
216,88,128679,1,0,0:0:0:0:
216,24,128796,1,0,0:0:0:0:
216,24,128913,1,8,0:0:0:0:
208,88,129031,1,0,0:0:0:0:
192,104,129148,1,8,0:0:0:0:
200,96,129265,1,8,0:0:0:0:
200,96,129382,1,0,0:0:0:0:
200,96,129499,1,8,0:0:0:0:
200,96,129617,1,0,0:0:0:0:
216,104,129734,1,0,0:0:0:0:
200,104,129851,1,8,0:0:0:0:
200,104,129968,1,8,0:0:0:0:
176,136,130085,1,0,0:0:0:0:
192,104,130202,1,8,0:0:0:0:
160,112,130320,1,0,0:0:0:0:
112,120,130437,1,0,0:0:0:0:
192,104,130554,1,8,0:0:0:0:
192,96,130671,1,8,0:0:0:0:
192,96,130788,1,0,0:0:0:0:
192,96,130906,1,0,0:0:0:0:
192,104,131023,1,8,0:0:0:0:
200,96,131140,1,0,0:0:0:0:
200,96,131257,1,8,0:0:0:0:
200,96,131374,1,8,0:0:0:0:
200,96,131492,1,0,0:0:0:0:
200,104,131726,1,8,0:0:0:0:
192,104,131960,1,0,0:0:0:0:
192,96,132077,1,0,0:0:0:0:
192,104,132195,1,8,0:0:0:0:
224,88,132663,1,0,0:0:0:0:
216,96,132898,1,8,0:0:0:0:
200,104,133132,1,0,0:0:0:0:
200,104,133249,1,8,0:0:0:0:
192,96,133367,1,0,0:0:0:0:
192,96,133601,1,8,0:0:0:0:
192,96,133718,1,8,0:0:0:0:
192,96,133835,1,8,0:0:0:0:
184,104,133952,1,8,0:0:0:0:
192,104,134070,1,8,0:0:0:0:
184,104,134187,1,8,0:0:0:0:
232,160,134304,1,0,0:0:0:0:
232,160,134421,1,0,0:0:0:0:
232,160,134538,1,0,0:0:0:0:
232,160,134773,1,8,0:0:0:0:
168,144,135007,1,0,0:0:0:0:
120,96,135124,1,0,0:0:0:0:
232,160,135242,1,0,0:0:0:0:
232,160,135359,1,0,0:0:0:0:
232,160,135476,1,0,0:0:0:0:
232,160,135710,1,8,0:0:0:0:
200,136,135827,1,8,0:0:0:0:
168,144,135945,1,0,0:0:0:0:
232,160,136179,1,0,0:0:0:0:
232,160,136296,1,0,0:0:0:0:
232,160,136413,1,0,0:0:0:0:
232,160,136648,1,8,0:0:0:0:
168,144,136882,1,0,0:0:0:0:
232,160,136999,1,8,0:0:0:0:
120,96,137117,1,0,0:0:0:0:
232,160,137234,1,0,0:0:0:0:
232,160,137351,1,0,0:0:0:0:
232,160,137585,1,8,0:0:0:0:
216,64,137702,1,8,0:0:0:0:
168,144,137820,1,0,0:0:0:0:
232,160,138054,1,8,0:0:0:0:
232,160,138171,1,0,0:0:0:0:
232,160,138288,1,0,0:0:0:0:
232,160,138523,1,8,0:0:0:0:
168,144,138757,1,0,0:0:0:0:
120,96,138874,1,0,0:0:0:0:
232,160,138992,1,8,0:0:0:0:
232,160,139109,1,0,0:0:0:0:
232,160,139226,1,0,0:0:0:0:
232,160,139460,1,8,0:0:0:0:
216,72,139577,1,8,0:0:0:0:
168,144,139695,1,0,0:0:0:0:
232,160,139929,1,0,0:0:0:0:
232,160,140046,1,8,0:0:0:0:
232,160,140163,1,0,0:0:0:0:
232,160,140398,1,8,0:0:0:0:
168,144,140632,1,0,0:0:0:0:
120,96,140749,1,0,0:0:0:0:
232,160,140867,1,0,0:0:0:0:
232,160,140984,1,8,0:0:0:0:
232,160,141101,1,0,0:0:0:0:
232,160,141335,1,8,0:0:0:0:
216,72,141452,1,8,0:0:0:0:
168,144,141570,1,0,0:0:0:0:
232,160,141804,1,0,0:0:0:0:
232,160,141921,1,0,0:0:0:0:
232,160,142038,1,0,0:0:0:0:
232,160,142273,1,8,0:0:0:0:
168,144,142507,1,0,0:0:0:0:
120,96,142624,1,0,0:0:0:0:
232,160,142742,1,0,0:0:0:0:
232,160,142859,1,0,0:0:0:0:
232,160,142976,1,0,0:0:0:0:
232,160,143210,1,8,0:0:0:0:
200,136,143327,1,8,0:0:0:0:
168,144,143445,1,0,0:0:0:0:
232,160,143679,1,0,0:0:0:0:
232,160,143796,1,0,0:0:0:0:
232,160,143913,1,0,0:0:0:0:
232,160,144148,1,8,0:0:0:0:
168,144,144382,1,0,0:0:0:0:
232,160,144499,1,8,0:0:0:0:
120,96,144617,1,0,0:0:0:0:
232,160,144734,1,0,0:0:0:0:
232,160,144851,1,0,0:0:0:0:
232,160,145085,1,8,0:0:0:0:
216,64,145202,1,8,0:0:0:0:
168,144,145320,1,0,0:0:0:0:
232,160,145554,1,8,0:0:0:0:
232,160,145671,1,0,0:0:0:0:
232,160,145788,1,0,0:0:0:0:
232,160,146023,1,8,0:0:0:0:
168,144,146257,1,0,0:0:0:0:
120,96,146374,1,0,0:0:0:0:
232,160,146492,1,8,0:0:0:0:
232,160,146609,1,0,0:0:0:0:
232,160,146726,1,0,0:0:0:0:
232,160,146960,1,8,0:0:0:0:
216,72,147077,1,8,0:0:0:0:
168,144,147195,1,0,0:0:0:0:
232,160,147429,1,0,0:0:0:0:
232,160,147546,1,8,0:0:0:0:
232,160,147663,1,0,0:0:0:0:
232,160,147898,1,8,0:0:0:0:
168,144,148132,1,8,0:0:0:0:
120,96,148249,1,8,0:0:0:0:
232,160,148367,1,8,0:0:0:0:
232,160,148484,1,8,0:0:0:0:
232,160,148601,1,0,0:0:0:0:
216,96,148835,1,12,0:0:0:0:
216,104,149070,1,0,0:0:0:0:
216,96,149304,1,4,0:0:0:0:
176,72,149773,1,8,0:0:0:0:
176,72,150242,1,0,0:0:0:0:
328,80,150476,1,8,0:0:0:0:
328,80,150710,1,0,0:0:0:0:
328,80,150945,1,8,0:0:0:0:
328,80,151179,1,0,0:0:0:0:
176,72,151648,1,8,0:0:0:0:
176,72,152117,1,0,0:0:0:0:
328,80,152351,1,0,0:0:0:0:
328,80,152585,1,0,0:0:0:0:
328,80,152820,1,8,0:0:0:0:
328,80,153054,1,0,0:0:0:0:
176,72,153523,1,8,0:0:0:0:
176,72,153992,1,0,0:0:0:0:
328,80,154226,1,8,0:0:0:0:
328,80,154460,1,0,0:0:0:0:
328,80,154695,1,0,0:0:0:0:
328,80,154929,1,0,0:0:0:0:
176,72,155398,1,8,0:0:0:0:
224,72,155632,1,0,0:0:0:0:
224,72,155749,1,0,0:0:0:0:
176,72,155867,1,0,0:0:0:0:
224,72,155984,1,0,0:0:0:0:
328,80,156101,1,0,0:0:0:0:
328,80,156335,1,12,0:0:0:0:
328,80,156570,1,8,0:0:0:0:
192,72,156687,1,8,0:0:0:0:
328,80,156804,1,4,0:0:0:0:
176,72,157273,1,8,0:0:0:0:
176,72,157742,1,0,0:0:0:0:
328,80,157976,1,8,0:0:0:0:
328,80,158210,1,0,0:0:0:0:
328,80,158445,1,8,0:0:0:0:
328,80,158679,1,0,0:0:0:0:
176,72,159148,1,8,0:0:0:0:
176,72,159617,1,0,0:0:0:0:
328,80,159851,1,0,0:0:0:0:
328,80,160085,1,0,0:0:0:0:
328,80,160320,1,8,0:0:0:0:
328,80,160554,1,0,0:0:0:0:
176,72,161023,1,8,0:0:0:0:
176,72,161492,1,0,0:0:0:0:
328,80,161726,1,8,0:0:0:0:
328,80,161960,1,0,0:0:0:0:
328,80,162195,1,0,0:0:0:0:
328,80,162429,1,12,0:0:0:0:
176,72,162898,1,8,0:0:0:0:
224,72,163132,1,8,0:0:0:0:
176,72,163367,1,8,0:0:0:0:
328,80,163601,1,4,0:0:0:0:
328,80,163835,1,4,0:0:0:0:
328,80,164070,1,4,0:0:0:0:
328,80,164304,1,0,0:0:0:0:
192,32,164538,1,8,0:0:0:0:
192,32,164596,1,8,0:0:0:0:
328,80,164772,1,0,0:0:0:0:
192,32,165007,1,8,0:0:0:0:
192,32,165065,1,8,0:0:0:0:
192,32,165241,1,8,0:0:0:0:
192,32,165300,1,8,0:0:0:0:
328,80,165475,1,0,0:0:0:0:
192,32,165710,1,8,0:0:0:0:
192,32,165768,1,8,0:0:0:0:
328,80,165944,1,0,0:0:0:0:
176,96,166178,1,8,0:0:0:0:
224,88,166237,1,8,0:0:0:0:
72,176,167585,2,0,L|168:176,1,77.0000023498536
224,88,168053,1,4,0:0:0:0:
176,80,168522,1,8,0:0:0:0:
176,88,168757,1,0,0:0:0:0:
184,80,169225,1,0,0:0:0:0:
176,80,169460,1,8,0:0:0:0:
176,80,169694,1,0,0:0:0:0:
176,80,169811,1,8,0:0:0:0:
176,80,169928,1,0,0:0:0:0:
176,80,170397,1,8,0:0:0:0:
176,88,170632,1,0,0:0:0:0:
192,96,170749,1,0,0:0:0:0:
192,104,170866,1,0,0:0:0:0:
184,80,171100,1,0,0:0:0:0:
176,80,171335,1,8,0:0:0:0:
192,120,171452,1,0,0:0:0:0:
176,80,171569,1,8,0:0:0:0:
176,80,171686,1,8,0:0:0:0:
176,80,171803,1,0,0:0:0:0:
240,64,172272,1,8,0:0:0:0:
240,64,172507,1,0,0:0:0:0:
232,64,172741,1,0,0:0:0:0:
240,64,172858,1,0,0:0:0:0:
232,64,172975,1,0,0:0:0:0:
240,64,173092,1,0,0:0:0:0:
240,64,173210,1,8,0:0:0:0:
224,96,173678,1,4,0:0:0:0:
176,80,174147,1,8,0:0:0:0:
176,88,174382,1,0,0:0:0:0:
184,80,174850,1,0,0:0:0:0:
176,80,175085,1,8,0:0:0:0:
176,80,175319,1,0,0:0:0:0:
176,80,175436,1,8,0:0:0:0:
176,80,175553,1,0,0:0:0:0:
176,80,176022,1,8,0:0:0:0:
176,88,176257,1,8,0:0:0:0:
224,88,176374,1,8,0:0:0:0:
192,104,176491,1,0,0:0:0:0:
184,80,176725,1,0,0:0:0:0:
176,80,176960,1,8,0:0:0:0:
176,80,177194,1,0,0:0:0:0:
176,80,177311,1,8,0:0:0:0:
176,80,177428,1,8,0:0:0:0:
240,64,177897,1,8,0:0:0:0:
240,64,178132,1,0,0:0:0:0:
232,64,178366,1,0,0:0:0:0:
240,64,178483,1,0,0:0:0:0:
232,64,178600,1,0,0:0:0:0:
240,64,178835,1,8,0:0:0:0:
240,64,179069,1,8,0:0:0:0:
232,88,179303,1,0,0:0:0:0:
160,120,179772,1,8,0:0:0:0:
160,120,180007,1,0,0:0:0:0:
160,120,180241,1,8,0:0:0:0:
160,120,180358,1,8,0:0:0:0:
160,120,180475,1,8,0:0:0:0:
160,128,180710,1,8,0:0:0:0:
160,128,180827,1,8,0:0:0:0:
160,128,180944,1,8,0:0:0:0:
160,128,181061,1,8,0:0:0:0:
224,88,181178,1,4,0:0:0:0:
176,80,181647,1,8,0:0:0:0:
176,88,181882,1,0,0:0:0:0:
184,80,182350,1,0,0:0:0:0:
176,80,182585,1,8,0:0:0:0:
176,80,182819,1,0,0:0:0:0:
176,80,182936,1,8,0:0:0:0:
176,80,183053,1,0,0:0:0:0:
176,80,183522,1,8,0:0:0:0:
176,88,183757,1,0,0:0:0:0:
192,96,183874,1,0,0:0:0:0:
192,104,183991,1,0,0:0:0:0:
184,80,184225,1,0,0:0:0:0:
184,96,184342,1,0,0:0:0:0:
176,80,184460,1,8,0:0:0:0:
176,80,184694,1,8,0:0:0:0:
176,80,184811,1,8,0:0:0:0:
176,80,184928,1,0,0:0:0:0:
240,64,185397,1,8,0:0:0:0:
240,64,185632,1,0,0:0:0:0:
232,64,185866,1,0,0:0:0:0:
240,64,185983,1,0,0:0:0:0:
232,64,186100,1,0,0:0:0:0:
240,64,186217,1,0,0:0:0:0:
240,64,186335,1,8,0:0:0:0:
224,96,186803,1,4,0:0:0:0:
176,80,187272,1,8,0:0:0:0:
176,88,187507,1,0,0:0:0:0:
184,80,187975,1,0,0:0:0:0:
176,80,188210,1,8,0:0:0:0:
176,80,188444,1,0,0:0:0:0:
176,80,188561,1,8,0:0:0:0:
176,80,188678,1,0,0:0:0:0:
176,80,189147,1,8,0:0:0:0:
176,88,189382,1,8,0:0:0:0:
224,88,189499,1,8,0:0:0:0:
192,104,189616,1,0,0:0:0:0:
176,80,189850,1,8,0:0:0:0:
176,80,189967,1,0,0:0:0:0:
208,80,190085,1,8,0:0:0:0:
208,80,190202,1,8,0:0:0:0:
208,80,190319,1,0,0:0:0:0:
208,80,190436,1,8,0:0:0:0:
232,160,190553,1,0,0:0:0:0:
232,160,190671,1,0,0:0:0:0:
232,160,190788,1,0,0:0:0:0:
232,160,191022,1,8,0:0:0:0:
168,144,191257,1,0,0:0:0:0:
120,96,191374,1,0,0:0:0:0:
232,160,191491,1,0,0:0:0:0:
232,160,191608,1,0,0:0:0:0:
232,160,191725,1,0,0:0:0:0:
232,160,191960,1,8,0:0:0:0:
200,136,192077,1,8,0:0:0:0:
168,144,192194,1,0,0:0:0:0:
232,160,192428,1,0,0:0:0:0:
232,160,192546,1,0,0:0:0:0:
232,160,192663,1,0,0:0:0:0:
232,160,192897,1,8,0:0:0:0:
168,144,193132,1,0,0:0:0:0:
232,160,193249,1,8,0:0:0:0:
120,96,193366,1,0,0:0:0:0:
232,160,193483,1,0,0:0:0:0:
232,160,193600,1,0,0:0:0:0:
232,160,193835,1,8,0:0:0:0:
216,64,193952,1,8,0:0:0:0:
168,144,194069,1,0,0:0:0:0:
232,160,194303,1,8,0:0:0:0:
232,160,194421,1,0,0:0:0:0:
232,160,194538,1,0,0:0:0:0:
232,160,194772,1,8,0:0:0:0:
168,144,195007,1,0,0:0:0:0:
120,96,195124,1,0,0:0:0:0:
232,160,195241,1,8,0:0:0:0:
232,160,195358,1,0,0:0:0:0:
232,160,195475,1,0,0:0:0:0:
232,160,195710,1,8,0:0:0:0:
216,72,195827,1,8,0:0:0:0:
168,144,195944,1,0,0:0:0:0:
232,160,196178,1,0,0:0:0:0:
232,160,196296,1,8,0:0:0:0:
232,160,196413,1,0,0:0:0:0:
232,160,196647,1,8,0:0:0:0:
168,144,196882,1,0,0:0:0:0:
120,96,196999,1,0,0:0:0:0:
232,160,197116,1,0,0:0:0:0:
232,160,197233,1,8,0:0:0:0:
232,160,197350,1,0,0:0:0:0:
112,128,197409,1,0,0:0:0:0:
216,72,197467,1,0,0:0:0:0:
232,160,197585,1,8,0:0:0:0:
168,144,197819,1,0,0:0:0:0:
232,160,198053,1,0,0:0:0:0:
232,160,198171,1,0,0:0:0:0:
232,160,198288,1,0,0:0:0:0:
232,160,198522,1,8,0:0:0:0:
168,144,198757,1,0,0:0:0:0:
120,96,198874,1,0,0:0:0:0:
232,160,198991,1,0,0:0:0:0:
232,160,199108,1,0,0:0:0:0:
232,160,199225,1,0,0:0:0:0:
232,160,199460,1,8,0:0:0:0:
200,136,199577,1,8,0:0:0:0:
168,144,199694,1,0,0:0:0:0:
232,160,199928,1,0,0:0:0:0:
232,160,200046,1,0,0:0:0:0:
232,160,200163,1,0,0:0:0:0:
232,160,200397,1,8,0:0:0:0:
168,144,200632,1,0,0:0:0:0:
232,160,200749,1,8,0:0:0:0:
120,96,200866,1,0,0:0:0:0:
232,160,200983,1,0,0:0:0:0:
232,160,201100,1,0,0:0:0:0:
232,160,201335,1,8,0:0:0:0:
216,64,201452,1,8,0:0:0:0:
168,144,201569,1,0,0:0:0:0:
232,160,201803,1,8,0:0:0:0:
232,160,201921,1,0,0:0:0:0:
232,160,202038,1,0,0:0:0:0:
232,160,202272,1,8,0:0:0:0:
168,144,202507,1,0,0:0:0:0:
120,96,202624,1,0,0:0:0:0:
232,160,202741,1,8,0:0:0:0:
232,160,202858,1,0,0:0:0:0:
232,160,202975,1,0,0:0:0:0:
232,160,203210,1,8,0:0:0:0:
216,72,203327,1,8,0:0:0:0:
168,144,203444,1,0,0:0:0:0:
232,160,203678,1,0,0:0:0:0:
232,160,203796,1,8,0:0:0:0:
232,160,203913,1,0,0:0:0:0:
232,160,204147,1,8,0:0:0:0:
168,144,204382,1,0,0:0:0:0:
120,96,204499,1,0,0:0:0:0:
232,160,204616,1,0,0:0:0:0:
232,160,204733,1,0,0:0:0:0:
232,160,204850,1,8,0:0:0:0:
128,104,204967,1,8,0:0:0:0:
216,96,205085,1,8,0:0:0:0:
128,96,205202,1,8,0:0:0:0:
216,104,205319,1,8,0:0:0:0:
128,88,205436,1,8,0:0:0:0:
232,160,205554,1,0,0:0:0:0:
232,160,205672,1,0,0:0:0:0:
232,160,205789,1,0,0:0:0:0:
232,160,206023,1,8,0:0:0:0:
168,144,206257,1,0,0:0:0:0:
120,96,206374,1,0,0:0:0:0:
232,160,206491,1,0,0:0:0:0:
232,160,206608,1,0,0:0:0:0:
232,160,206725,1,0,0:0:0:0:
232,160,206960,1,8,0:0:0:0:
200,136,207077,1,8,0:0:0:0:
168,144,207194,1,0,0:0:0:0:
232,160,207428,1,0,0:0:0:0:
232,160,207546,1,0,0:0:0:0:
232,160,207663,1,0,0:0:0:0:
232,160,207897,1,8,0:0:0:0:
168,144,208132,1,0,0:0:0:0:
232,160,208249,1,8,0:0:0:0:
120,96,208366,1,0,0:0:0:0:
232,160,208483,1,0,0:0:0:0:
232,160,208600,1,0,0:0:0:0:
232,160,208835,1,8,0:0:0:0:
216,64,208952,1,8,0:0:0:0:
168,144,209069,1,0,0:0:0:0:
232,160,209303,1,8,0:0:0:0:
232,160,209421,1,0,0:0:0:0:
232,160,209538,1,0,0:0:0:0:
232,160,209772,1,8,0:0:0:0:
168,144,210007,1,0,0:0:0:0:
120,96,210124,1,0,0:0:0:0:
232,160,210241,1,8,0:0:0:0:
232,160,210358,1,0,0:0:0:0:
232,160,210475,1,0,0:0:0:0:
232,160,210710,1,8,0:0:0:0:
216,72,210827,1,8,0:0:0:0:
168,144,210944,1,0,0:0:0:0:
232,160,211178,1,0,0:0:0:0:
232,160,211296,1,8,0:0:0:0:
232,160,211413,1,0,0:0:0:0:
232,160,211647,1,8,0:0:0:0:
168,144,211882,1,0,0:0:0:0:
120,96,211999,1,0,0:0:0:0:
232,160,212116,1,0,0:0:0:0:
232,160,212233,1,8,0:0:0:0:
232,160,212350,1,0,0:0:0:0:
232,160,212584,1,8,0:0:0:0:
112,128,212702,1,8,0:0:0:0:
168,144,212819,1,0,0:0:0:0:
232,160,213053,1,0,0:0:0:0:
232,160,213171,1,0,0:0:0:0:
232,160,213288,1,0,0:0:0:0:
232,160,213522,1,8,0:0:0:0:
168,144,213756,1,0,0:0:0:0:
120,96,213874,1,0,0:0:0:0:
232,160,213991,1,0,0:0:0:0:
232,160,214108,1,0,0:0:0:0:
232,160,214225,1,0,0:0:0:0:
232,160,214460,1,8,0:0:0:0:
200,136,214577,1,8,0:0:0:0:
168,144,214695,1,0,0:0:0:0:
232,160,214929,1,0,0:0:0:0:
232,160,215046,1,0,0:0:0:0:
232,160,215163,1,0,0:0:0:0:
232,160,215398,1,8,0:0:0:0:
168,144,215632,1,0,0:0:0:0:
232,160,215749,1,8,0:0:0:0:
120,96,215867,1,0,0:0:0:0:
232,160,215984,1,0,0:0:0:0:
232,160,216101,1,0,0:0:0:0:
232,160,216335,1,8,0:0:0:0:
216,64,216452,1,8,0:0:0:0:
168,144,216570,1,0,0:0:0:0:
232,160,216804,1,8,0:0:0:0:
232,160,216921,1,0,0:0:0:0:
232,160,217038,1,0,0:0:0:0:
232,160,217272,1,8,0:0:0:0:
168,144,217506,1,0,0:0:0:0:
120,96,217623,1,0,0:0:0:0:
232,160,217741,1,8,0:0:0:0:
232,160,217858,1,0,0:0:0:0:
232,160,217975,1,0,0:0:0:0:
232,160,218209,1,8,0:0:0:0:
216,72,218326,1,8,0:0:0:0:
168,144,218444,1,0,0:0:0:0:
232,160,218678,1,0,0:0:0:0:
232,160,218795,1,8,0:0:0:0:
232,160,218912,1,0,0:0:0:0:
232,160,219147,1,8,0:0:0:0:
168,144,219381,1,0,0:0:0:0:
120,96,219498,1,0,0:0:0:0:
232,160,219616,1,0,0:0:0:0:
232,160,219733,1,8,0:0:0:0:
232,160,219850,1,0,0:0:0:0:
216,96,220085,1,8,0:0:0:0:
128,96,220202,1,8,0:0:0:0:
216,104,220319,1,8,0:0:0:0:
128,88,220436,1,8,0:0:0:0:
144,184,220554,2,0,L|256:184,7,77.0000023498536
144,80,222429,1,8,0:0:0:0:
144,80,222546,1,0,0:0:0:0:
144,80,222663,1,8,0:0:0:0:
144,88,222781,1,8,0:0:0:0:
136,88,222898,1,0,0:0:0:0:
136,88,223015,1,8,0:0:0:0:
136,88,223132,1,0,0:0:0:0:
136,88,223249,1,0,0:0:0:0:
144,80,223367,1,8,0:0:0:0:
144,80,223484,1,8,0:0:0:0:
144,80,223601,1,0,0:0:0:0:
144,88,223718,1,8,0:0:0:0:
136,88,223835,1,0,0:0:0:0:
136,88,223952,1,0,0:0:0:0:
136,88,224070,1,8,0:0:0:0:
136,88,224187,1,8,0:0:0:0:
224,72,224304,1,0,0:0:0:0:
240,56,224772,1,8,0:0:0:0:
136,88,225006,1,0,0:0:0:0:
136,88,225123,1,0,0:0:0:0:
144,80,225241,1,8,0:0:0:0:
144,80,225358,1,0,0:0:0:0:
144,88,225475,1,8,0:0:0:0:
136,88,225592,1,0,0:0:0:0:
144,80,225709,1,8,0:0:0:0:
136,88,225826,1,8,0:0:0:0:
136,88,225944,1,0,0:0:0:0:
136,88,226061,1,8,0:0:0:0:
224,72,226178,1,0,0:0:0:0:
136,88,226295,1,8,0:0:0:0:
144,80,226412,1,8,0:0:0:0:
144,80,226530,1,0,0:0:0:0:
144,88,226647,1,8,0:0:0:0:
144,80,226764,1,8,0:0:0:0:
136,88,226881,1,0,0:0:0:0:
136,88,226998,1,8,0:0:0:0:
136,88,227116,1,0,0:0:0:0:
136,88,227233,1,0,0:0:0:0:
224,72,227350,1,0,0:0:0:0:
208,72,227585,1,8,0:0:0:0:
208,72,227819,1,0,0:0:0:0:
168,144,227897,1,0,0:0:0:0:
168,144,227975,1,0,0:0:0:0:
144,80,228054,1,8,0:0:0:0:
144,80,228171,1,0,0:0:0:0:
144,80,228288,1,0,0:0:0:0:
144,88,228406,1,8,0:0:0:0:
136,88,228523,1,0,0:0:0:0:
136,88,228640,1,0,0:0:0:0:
136,88,228757,1,8,0:0:0:0:
136,88,228874,1,8,0:0:0:0:
144,80,228992,1,0,0:0:0:0:
144,80,229109,1,8,0:0:0:0:
144,80,229226,1,0,0:0:0:0:
136,88,229343,1,0,0:0:0:0:
144,88,229460,1,8,0:0:0:0:
136,88,229577,1,0,0:0:0:0:
136,88,229695,1,8,0:0:0:0:
136,88,229812,1,8,0:0:0:0:
136,88,229929,1,0,0:0:0:0:
144,88,230046,1,8,0:0:0:0:
144,80,230163,1,0,0:0:0:0:
144,80,230281,1,0,0:0:0:0:
144,80,230398,1,8,0:0:0:0:
136,88,230515,1,0,0:0:0:0:
136,88,230632,1,8,0:0:0:0:
136,88,230749,1,8,0:0:0:0:
144,80,230866,1,0,0:0:0:0:
144,80,230945,1,8,0:0:0:0:
200,128,231022,1,8,0:0:0:0:
144,80,231100,1,0,0:0:0:0:
200,128,231179,1,0,0:0:0:0:
136,88,231257,1,0,0:0:0:0:
144,88,231335,1,8,0:0:0:0:
168,104,231413,1,0,0:0:0:0:
136,88,231491,1,0,0:0:0:0:
136,88,231569,1,8,0:0:0:0:
136,88,231647,1,8,0:0:0:0:
232,40,231725,1,0,0:0:0:0:
232,40,231804,1,8,0:0:0:0:
168,104,231882,1,8,0:0:0:0:
136,88,231960,1,0,0:0:0:0:
136,88,232038,1,8,0:0:0:0:
136,88,232117,1,8,0:0:0:0:
200,128,232195,1,0,0:0:0:0:
136,88,232273,1,8,0:0:0:0:
144,88,232350,1,8,0:0:0:0:
144,80,232429,1,0,0:0:0:0:
200,128,232507,1,8,0:0:0:0:
144,80,232585,1,8,0:0:0:0:
144,80,232663,1,0,0:0:0:0:
136,88,232741,1,8,0:0:0:0:
168,104,232819,1,0,0:0:0:0:
144,88,232897,1,0,0:0:0:0:
136,88,232975,1,8,0:0:0:0:
136,88,233054,1,0,0:0:0:0:
232,40,233132,1,0,0:0:0:0:
144,80,233210,1,8,0:0:0:0:
200,128,233288,1,0,0:0:0:0:
144,80,233366,1,0,0:0:0:0:
144,88,233444,1,8,0:0:0:0:
136,88,233522,1,0,0:0:0:0:
168,120,233600,1,0,0:0:0:0:
136,88,233679,1,8,0:0:0:0:
136,88,233757,1,8,0:0:0:0:
136,88,233835,1,0,0:0:0:0:
168,104,233913,1,8,0:0:0:0:
232,40,233991,1,8,0:0:0:0:
144,88,234069,1,0,0:0:0:0:
136,88,234147,1,8,0:0:0:0:
136,88,234225,1,8,0:0:0:0:
136,88,234304,1,0,0:0:0:0:
168,104,234382,1,8,0:0:0:0:
232,40,234460,1,8,0:0:0:0:
144,88,234538,1,8,0:0:0:0:
136,88,234616,1,0,0:0:0:0:
136,88,234694,1,0,0:0:0:0:
136,88,234772,1,0,0:0:0:0:
168,104,234850,1,8,0:0:0:0:
232,40,234929,1,8,0:0:0:0:
144,88,235007,1,0,0:0:0:0:
136,88,235085,1,8,0:0:0:0:
136,88,235163,1,8,0:0:0:0:
136,88,235241,1,0,0:0:0:0:
168,104,235319,1,8,0:0:0:0:
232,40,235397,1,8,0:0:0:0:
144,88,235475,1,8,0:0:0:0:
200,160,235554,1,0,0:0:0:0:
208,136,235788,1,0,0:0:0:0:
208,136,236023,1,8,0:0:0:0:
208,136,236257,1,0,0:0:0:0:
208,136,236374,1,0,0:0:0:0:
208,136,236492,1,0,0:0:0:0:
200,120,236726,1,0,0:0:0:0:
200,120,236960,1,8,0:0:0:0:
200,120,237195,1,0,0:0:0:0:
200,120,237312,1,8,0:0:0:0:
200,120,237429,1,0,0:0:0:0:
208,136,237663,1,0,0:0:0:0:
208,136,237897,1,8,0:0:0:0:
120,112,237975,1,0,0:0:0:0:
128,112,238054,1,0,0:0:0:0:
208,136,238132,1,8,0:0:0:0:
208,136,238210,1,8,0:0:0:0:
160,120,238288,1,8,0:0:0:0:
208,136,238366,1,0,0:0:0:0:
192,88,238483,1,8,0:0:0:0:
184,88,238600,1,8,0:0:0:0:
184,88,238717,1,0,0:0:0:0:
200,120,238834,1,8,0:0:0:0:
184,88,238951,1,0,0:0:0:0:
200,120,239069,1,8,0:0:0:0:
200,120,239186,1,8,0:0:0:0:
200,120,239303,1,0,0:0:0:0:
208,136,239537,1,0,0:0:0:0:
208,136,239772,1,8,0:0:0:0:
208,136,240006,1,0,0:0:0:0:
208,136,240123,1,0,0:0:0:0:
208,136,240241,1,0,0:0:0:0:
200,120,240475,1,0,0:0:0:0:
200,120,240709,1,8,0:0:0:0:
200,120,240944,1,8,0:0:0:0:
200,120,241061,1,8,0:0:0:0:
280,48,241178,1,0,0:0:0:0:
208,136,241412,1,8,0:0:0:0:
208,136,241647,1,8,0:0:0:0:
208,136,241881,1,8,0:0:0:0:
208,136,241998,1,8,0:0:0:0:
208,136,242116,1,0,0:0:0:0:
200,120,242350,1,0,0:0:0:0:
200,120,242585,1,8,0:0:0:0:
200,80,242702,1,8,0:0:0:0:
200,80,242820,1,0,0:0:0:0:
200,120,242937,1,8,0:0:0:0:
208,112,243054,1,0,0:0:0:0:
208,112,243171,1,0,0:0:0:0:
208,112,243288,1,8,0:0:0:0:
208,112,243406,1,0,0:0:0:0:
208,128,243523,1,8,0:0:0:0:
208,120,243640,1,0,0:0:0:0:
208,120,243757,1,0,0:0:0:0:
184,56,243874,1,0,0:0:0:0:
208,128,243991,1,8,0:0:0:0:
208,120,244069,1,8,0:0:0:0:
208,120,244147,1,0,0:0:0:0:
208,120,244225,1,8,0:0:0:0:
192,56,244304,1,8,0:0:0:0:
184,56,244382,1,0,0:0:0:0:
208,128,244460,1,8,0:0:0:0:
208,120,244538,1,0,0:0:0:0:
208,120,244616,1,0,0:0:0:0:
208,120,244694,1,8,0:0:0:0:
192,56,244772,1,8,0:0:0:0:
184,56,244850,1,8,0:0:0:0:
216,128,244928,1,0,0:0:0:0:
208,128,245045,1,0,0:0:0:0:
208,120,245162,1,8,0:0:0:0:
208,120,245280,1,8,0:0:0:0:
216,128,245397,1,8,0:0:0:0:
208,128,245514,1,0,0:0:0:0:
208,120,245631,1,8,0:0:0:0:
216,128,245748,1,8,0:0:0:0:
208,120,245866,1,0,0:0:0:0:
208,128,245983,1,0,0:0:0:0:
208,120,246100,1,8,0:0:0:0:
208,120,246217,1,8,0:0:0:0:
184,32,246334,1,0,0:0:0:0:
184,40,246451,1,8,0:0:0:0:
184,48,246569,1,0,0:0:0:0:
216,128,246803,1,8,0:0:0:0:
208,128,246920,1,0,0:0:0:0:
208,120,247037,1,0,0:0:0:0:
216,128,247155,1,8,0:0:0:0:
208,120,247272,1,0,0:0:0:0:
208,128,247389,1,0,0:0:0:0:
208,120,247506,1,8,0:0:0:0:
216,128,247623,1,8,0:0:0:0:
208,120,247741,1,0,0:0:0:0:
208,128,247858,1,8,0:0:0:0:
208,120,247975,1,0,0:0:0:0:
184,32,248092,1,0,0:0:0:0:
208,120,248209,1,8,0:0:0:0:
184,40,248326,1,0,0:0:0:0:
184,48,248444,1,0,0:0:0:0:
184,48,248561,1,0,0:0:0:0:
208,120,248678,1,8,0:0:0:0:
184,40,248795,1,8,0:0:0:0:
184,48,248912,1,0,0:0:0:0:
184,48,249030,1,0,0:0:0:0:
208,120,249147,1,8,0:0:0:0:
184,40,249264,1,0,0:0:0:0:
184,48,249381,1,0,0:0:0:0:
184,48,249498,1,0,0:0:0:0:
208,120,249616,1,8,0:0:0:0:
184,40,249733,1,8,0:0:0:0:
184,48,249850,1,0,0:0:0:0:
184,48,249967,1,0,0:0:0:0:
208,120,250084,1,8,0:0:0:0:
184,40,250201,1,0,0:0:0:0:
184,48,250319,1,0,0:0:0:0:
184,48,250436,1,0,0:0:0:0:
128,120,250554,1,8,0:0:0:0:
128,120,250632,1,8,0:0:0:0:
128,120,250710,1,8,0:0:0:0:
128,120,250788,1,0,0:0:0:0:
128,120,250866,1,0,0:0:0:0:
128,120,250944,1,0,0:0:0:0:
128,120,251022,1,8,0:0:0:0:
128,120,251100,1,8,0:0:0:0:
128,120,251179,1,0,0:0:0:0:
128,120,251257,1,0,0:0:0:0:
128,120,251335,1,0,0:0:0:0:
128,120,251413,1,0,0:0:0:0:
128,120,251491,1,8,0:0:0:0:
128,120,251569,1,8,0:0:0:0:
128,120,251647,1,8,0:0:0:0:
128,120,251725,1,0,0:0:0:0:
128,120,251803,1,0,0:0:0:0:
128,120,251881,1,0,0:0:0:0:
128,120,251959,1,8,0:0:0:0:
128,120,252037,1,8,0:0:0:0:
128,120,252116,1,0,0:0:0:0:
128,120,252194,1,0,0:0:0:0:
128,120,252272,1,0,0:0:0:0:
128,120,252350,1,0,0:0:0:0:
208,32,252429,1,8,0:0:0:0:
176,80,253132,1,8,0:0:0:0:
216,112,253600,1,8,0:0:0:0:
216,112,253835,1,8,0:0:0:0:
216,112,254069,1,0,0:0:0:0:
216,112,254304,1,8,0:0:0:0:
216,112,254538,1,0,0:0:0:0:
176,80,255007,1,8,0:0:0:0:
216,112,255475,1,8,0:0:0:0:
216,112,255710,1,0,0:0:0:0:
216,112,255944,1,8,0:0:0:0:
216,112,256179,1,8,0:0:0:0:
176,80,256881,1,8,0:0:0:0:
216,112,257350,1,0,0:0:0:0:
216,112,257584,1,8,0:0:0:0:
216,112,257819,1,8,0:0:0:0:
216,112,258053,1,8,0:0:0:0:
216,112,258287,1,0,0:0:0:0:
232,16,258522,1,0,0:0:0:0:
176,80,258756,1,8,0:0:0:0:
216,112,259225,1,8,0:0:0:0:
216,112,259694,1,8,0:0:0:0:
176,80,260632,1,8,0:0:0:0:
216,112,261100,1,8,0:0:0:0:
216,112,261335,1,8,0:0:0:0:
216,112,261569,1,0,0:0:0:0:
216,112,261804,1,12,0:0:0:0:
216,112,262038,1,0,0:0:0:0:
192,96,262273,1,8,0:0:0:0:
176,80,262507,1,8,0:0:0:0:
216,112,262976,1,8,0:0:0:0:
216,112,263210,1,0,0:0:0:0:
216,112,263445,1,8,0:0:0:0:
216,112,263679,1,8,0:0:0:0:
208,104,263913,1,0,0:0:0:0:
160,48,264031,1,0,0:0:0:0:
192,104,264148,1,0,0:0:0:0:
176,80,264382,1,8,0:0:0:0:
216,112,264851,1,0,0:0:0:0:
216,112,265085,1,8,0:0:0:0:
216,112,265320,1,8,0:0:0:0:
216,112,265554,1,8,0:0:0:0:
216,112,265788,1,0,0:0:0:0:
184,120,265906,1,0,0:0:0:0:
232,16,266023,1,8,0:0:0:0:
176,96,266257,1,0,0:0:0:0:
176,80,266492,1,8,0:0:0:0:
216,112,266960,1,0,0:0:0:0:
176,80,267195,1,8,0:0:0:0:
216,112,267429,1,8,0:0:0:0:
176,80,267663,1,0,0:0:0:0:
176,80,267898,1,8,0:0:0:0:
176,80,268132,1,8,0:0:0:0:
176,80,268366,1,8,0:0:0:0:
176,80,268445,1,8,0:0:0:0:
176,80,268522,1,8,0:0:0:0:
176,80,268600,1,8,0:0:0:0:
176,80,268679,1,8,0:0:0:0:
176,80,268757,1,8,0:0:0:0:
176,80,268835,1,0,0:0:0:0:
176,80,268914,1,0,0:0:0:0:
176,80,268991,1,0,0:0:0:0:
176,80,269069,1,0,0:0:0:0:
176,80,269148,1,0,0:0:0:0:
176,80,269226,1,0,0:0:0:0:
264,80,269304,1,8,0:0:0:0:
168,120,269538,1,8,0:0:0:0:
168,120,269773,1,0,0:0:0:0:
168,120,269890,1,0,0:0:0:0:
168,120,270007,1,0,0:0:0:0:
200,104,270242,1,8,0:0:0:0:
200,112,270359,1,0,0:0:0:0:
200,112,270476,1,0,0:0:0:0:
192,112,270710,1,8,0:0:0:0:
192,112,270827,1,8,0:0:0:0:
184,112,270945,1,0,0:0:0:0:
184,112,271062,1,8,0:0:0:0:
184,112,271179,1,0,0:0:0:0:
176,112,271531,1,8,0:0:0:0:
176,112,271648,1,0,0:0:0:0:
240,104,271882,1,8,0:0:0:0:
240,128,272351,1,0,0:0:0:0:
240,120,272585,1,8,0:0:0:0:
240,128,272820,1,8,0:0:0:0:
240,136,273054,1,0,0:0:0:0:
224,88,274929,1,4,0:0:0:0:
176,80,275398,1,8,0:0:0:0:
176,88,275632,1,0,0:0:0:0:
184,80,276101,1,0,0:0:0:0:
176,80,276335,1,8,0:0:0:0:
176,80,276570,1,0,0:0:0:0:
176,80,276687,1,8,0:0:0:0:
176,80,276804,1,0,0:0:0:0:
176,80,277273,1,8,0:0:0:0:
176,88,277507,1,0,0:0:0:0:
192,96,277624,1,0,0:0:0:0:
192,104,277742,1,0,0:0:0:0:
184,80,277976,1,0,0:0:0:0:
176,80,278210,1,8,0:0:0:0:
216,144,278327,1,0,0:0:0:0:
176,80,278445,1,8,0:0:0:0:
176,80,278562,1,8,0:0:0:0:
176,80,278679,1,0,0:0:0:0:
240,64,279148,1,8,0:0:0:0:
240,64,279382,1,0,0:0:0:0:
232,64,279617,1,0,0:0:0:0:
240,64,279734,1,0,0:0:0:0:
232,64,279851,1,0,0:0:0:0:
240,64,279968,1,0,0:0:0:0:
240,64,280085,1,8,0:0:0:0:
224,96,280554,1,4,0:0:0:0:
176,80,281023,1,8,0:0:0:0:
176,88,281257,1,0,0:0:0:0:
184,80,281726,1,0,0:0:0:0:
176,80,281960,1,8,0:0:0:0:
176,80,282195,1,0,0:0:0:0:
176,80,282312,1,8,0:0:0:0:
176,80,282429,1,0,0:0:0:0:
176,80,282898,1,8,0:0:0:0:
176,88,283132,1,8,0:0:0:0:
224,88,283249,1,8,0:0:0:0:
192,104,283367,1,0,0:0:0:0:
184,80,283601,1,0,0:0:0:0:
176,80,283835,1,8,0:0:0:0:
176,80,284070,1,0,0:0:0:0:
176,80,284187,1,8,0:0:0:0:
176,80,284304,1,8,0:0:0:0:
240,64,284538,1,0,0:0:0:0:
240,64,284773,1,8,0:0:0:0:
232,64,285242,1,0,0:0:0:0:
240,64,285359,1,0,0:0:0:0:
232,64,285476,1,0,0:0:0:0:
240,64,285710,1,8,0:0:0:0:
240,64,285945,1,8,0:0:0:0:
232,88,286179,1,0,0:0:0:0:
160,120,286648,1,8,0:0:0:0:
160,120,286882,1,0,0:0:0:0:
160,120,287117,1,8,0:0:0:0:
160,120,287234,1,8,0:0:0:0:
160,120,287351,1,8,0:0:0:0:
160,128,287585,1,8,0:0:0:0:
160,128,287702,1,8,0:0:0:0:
160,128,287820,1,8,0:0:0:0:
160,128,287937,1,8,0:0:0:0:
224,88,288054,1,4,0:0:0:0:
176,80,288523,1,8,0:0:0:0:
176,88,288757,1,0,0:0:0:0:
184,80,289226,1,0,0:0:0:0:
176,80,289460,1,8,0:0:0:0:
176,80,289695,1,0,0:0:0:0:
176,80,289812,1,8,0:0:0:0:
176,80,289929,1,0,0:0:0:0:
176,80,290398,1,8,0:0:0:0:
176,88,290632,1,0,0:0:0:0:
192,96,290749,1,0,0:0:0:0:
192,104,290867,1,0,0:0:0:0:
184,80,291101,1,0,0:0:0:0:
176,80,291335,1,8,0:0:0:0:
176,80,291570,1,8,0:0:0:0:
176,80,291687,1,8,0:0:0:0:
176,80,291804,1,0,0:0:0:0:
240,64,292273,1,8,0:0:0:0:
240,64,292507,1,0,0:0:0:0:
232,64,292742,1,0,0:0:0:0:
240,64,292859,1,0,0:0:0:0:
232,64,292976,1,0,0:0:0:0:
240,64,293093,1,0,0:0:0:0:
240,64,293210,1,8,0:0:0:0:
72,144,293269,1,8,0:0:0:0:
184,152,293445,1,0,0:0:0:0:
224,96,293679,1,4,0:0:0:0:
176,80,294148,1,8,0:0:0:0:
176,88,294382,1,0,0:0:0:0:
184,80,294851,1,0,0:0:0:0:
176,80,295085,1,8,0:0:0:0:
176,80,295320,1,0,0:0:0:0:
176,80,295437,1,8,0:0:0:0:
176,80,295554,1,0,0:0:0:0:
176,80,296023,1,8,0:0:0:0:
176,88,296257,1,8,0:0:0:0:
224,88,296374,1,8,0:0:0:0:
192,104,296492,1,0,0:0:0:0:
184,80,296726,1,0,0:0:0:0:
176,80,296960,1,8,0:0:0:0:
176,80,297195,1,0,0:0:0:0:
176,80,297312,1,8,0:0:0:0:
176,80,297429,1,8,0:0:0:0:
240,64,297663,1,0,0:0:0:0:
240,64,297898,1,8,0:0:0:0:
232,64,298367,1,0,0:0:0:0:
240,64,298484,1,0,0:0:0:0:
232,64,298601,1,0,0:0:0:0:
240,64,298835,1,8,0:0:0:0:
240,64,299070,1,8,0:0:0:0:
232,88,299304,1,0,0:0:0:0:
160,120,299773,1,8,0:0:0:0:
160,120,300007,1,0,0:0:0:0:
160,120,300242,1,8,0:0:0:0:
160,120,300359,1,8,0:0:0:0:
160,120,300476,1,8,0:0:0:0:
160,128,300710,1,8,0:0:0:0:
160,128,300827,1,8,0:0:0:0:
160,128,300945,1,8,0:0:0:0:
160,128,301061,1,8,0:0:0:0:
224,88,301179,1,4,0:0:0:0:
176,80,301647,1,8,0:0:0:0:
176,88,301882,1,0,0:0:0:0:
184,80,302350,1,0,0:0:0:0:
176,80,302585,1,8,0:0:0:0:
176,80,302819,1,0,0:0:0:0:
176,80,302936,1,8,0:0:0:0:
176,80,303054,1,0,0:0:0:0:
208,136,303288,1,0,0:0:0:0:
176,80,303522,1,8,0:0:0:0:
176,88,303757,1,0,0:0:0:0:
192,96,303874,1,0,0:0:0:0:
192,104,303991,1,0,0:0:0:0:
184,80,304225,1,0,0:0:0:0:
176,80,304461,1,8,0:0:0:0:
192,144,304578,1,0,0:0:0:0:
176,80,304695,1,8,0:0:0:0:
176,80,304812,1,8,0:0:0:0:
176,80,304929,1,0,0:0:0:0:
240,64,305398,1,8,0:0:0:0:
240,64,305633,1,0,0:0:0:0:
232,64,305867,1,0,0:0:0:0:
240,64,305984,1,0,0:0:0:0:
232,64,306101,1,0,0:0:0:0:
240,64,306218,1,0,0:0:0:0:
240,64,306336,1,8,0:0:0:0:
184,136,306570,1,0,0:0:0:0:
224,96,306804,1,4,0:0:0:0:
176,80,307272,1,8,0:0:0:0:
176,88,307507,1,0,0:0:0:0:
184,80,307975,1,0,0:0:0:0:
176,80,308210,1,8,0:0:0:0:
176,80,308444,1,0,0:0:0:0:
176,80,308561,1,8,0:0:0:0:
176,80,308678,1,0,0:0:0:0:
176,80,309147,1,8,0:0:0:0:
176,88,309382,1,8,0:0:0:0:
224,88,309499,1,8,0:0:0:0:
192,104,309616,1,0,0:0:0:0:
184,80,309850,1,0,0:0:0:0:
176,80,310085,1,8,0:0:0:0:
176,80,310319,1,0,0:0:0:0:
176,80,310436,1,8,0:0:0:0:
176,80,310553,1,8,0:0:0:0:
184,136,310788,1,0,0:0:0:0:
240,64,311022,1,8,0:0:0:0:
240,64,311257,1,0,0:0:0:0:
232,64,311491,1,0,0:0:0:0:
240,64,311608,1,0,0:0:0:0:
232,64,311725,1,0,0:0:0:0:
240,64,311960,1,8,0:0:0:0:
104,144,312194,1,0,0:0:0:0:
240,64,312311,1,8,0:0:0:0:
232,88,312428,1,0,0:0:0:0:
200,160,312663,1,0,0:0:0:0:
160,120,312897,1,8,0:0:0:0:
160,120,313132,1,0,0:0:0:0:
160,120,313366,1,12,0:0:0:0:
160,128,313836,1,12,0:0:0:0:
176,104,314070,1,8,0:0:0:0:
176,104,314187,1,8,0:0:0:0:
224,88,314304,1,4,0:0:0:0:
176,80,314773,1,8,0:0:0:0:
176,88,315008,1,0,0:0:0:0:
184,80,315476,1,0,0:0:0:0:
176,80,315711,1,8,0:0:0:0:
176,80,315945,1,0,0:0:0:0:
176,80,316062,1,8,0:0:0:0:
176,80,316179,1,0,0:0:0:0:
208,96,316414,1,0,0:0:0:0:
176,80,316648,1,8,0:0:0:0:
176,88,316883,1,0,0:0:0:0:
192,96,317000,1,0,0:0:0:0:
192,104,317117,1,0,0:0:0:0:
184,80,317351,1,0,0:0:0:0:
192,152,317468,1,0,0:0:0:0:
176,80,317586,1,8,0:0:0:0:
176,80,317820,1,8,0:0:0:0:
176,80,317937,1,8,0:0:0:0:
176,80,318054,1,0,0:0:0:0:
240,64,318523,1,8,0:0:0:0:
240,64,318758,1,0,0:0:0:0:
232,64,318992,1,0,0:0:0:0:
240,64,319109,1,0,0:0:0:0:
232,64,319226,1,8,0:0:0:0:
240,64,319343,1,0,0:0:0:0:
240,64,319461,1,8,0:0:0:0:
88,104,319578,1,8,0:0:0:0:
96,88,319695,1,0,0:0:0:0:
224,96,319929,1,4,0:0:0:0:
176,80,320398,1,8,0:0:0:0:
176,88,320633,1,0,0:0:0:0:
184,80,321101,1,0,0:0:0:0:
176,80,321336,1,8,0:0:0:0:
176,80,321570,1,0,0:0:0:0:
176,80,321687,1,8,0:0:0:0:
176,80,321804,1,0,0:0:0:0:
176,80,322273,1,8,0:0:0:0:
176,88,322508,1,8,0:0:0:0:
224,88,322625,1,8,0:0:0:0:
192,104,322742,1,0,0:0:0:0:
176,80,322976,1,8,0:0:0:0:
176,80,323093,1,8,0:0:0:0:
208,80,323211,1,8,0:0:0:0:
208,80,323328,1,8,0:0:0:0:
208,80,323445,1,8,0:0:0:0:
208,80,323562,1,8,0:0:0:0:
248,176,323679,1,4,0:0:0:0:
240,160,324148,1,8,0:0:0:0:
248,168,324617,1,0,0:0:0:0:
248,168,324851,1,0,0:0:0:0:
248,168,325086,1,8,0:0:0:0:
240,168,325320,1,0,0:0:0:0:
240,168,325789,1,0,0:0:0:0:
240,168,326023,1,8,0:0:0:0:
240,168,326258,1,0,0:0:0:0:
248,168,326726,1,0,0:0:0:0:
248,160,326961,1,8,0:0:0:0:
248,160,327195,1,8,0:0:0:0:
136,88,327312,1,8,0:0:0:0:
248,160,327429,1,0,0:0:0:0:
240,160,327898,1,8,0:0:0:0:
160,72,328133,1,8,0:0:0:0:
248,168,328367,1,0,0:0:0:0:
248,168,328601,1,8,0:0:0:0:
248,168,328836,1,8,0:0:0:0:
240,168,329070,1,0,0:0:0:0:
240,168,329539,1,0,0:0:0:0:
240,168,329773,1,8,0:0:0:0:
240,168,330008,1,0,0:0:0:0:
168,96,330242,1,0,0:0:0:0:
248,168,330476,1,8,0:0:0:0:
168,96,330593,1,8,0:0:0:0:
248,160,330711,1,8,0:0:0:0:
168,64,330828,1,8,0:0:0:0:
248,160,330945,1,0,0:0:0:0:
136,88,331062,1,0,0:0:0:0:
248,160,331179,1,0,0:0:0:0:
240,160,331647,1,8,0:0:0:0:
248,168,332116,1,0,0:0:0:0:
248,168,332350,1,8,0:0:0:0:
248,168,332585,1,8,0:0:0:0:
240,168,332819,1,0,0:0:0:0:
240,168,333288,1,0,0:0:0:0:
240,168,333522,1,8,0:0:0:0:
240,168,333757,1,0,0:0:0:0:
248,168,334225,1,0,0:0:0:0:
248,160,334460,1,8,0:0:0:0:
248,160,334694,1,0,0:0:0:0:
248,160,334929,1,4,0:0:0:0:
176,120,335397,1,8,0:0:0:0:
248,168,335456,1,8,0:0:0:0:
144,48,335632,1,0,0:0:0:0:
144,48,335749,1,0,0:0:0:0:
176,120,335866,1,8,0:0:0:0:
176,120,335925,1,8,0:0:0:0:
208,56,336100,1,0,0:0:0:0:
248,168,336335,1,12,0:0:0:0:
256,192,336569,12,0,338444,0:0:0:0:
168,152,338678,5,8,0:0:0:0:
168,152,338796,1,8,0:0:0:0:
168,144,338913,1,8,0:0:0:0:
168,152,339382,5,8,0:0:0:0:
168,152,339499,1,8,0:0:0:0:
168,144,339616,1,8,0:0:0:0:
168,152,339733,5,8,0:0:0:0:
168,152,339850,1,8,0:0:0:0:
168,152,340085,5,8,0:0:0:0:
168,152,340202,1,8,0:0:0:0:
168,144,340319,1,8,0:0:0:0:
168,152,340553,5,8,0:0:0:0:
168,152,340671,1,8,0:0:0:0:
168,144,340788,1,8,0:0:0:0:
168,152,341257,5,8,0:0:0:0:
168,152,341374,1,8,0:0:0:0:
168,144,341491,1,0,0:0:0:0:
120,96,341550,1,0,0:0:0:0:
168,152,341608,5,0,0:0:0:0:
192,64,341667,1,0,0:0:0:0:
168,152,341725,1,0,0:0:0:0:
