osu file format v14

[General]
AudioFilename: Xanandra.mp3
AudioLeadIn: 0
PreviewTime: 58365
Countdown: 0
SampleSet: None
StackLeniency: 0.7
Mode: 0
LetterboxInBreaks: 0
WidescreenStoryboard: 0

[Editor]
Bookmarks: 5341,10421,20581,30742,40902,51063,82814
DistanceSpacing: 0.9
BeatDivisor: 4
GridSize: 8
TimelineZoom: 2.2

[Metadata]
Title:Xanandra
TitleUnicode:Xanandra
Artist:Mago de Oz
ArtistUnicode:Mägo de Oz
Creator:zigizigiefe
Version:Abandoned Kiss
Source:
Tags:CircleChu Hechizos Pócimas y Brujería Javier Domínguez Zeta Txus di Fellatio Patricia Tapia Mohamed Josema Pizarro Spanish Español Celtic Folk Metal Cut Version
BeatmapID:1635872
BeatmapSetID:778924

[Difficulty]
HPDrainRate:6
CircleSize:4
OverallDifficulty:8
ApproachRate:9.2
SliderMultiplier:1.8
SliderTickRate:2

[Events]
//Background and Video events
0,0,"clip (2013-01-20 at 09.10.37).jpg",0,0
//Break Periods
//Storyboard Layer 0 (Background)
//Storyboard Layer 1 (Fail)
//Storyboard Layer 2 (Pass)
//Storyboard Layer 3 (Foreground)
//Storyboard Sound Samples

[TimingPoints]
-850,317.510715986665,4,1,2,40,1,0
261,-90.9090909090909,4,1,2,40,0,0
420,-90.9090909090909,4,1,1,40,0,0
1690,-90.9090909090909,4,1,4,40,0,0
1848,-90.9090909090909,4,1,1,40,0,0
2960,-90.9090909090909,4,1,4,40,0,0
3118,-90.9090909090909,4,1,1,40,0,0
4230,-90.9090909090909,4,1,4,40,0,0
4388,-90.9090909090909,4,1,1,40,0,0
5023,-90.9090909090909,4,1,1,40,0,0
5341,-90.9090909090909,4,1,2,40,0,0
5500,-90.9090909090909,4,1,1,40,0,0
6611,-90.9090909090909,4,1,2,40,0,0
6770,-90.9090909090909,4,1,1,40,0,0
7881,-90.9090909090909,4,1,2,40,0,0
8040,-90.9090909090909,4,1,1,40,0,0
9310,-90.9090909090909,4,1,2,40,0,0
10104,-90.9090909090909,4,3,5,40,0,0
10262,-90.9090909090909,4,1,2,40,0,0
10580,-90.9090909090909,4,1,1,40,0,0
10897,-90.9090909090909,4,1,2,40,0,0
11056,-90.9090909090909,4,1,1,40,0,0
11850,-90.9090909090909,4,1,4,40,0,0
12009,-90.9090909090909,4,1,1,40,0,0
13120,-90.9090909090909,4,1,4,40,0,0
13279,-90.9090909090909,4,1,1,40,0,0
14231,-90.9090909090909,4,1,2,40,0,0
15660,-90.9090909090909,4,1,1,40,0,0
16930,-90.9090909090909,4,1,4,40,0,0
17089,-90.9090909090909,4,1,1,40,0,0
18041,-90.9090909090909,4,1,2,40,0,0
18200,-90.9090909090909,4,1,1,40,0,0
19311,-90.9090909090909,4,1,2,40,0,0
19470,-90.9090909090909,4,1,1,40,0,0
19550,-90.9090909090909,4,2,0,5,0,0
19629,-90.9090909090909,4,1,1,40,0,0
19788,-90.9090909090909,4,3,4,40,0,0
19946,-90.9090909090909,4,3,5,40,0,0
20105,-90.9090909090909,4,1,1,40,0,0
20264,-90.9090909090909,4,3,4,40,0,0
20423,-90.9090909090909,4,1,1,40,0,0
20581,-100,4,1,2,40,0,0
20740,-100,4,1,1,40,0,0
23280,-100,4,1,4,40,0,0
23439,-100,4,1,1,40,0,0
25185,-100,4,1,6,40,0,0
25344,-100,4,1,1,40,0,0
25820,-100,4,1,4,40,0,0
25979,-100,4,1,1,40,0,0
28360,-100,4,1,4,40,0,0
28519,-100,4,1,1,40,0,0
29631,-100,4,3,4,40,0,0
29789,-100,4,1,1,40,0,0
30107,-100,4,3,4,40,0,0
30266,-100,4,1,1,40,0,0
30424,-100,4,3,5,40,0,0
30583,-100,4,1,1,40,0,0
30742,-100,4,1,2,40,0,0
30901,-100,4,1,1,40,0,0
33441,-100,4,1,4,40,0,0
33599,-100,4,1,1,40,0,0
35346,-100,4,1,6,40,0,0
35504,-100,4,1,1,40,0,0
35981,-100,4,1,4,40,0,0
36139,-100,4,1,1,40,0,0
38521,-100,4,1,4,40,0,0
38600,-100,4,2,0,5,0,0
38680,-100,4,1,1,40,0,0
40585,-100,4,3,5,40,0,0
40902,-100,4,1,2,40,0,0
41061,-100,4,1,1,40,0,0
41220,-100,4,1,3,40,0,0
41378,-100,4,1,2,40,0,0
41537,-100,4,1,3,40,0,0
43601,-100,4,1,5,40,0,0
43760,-100,4,1,3,40,0,0
44871,-100,4,1,7,40,0,0
45030,-100,4,1,3,40,0,0
45982,-100,4,1,2,40,0,0
46141,-100,4,1,1,40,0,0
46300,-100,4,1,3,40,0,0
46459,-100,4,1,2,40,0,0
46617,-100,4,1,3,40,0,0
47411,-100,4,1,5,40,0,0
47570,-100,4,1,3,40,0,0
48681,-100,4,1,5,40,0,0
48840,-100,4,1,3,40,0,0
49951,-100,4,3,4,40,0,0
50110,-100,4,1,3,40,0,0
50269,-100,4,3,5,40,0,0
50427,-100,4,3,4,40,0,0
50586,-100,4,1,3,40,0,0
50745,-100,4,3,4,40,0,0
50904,-100,4,1,3,40,0,0
51063,-100,4,1,2,40,0,0
51221,-100,4,1,1,40,0,0
51380,-100,4,1,3,40,0,0
53603,-100,4,1,2,40,0,0
53761,-100,4,1,1,40,0,0
53920,-100,4,1,3,40,0,0
54873,-100,4,1,2,40,0,0
55031,-100,4,1,1,40,0,0
55190,-100,4,1,2,40,0,0
55666,-100,4,1,1,40,0,0
55825,-100,4,1,2,40,0,0
56460,-100,4,3,4,40,0,0
56619,-100,4,3,5,40,0,0
56778,-100,4,3,4,40,0,0
56936,-100,4,3,5,40,0,0
57254,-100,4,1,2,40,0,0
58524,-100,4,2,0,20,0,0
58842,-83.3333333333333,4,1,2,40,0,1
59000,-83.3333333333333,4,1,1,40,0,1
60112,-83.3333333333333,4,1,6,40,0,1
60270,-83.3333333333333,4,1,1,40,0,1
62652,-83.3333333333333,4,1,2,40,0,1
62810,-83.3333333333333,4,1,1,40,0,1
63922,-83.3333333333333,4,1,2,40,0,1
64080,-83.3333333333333,4,1,1,40,0,1
65192,-83.3333333333333,4,1,6,40,0,1
65350,-83.3333333333333,4,1,1,40,0,1
66462,-83.3333333333333,4,1,2,40,0,1
66621,-83.3333333333333,4,1,1,40,0,1
67732,-83.3333333333333,4,1,2,40,0,1
67891,-83.3333333333333,4,1,1,40,0,1
68526,-83.3333333333333,4,3,4,40,0,1
68684,-83.3333333333333,4,3,5,40,0,1
68843,-83.3333333333333,4,1,2,40,0,1
69161,-83.3333333333333,4,1,1,40,0,1
70272,-83.3333333333333,4,1,6,40,0,1
70431,-83.3333333333333,4,1,1,40,0,1
74082,-83.3333333333333,4,1,2,40,0,1
74241,-83.3333333333333,4,1,1,40,0,1
75352,-83.3333333333333,4,1,8,40,0,1
75511,-83.3333333333333,4,1,1,40,0,1
76622,-83.3333333333333,4,1,2,40,0,1
76781,-83.3333333333333,4,1,1,40,0,1
78527,-83.3333333333333,4,3,5,40,0,1
78686,-83.3333333333333,4,1,1,40,0,1
79003,-90.9090909090909,4,1,2,40,0,0
79162,-90.9090909090909,4,1,1,40,0,0
79480,-90.9090909090909,4,1,2,40,0,0
79638,-90.9090909090909,4,1,1,40,0,0
80432,-90.9090909090909,4,1,4,40,0,0
80591,-90.9090909090909,4,1,1,40,0,0
81702,-90.9090909090909,4,1,4,40,0,0
81861,-90.9090909090909,4,1,1,40,0,0
82814,-90.9090909090909,4,1,2,40,0,0
82972,-90.9090909090909,4,1,1,40,0,0
83449,-90.9090909090909,4,1,2,40,0,0
83607,-90.9090909090909,4,2,0,5,0,0
83766,-90.9090909090909,4,1,1,40,0,0
84084,-90.9090909090909,4,1,2,40,0,0
84242,-90.9090909090909,4,1,1,40,0,0
85354,-90.9090909090909,4,1,2,40,0,0
85512,-90.9090909090909,4,1,1,40,0,0
86624,-90.9090909090909,4,1,2,40,0,0
86782,-90.9090909090909,4,1,1,40,0,0
87894,-90.9090909090909,4,1,2,40,0,0
88053,-90.9090909090909,4,1,1,40,0,0
88132,-90.9090909090909,4,2,0,5,0,0
88211,-90.9090909090909,4,1,1,40,0,0
88370,-90.9090909090909,4,3,4,40,0,0
88529,-90.9090909090909,4,3,5,40,0,0
88688,-90.9090909090909,4,1,1,40,0,0
88846,-90.9090909090909,4,3,5,40,0,0
89005,-90.9090909090909,4,3,4,40,0,0
89164,-90.9090909090909,4,1,1,40,0,0

[HitObjects]
3,280,261,6,0,B|74:204|106:280|178:205,1,198.000006042481,6|2,0:0|0:0,0:0:0:0:
136,65,737,2,0,P|102:127|105:171,1,99.0000030212403,12|0,0:0|0:0,0:0:0:0:
231,94,1055,2,0,L|224:-8,2,99.0000030212403,6|2|12,0:0|0:0|0:0,0:0:0:0:
354,263,1531,6,0,P|242:198|160:213,1,198.000006042481,2|2,0:0|0:0,0:0:0:0:
149,348,2007,2,0,P|205:315|219:276,1,99.0000030212403,12|0,0:0|0:0,0:0:0:0:
59,279,2325,2,0,L|64:378,2,99.0000030212403,6|2|12,0:0|0:0|0:0,0:0:0:0:
21,116,2801,6,0,B|78:196|78:196|185:203,1,198.000006042481,2|2,0:0|0:0,0:0:0:0:
240,71,3277,2,0,B|190:76|190:76|161:120,1,99.0000030212403,12|0,0:0|0:0,0:0:0:0:
324,103,3595,2,0,L|308:4,2,99.0000030212403,6|2|12,0:0|0:0|0:0,0:0:0:0:
364,246,4071,2,0,B|280:184|262:264|178:203,1,198.000006042481,2|2,0:0|0:0,0:0:0:0:
220,45,4547,2,0,P|243:110|231:167,1,99.0000030212403,12|0,0:0|0:0,0:0:0:0:
103,99,4865,2,0,L|124:-2,1,99.0000030212403,6|0,0:0|0:0,0:0:0:0:
176,203,5182,1,8,0:0:0:0:
40,351,5341,6,0,B|115:288|115:288|220:309,1,198.000006042481,6|2,0:0|0:0,0:0:0:0:
336,335,5817,2,0,B|334:285|334:285|366:241,1,99.0000030212403,12|0,0:0|0:0,0:0:0:0:
446,158,6135,1,6,0:0:0:0:
260,206,6294,2,0,L|263:108,1,99.0000030212403,2|8,0:0|0:0,0:0:0:0:
163,33,6611,6,0,B|214:26|255:-1|255:-1|299:20|369:22,1,198.000006042481,6|2,0:0|0:0,0:0:0:0:
106,127,7087,2,0,P|67:79|64:28,1,99.0000030212403,12|0,0:0|0:0,0:0:0:0:
33,202,7405,1,6,0:0:0:0:
166,262,7564,2,0,P|200:226|212:179,1,99.0000030212403,2|8,0:0|0:0,0:0:0:0:
373,104,7881,6,0,B|320:187|320:187|337:301,1,198.000006042481,6|2,0:0|0:0,0:0:0:0:
502,215,8357,2,0,B|463:184|463:184|413:186,1,99.0000030212403,12|0,0:0|0:0,0:0:0:0:
334,285,8675,1,6,0:0:0:0:
453,369,8834,2,0,L|432:272,1,99.0000030212403,2|8,0:0|0:0,0:0:0:0:
464,110,9151,1,0,0:0:0:0:
308,168,9310,5,6,0:0:0:0:
102,212,9469,1,8,0:0:0:0:
102,212,9548,1,8,0:0:0:0:
102,212,9627,1,8,0:0:0:0:
191,127,9786,1,8,0:0:0:0:
218,264,9945,1,8,0:0:0:0:
69,89,10104,1,0,0:0:0:0:
294,46,10262,1,8,0:0:0:0:
372,274,10421,6,0,B|414:187|414:187|378:93,1,198.000006042481,6|2,0:0|0:0,0:0:0:0:
191,127,10897,2,0,L|296:164,1,99.0000030212403,12|0,0:0|0:0,0:0:0:0:
196,24,11215,1,6,0:0:0:0:
72,231,11374,1,2,0:0:0:0:
69,89,11532,1,12,0:0:0:0:
161,287,11691,6,0,B|217:263|217:263|294:274|294:274|379:245,1,198.000006042481,2|2,0:0|0:0,0:0:0:0:
341,70,12167,2,0,B|310:109|310:109|307:163,1,99.0000030212403,12|0,0:0|0:0,0:0:0:0:
417,152,12485,1,6,0:0:0:0:
221,79,12644,1,2,0:0:0:0:
256,286,12802,1,12,0:0:0:0:
115,161,12961,6,0,B|171:166|206:195|206:195|257:169|331:182,1,198.000006042481,2|2,0:0|0:0,0:0:0:0:
108,66,13437,2,0,P|52:92|22:134,1,99.0000030212403,12|0,0:0|0:0,0:0:0:0:
59,305,13755,1,6,0:0:0:0:
115,161,13914,1,2,0:0:0:0:
211,281,14073,1,12,0:0:0:0:
202,106,14231,6,0,B|294:72|294:72|394:109,1,198.000006042481,6|6,0:0|0:0,0:0:0:0:
182,23,14708,1,8,0:0:0:0:
299,261,14866,2,0,L|294:154,1,99.0000030212403,6|0,0:0|0:0,0:0:0:0:
142,240,15184,1,6,0:0:0:0:
182,23,15343,1,8,0:0:0:0:
387,106,15501,6,0,B|294:72|294:72|202:106,1,198.000006042481,6|2,0:0|0:0,0:0:0:0:
198,272,15978,2,0,P|242:242|248:162,1,99.0000030212403,12|0,0:0|0:0,0:0:0:0:
145,166,16295,1,6,0:0:0:0:
172,350,16454,1,2,0:0:0:0:
227,99,16613,1,12,0:0:0:0:
16,147,16771,6,0,B|6:246|6:246|61:350,1,198.000006042481,2|2,0:0|0:0,0:0:0:0:
100,104,17248,2,0,B|70:63|70:63|24:46,1,99.0000030212403,12|0,0:0|0:0,0:0:0:0:
94,227,17565,1,6,0:0:0:0:
227,99,17724,1,2,0:0:0:0:
271,278,17883,1,8,0:0:0:0:
322,170,18041,6,0,B|394:202|452:155|452:155|470:197|499:203,1,198.000006042481,6|2,0:0|0:0,0:0:0:0:
428,13,18518,2,0,P|387:45|384:110,1,99.0000030212403,12|0,0:0|0:0,0:0:0:0:
380,270,18835,1,6,0:0:0:0:
452,156,18994,1,2,0:0:0:0:
227,99,19153,1,8,0:0:0:0:
290,352,19311,6,0,B|245:346|217:362|217:362|193:339|142:331,1,148.50000453186,6|0,0:0|0:0,0:0:0:0:
119,331,19629,1,8,0:0:0:0:
65,133,19788,1,0,0:0:0:0:
184,233,19946,1,0,0:0:0:0:
16,260,20105,1,8,0:0:0:0:
175,113,20264,1,0,0:0:0:0:
195,325,20423,1,8,0:0:0:0:
254,58,20581,6,0,B|300:58|330:97|330:97|374:75|431:93,1,180,6|2,0:0|0:0,0:0:0:0:
380,184,21058,1,12,0:0:0:0:
350,7,21216,1,0,0:0:0:0:
253,152,21375,1,6,0:0:0:0:
113,47,21534,1,0,0:0:0:0:
254,58,21693,1,12,0:0:0:0:
206,236,21852,6,0,P|168:257|106:264,1,90,0|6,0:0|0:0,0:0:0:0:
43,132,22169,2,0,P|91:137|135:160,1,90,0|12,0:0|0:0,0:0:0:0:
24,299,22487,2,0,L|12:186,1,90,0|6,0:0|0:0,0:0:0:0:
206,236,22804,2,0,L|195:334,1,90,0|12,0:0|0:0,0:0:0:0:
128,155,23122,6,0,P|212:136|309:183,1,180,2|2,0:0|0:0,0:0:0:0:
126,50,23598,1,12,0:0:0:0:
118,257,23757,1,0,0:0:0:0:
213,137,23915,1,6,0:0:0:0:
28,91,24074,1,0,0:0:0:0:
118,257,24233,1,12,0:0:0:0:
213,137,24392,6,0,P|286:126|330:144,1,90,0|6,0:0|0:0,0:0:0:0:
346,260,24709,2,0,P|277:233|248:195,1,90,0|12,0:0|0:0,0:0:0:0:
408,113,25027,2,0,B|393:213|445:191|437:288,1,180,0|2,0:0|0:0,0:0:0:0:
508,155,25503,1,12,0:0:0:0:
322,44,25662,6,0,B|409:17|409:17|497:54,1,180,2|2,0:0|0:0,0:0:0:0:
283,123,26138,1,12,0:0:0:0:
221,26,26297,1,0,0:0:0:0:
208,236,26455,1,6,0:0:0:0:
397,143,26614,1,0,0:0:0:0:
159,122,26773,1,12,0:0:0:0:
21,205,26932,6,0,L|133:231,1,90,0|6,0:0|0:0,0:0:0:0:
205,111,27249,2,0,L|117:131,1,90,0|12,0:0|0:0,0:0:0:0:
220,323,27567,2,0,P|207:278|212:216,1,90,0|6,0:0|0:0,0:0:0:0:
340,282,27884,2,0,P|340:326|327:369,1,90,0|12,0:0|0:0,0:0:0:0:
268,199,28202,6,0,B|335:202|375:165|375:165|402:186|459:177,1,180,2|2,0:0|0:0,0:0:0:0:
283,19,28678,2,0,P|280:66|299:107,1,90,12|0,0:0|0:0,0:0:0:0:
369,49,28996,1,6,0:0:0:0:
157,45,29154,1,2,0:0:0:0:
268,199,29313,1,12,0:0:0:0:
228,75,29472,1,0,0:0:0:0:
140,140,29631,5,0,0:0:0:0:
268,199,29789,1,8,0:0:0:0:
93,210,29948,1,4,0:0:0:0:
157,45,30107,1,0,0:0:0:0:
185,278,30266,1,8,0:0:0:0:
57,133,30424,1,0,0:0:0:0:
291,124,30583,1,8,0:0:0:0:
251,330,30742,6,0,B|340:340|340:340|442:275,1,180,6|2,0:0|0:0,0:0:0:0:
352,78,31218,1,12,0:0:0:0:
320,256,31377,1,0,0:0:0:0:
442,169,31536,1,6,0:0:0:0:
241,123,31694,1,0,0:0:0:0:
251,330,31853,1,12,0:0:0:0:
149,144,32012,6,0,L|46:130,1,90,0|6,0:0|0:0,0:0:0:0:
161,343,32329,2,0,L|250:330,1,90,0|12,0:0|0:0,0:0:0:0:
25,213,32647,2,0,B|4:252|4:252|7:315,1,90,0|6,0:0|0:0,0:0:0:0:
167,228,32964,2,0,B|169:182|169:182|148:143,1,90,0|12,0:0|0:0,0:0:0:0:
161,342,33282,6,0,B|204:324|250:330|250:330|280:284|343:263,1,180,2|2,0:0|0:0,0:0:0:0:
275,39,33758,1,12,0:0:0:0:
246,231,33917,1,0,0:0:0:0:
403,151,34076,1,6,0:0:0:0:
221,109,34234,1,0,0:0:0:0:
317,273,34393,1,12,0:0:0:0:
146,157,34552,6,0,L|46:139,1,90,0|6,0:0|0:0,0:0:0:0:
161,342,34869,2,0,L|249:326,1,90,0|12,0:0|0:0,0:0:0:0:
301,76,35187,2,0,B|239:140|239:140|246:239,1,180,0|2,0:0|0:0,0:0:0:0:
403,151,35663,1,12,0:0:0:0:
226,25,35822,6,0,B|136:49|137:3|43:22,1,180,2|2,0:0|0:0,0:0:0:0:
94,240,36298,1,12,0:0:0:0:
96,93,36457,1,0,0:0:0:0:
25,295,36616,1,6,0:0:0:0:
236,256,36775,1,0,0:0:0:0:
12,173,36933,1,12,0:0:0:0:
221,133,37092,6,0,B|261:113|261:113|317:118,1,90,0|6,0:0|0:0,0:0:0:0:
406,297,37410,2,0,B|360:301|360:301|320:281,1,90,0|12,0:0|0:0,0:0:0:0:
382,55,37727,2,0,L|412:172,1,90,0|6,0:0|0:0,0:0:0:0:
224,301,38045,2,0,L|246:213,1,90,2|12,0:0|0:0,0:0:0:0:
185,68,38362,6,0,P|127:89|38:65,1,135,2|0,0:0|0:0,0:0:0:0:
32,63,38680,1,2,0:0:0:0:
87,254,38838,1,12,0:0:0:0:
111,11,38997,1,0,0:0:0:0:
9,169,39156,1,6,0:0:0:0:
197,179,39315,1,2,0:0:0:0:
109,28,39473,1,12,0:0:0:0:
87,254,39632,1,0,0:0:0:0:
224,301,39791,5,6,0:0:0:0:
422,262,39950,1,8,0:0:0:0:
422,262,40029,1,8,0:0:0:0:
422,262,40108,1,8,0:0:0:0:
290,109,40267,1,8,0:0:0:0:
264,225,40426,1,8,0:0:0:0:
405,85,40585,1,0,0:0:0:0:
199,39,40743,1,0,0:0:0:0:
87,254,40902,6,0,B|90:201|66:168|66:168|81:126|63:73,1,180,6|2,0:0|0:0,0:0:0:0:
290,109,41378,1,12,0:0:0:0:
150,153,41537,1,0,0:0:0:0:
199,39,41696,1,6,0:0:0:0:
224,236,41855,1,2,0:0:0:0:
383,116,42013,1,12,0:0:0:0:
416,285,42172,6,0,P|371:295|328:292,1,90,2|4,0:0|0:0,0:0:0:0:
227,162,42490,2,0,P|271:158|315:168,1,90,2|12,0:0|0:0,0:0:0:0:
172,320,42807,2,0,L|154:201,1,90,0|6,0:0|0:0,0:0:0:0:
327,291,43125,2,0,L|313:379,1,90,2|12,0:0|0:0,0:0:0:0:
315,168,43442,6,0,B|401:197|401:197|496:184,1,180,2|2,0:0|0:0,0:0:0:0:
313,60,43919,2,0,B|268:65|268:65|230:90,1,90,12|0,0:0|0:0,0:0:0:0:
116,184,44236,1,6,0:0:0:0:
248,251,44395,1,2,0:0:0:0:
150,82,44554,1,12,0:0:0:0:
315,168,44712,6,0,B|404:181|404:181|499:129,1,180,0|2,0:0|0:0,0:0:0:0:
456,67,45109,1,0,0:0:0:0:
456,67,45189,1,12,0:0:0:0:
377,264,45347,1,0,0:0:0:0:
313,60,45506,1,6,0:0:0:0:
404,181,45665,1,2,0:0:0:0:
227,202,45824,1,12,0:0:0:0:
116,51,45982,6,0,B|131:140|131:140|86:234,1,180,6|2,0:0|0:0,0:0:0:0:
28,37,46459,1,12,0:0:0:0:
219,74,46617,1,0,0:0:0:0:
92,220,46776,1,6,0:0:0:0:
227,202,46935,1,2,0:0:0:0:
44,122,47094,1,12,0:0:0:0:
67,321,47252,6,0,B|157:345|156:299|250:318,1,180,2|2,0:0|0:0,0:0:0:0:
155,145,47729,1,12,0:0:0:0:
348,154,47887,2,0,B|388:135|388:135|461:144,1,90,0|6,0:0|0:0,0:0:0:0:
384,275,48205,2,0,B|338:280|338:280|298:261,1,90,2|12,0:0|0:0,0:0:0:0:
238,72,48522,6,0,B|224:127|244:184|244:184|213:204|206:252,1,180,2|2,0:0|0:0,0:0:0:0:
79,77,48999,2,0,B|115:49|115:49|182:54,1,90,12|0,0:0|0:0,0:0:0:0:
66,244,49316,1,6,0:0:0:0:
6,55,49475,1,2,0:0:0:0:
167,171,49634,1,12,0:0:0:0:
283,10,49792,1,0,0:0:0:0:
364,190,49951,5,0,0:0:0:0:
210,89,50110,1,8,0:0:0:0:
374,6,50269,1,0,0:0:0:0:
274,198,50427,1,0,0:0:0:0:
239,2,50586,1,8,0:0:0:0:
413,97,50745,1,0,0:0:0:0:
167,171,50904,1,8,0:0:0:0:
282,309,51063,6,0,B|210:364|210:364|105:349,1,180,6|2,0:0|0:0,0:0:0:0:
99,93,51539,1,12,0:0:0:0:
186,272,51698,1,0,0:0:0:0:
1,231,51856,1,6,0:0:0:0:
167,171,52015,1,2,0:0:0:0:
121,351,52174,1,12,0:0:0:0:
282,309,52333,6,0,P|299:238|289:189,1,90,2|4,0:0|0:0,0:0:0:0:
151,83,52650,2,0,P|151:127|166:170,1,90,2|12,0:0|0:0,0:0:0:0:
326,124,52968,2,0,L|198:104,1,90,0|6,0:0|0:0,0:0:0:0:
122,262,53285,2,0,L|250:242,1,90,2|12,0:0|0:0,0:0:0:0:
326,124,53603,6,0,B|338:173|323:213|323:213|354:247|354:296,1,180,6|0,0:0|0:0,0:0:0:0:
499,215,54079,2,0,P|453:212|393:182,1,90,12|0,0:0|0:0,0:0:0:0:
477,104,54396,1,6,0:0:0:0:
512,322,54555,2,0,L|410:313,1,90,2|8,0:0|0:0,0:0:0:0:
275,343,54873,6,0,B|260:273|288:221|288:221|257:230|221:214,1,180,6|2,0:0|0:0,0:0:0:0:
275,40,55349,1,8,0:0:0:0:
113,102,55508,2,0,B|162:120|199:95|199:95|231:140|297:138,1,180,6|2,0:0|0:0,0:0:0:0:
39,19,55984,1,8,0:0:0:0:
52,196,56143,1,2,0:0:0:0:
200,96,56301,5,8,0:0:0:0:
311,271,56460,1,0,0:0:0:0:
104,282,56619,1,0,0:0:0:0:
221,182,56778,1,0,0:0:0:0:
86,111,56936,1,0,0:0:0:0:
212,329,57095,1,0,0:0:0:0:
338,111,57254,1,8,0:0:0:0:
221,199,57413,5,6,0:0:0:0:
136,134,58524,5,0,0:0:0:0:
136,134,58683,1,0,0:0:0:0:
167,276,58842,6,0,L|285:263,1,107.999996704102,6|0,0:0|0:0,0:0:0:0:
329,76,59159,2,0,B|275:85|275:85|240:127,1,107.999996704102,12|0,0:0|0:0,0:0:0:0:
374,264,59477,1,6,0:0:0:0:
412,28,59635,2,0,L|432:139,1,107.999996704102,2|12,0:0|0:0,0:0:0:0:
136,134,59953,6,0,B|220:68|220:68|331:76,1,215.999993408203
263,283,60429,2,0,P|233:237|232:172,1,107.999996704102,12|0,0:0|0:0,0:0:0:0:
315,210,60747,1,6,0:0:0:0:
160,327,60905,1,2,0:0:0:0:
136,134,61064,1,12,0:0:0:0:
388,173,61223,6,0,B|395:226|395:226|368:273,1,107.999996704102,0|6,0:0|0:0,0:0:0:0:
208,78,61540,1,0,0:0:0:0:
376,51,61699,1,12,0:0:0:0:
315,210,61858,1,0,0:0:0:0:
297,98,62017,1,6,0:0:0:0:
254,286,62175,1,2,0:0:0:0:
438,229,62334,1,12,0:0:0:0:
204,195,62493,6,0,L|80:204,1,107.999996704102,0|6,0:0|0:0,0:0:0:0:
208,78,62810,1,0,0:0:0:0:
304,346,62969,2,12,B|265:243|342:244|307:136,1,215.999993408203,12|6,0:0|0:0,0:0:0:0:
386,294,63445,1,2,0:0:0:0:
204,195,63604,1,12,0:0:0:0:
380,86,63763,1,0,0:0:0:0:
254,286,63922,6,0,L|142:309,1,107.999996704102,6|0,0:0|0:0,0:0:0:0:
63,71,64239,2,0,L|175:94,1,107.999996704102,12|0,0:0|0:0,0:0:0:0:
155,172,64477,1,0,0:0:0:0:
155,172,64557,2,0,B|204:195|204:195|276:180,1,107.999996704102,6|2,0:0|0:0,0:0:0:0:
332,92,64874,1,12,0:0:0:0:
359,384,65033,6,0,B|420:294|420:294|401:188,1,215.999993408203
162,89,65509,2,0,B|185:137|185:137|246:159,1,107.999996704102,12|0,0:0|0:0,0:0:0:0:
319,0,65827,2,0,B|267:18|267:18|244:66,1,107.999996704102,6|2,0:0|0:0,0:0:0:0:
347,171,66144,1,12,0:0:0:0:
216,234,66303,1,0,0:0:0:0:
442,251,66462,6,0,B|464:202|464:202|457:131,1,107.999996704102,6|0,0:0|0:0,0:0:0:0:
296,262,66779,2,0,B|290:316|290:316|312:365,1,107.999996704102,12|0,0:0|0:0,0:0:0:0:
383,120,67097,1,6,0:0:0:0:
144,194,67255,1,2,0:0:0:0:
296,262,67414,1,12,0:0:0:0:
277,94,67573,1,0,0:0:0:0:
319,189,67732,5,6,0:0:0:0:
165,88,67891,1,8,0:0:0:0:
329,5,68050,1,4,0:0:0:0:
229,197,68208,1,2,0:0:0:0:
112,14,68367,1,12,0:0:0:0:
277,94,68526,1,0,0:0:0:0:
31,168,68685,1,8,0:0:0:0:
219,345,68843,1,8,0:0:0:0:
366,149,69002,6,0,B|329:102|275:93,1,107.999996704102,6|0,0:0|0:0,0:0:0:0:
355,319,69319,2,0,B|409:310|450:258,1,107.999996704102,12|0,0:0|0:0,0:0:0:0:
280,188,69637,1,6,0:0:0:0:
219,345,69795,2,0,L|199:234,1,107.999996704102,2|12,0:0|0:0,0:0:0:0:
0,84,70113,6,0,B|91:26|91:26|205:49,1,215.999993408203
179,230,70589,2,0,P|131:205|112:149,1,107.999996704102,12|0,0:0|0:0,0:0:0:0:
294,99,70907,1,6,0:0:0:0:
253,286,71066,1,2,0:0:0:0:
196,47,71224,1,12,0:0:0:0:
431,117,71383,6,0,L|420:228,1,107.999996704102,0|6,0:0|0:0,0:0:0:0:
189,176,71701,1,0,0:0:0:0:
346,0,71859,1,12,0:0:0:0:
312,154,72018,1,0,0:0:0:0:
196,47,72177,1,6,0:0:0:0:
252,256,72336,1,2,0:0:0:0:
43,199,72494,1,12,0:0:0:0:
212,355,72653,6,0,L|329:340,1,107.999996704102,0|6,0:0|0:0,0:0:0:0:
312,154,72971,1,0,0:0:0:0:
427,323,73129,2,0,B|410:269|410:269|444:173|444:173|430:113,1,215.999993408203,12|6,0:0|0:0,0:0:0:0:
318,231,73606,1,2,0:0:0:0:
355,10,73764,1,12,0:0:0:0:
145,88,73923,1,8,0:0:0:0:
92,310,74082,6,0,B|137:340|137:340|224:328,1,107.999996704102,6|0,0:0|0:0,0:0:0:0:
312,154,74400,2,0,B|258:146|258:146|213:176,1,107.999996704102,12|0,0:0|0:0,0:0:0:0:
351,254,74717,1,6,0:0:0:0:
433,109,74876,2,0,L|455:259,1,107.999996704102,2|12,0:0|0:0,0:0:0:0:
262,63,75193,6,0,B|370:74|349:-1|463:5,1,215.999993408203
361,179,75670,1,6,0:0:0:0:
510,112,75828,1,0,0:0:0:0:
363,35,75987,1,6,0:0:0:0:
470,216,76146,2,0,L|485:365,1,107.999996704102,2|12,0:0|0:0,0:0:0:0:
313,285,76463,1,0,0:0:0:0:
148,133,76622,6,0,P|205:106|256:108,1,107.999996704102,6|0,0:0|0:0,0:0:0:0:
165,285,76940,2,0,P|111:283|64:258,1,107.999996704102,12|0,0:0|0:0,0:0:0:0:
89,40,77257,1,6,0:0:0:0:
220,197,77416,1,8,0:0:0:0:
291,6,77575,1,4,0:0:0:0:
148,133,77733,1,2,0:0:0:0:
350,189,77892,5,8,0:0:0:0:
106,234,78051,1,0,0:0:0:0:
333,85,78210,5,8,0:0:0:0:
89,40,78369,1,0,0:0:0:0:
220,197,78527,5,0,0:0:0:0:
291,6,78686,1,8,0:0:0:0:
420,162,78845,1,8,0:0:0:0:
189,44,79003,6,0,B|90:39|90:39|-3:102,1,198.000006042481,6|0,0:0|0:0,0:0:0:0:
106,234,79480,2,0,B|125:188|125:188|112:122,1,99.0000030212403,12|0,0:0|0:0,0:0:0:0:
0,234,79797,1,6,0:0:0:0:
197,299,79956,1,2,0:0:0:0:
82,354,80115,1,12,0:0:0:0:
220,197,80273,6,0,B|267:140|333:152|333:152|325:115|347:77,1,198.000006042481,2|2,0:0|0:0,0:0:0:0:
125,189,80750,2,0,P|132:237|159:278,1,99.0000030212403,12|0,0:0|0:0,0:0:0:0:
182,114,81067,1,6,0:0:0:0:
45,218,81226,1,2,0:0:0:0:
220,197,81385,1,12,0:0:0:0:
115,56,81544,6,0,B|166:40|202:10|202:10|251:35|322:39,1,198.000006042481,2|2,0:0|0:0,0:0:0:0:
341,202,82020,2,0,B|299:175|299:175|281:116,1,99.0000030212403,12|0,0:0|0:0,0:0:0:0:
428,210,82337,1,6,0:0:0:0:
300,283,82496,1,2,0:0:0:0:
509,321,82655,1,8,0:0:0:0:
424,111,82814,6,0,B|349:36|319:112|246:38,1,198.000006042481,6|6,0:0|0:0,0:0:0:0:
483,47,83290,1,8,0:0:0:0:
336,269,83449,2,0,L|343:161,1,99.0000030212403,6|0,0:0|0:0,0:0:0:0:
189,61,83766,1,6,0:0:0:0:
242,290,83925,1,8,0:0:0:0:
429,101,84084,6,0,B|330:86|330:86|234:130,1,198.000006042481,6|2,0:0|0:0,0:0:0:0:
333,299,84560,2,0,L|342:190,1,99.0000030212403,12|0,0:0|0:0,0:0:0:0:
242,290,84877,1,6,0:0:0:0:
432,207,85036,1,2,0:0:0:0:
266,84,85195,1,8,0:0:0:0:
158,339,85354,6,0,B|121:233|196:249|158:146,1,198.000006042481,6|2,0:0|0:0,0:0:0:0:
9,141,85830,2,0,P|54:185|121:196,1,99.0000030212403,12|0,0:0|0:0,0:0:0:0:
103,78,86147,1,6,0:0:0:0:
26,283,86306,1,2,0:0:0:0:
243,248,86465,1,8,0:0:0:0:
245,103,86624,6,0,B|294:102|336:136|336:136|383:105|457:127,1,198.000006042481,6|2,0:0|0:0,0:0:0:0:
427,293,87100,2,0,P|398:253|394:204,1,99.0000030212403,12|0,0:0|0:0,0:0:0:0:
398,33,87417,1,6,0:0:0:0:
507,153,87576,1,2,0:0:0:0:
264,190,87735,1,8,0:0:0:0:
293,347,87894,6,0,B|245:340|215:357|215:357|189:333|135:324,1,148.50000453186,6|0,0:0|0:0,0:0:0:0:
122,327,88212,1,8,0:0:0:0:
53,113,88370,1,0,0:0:0:0:
264,190,88529,1,0,0:0:0:0:
50,271,88688,1,8,0:0:0:0:
146,92,88847,1,0,0:0:0:0:
154,328,89005,1,0,0:0:0:0:
253,82,89164,5,4,0:0:0:0:
