osu file format v12

[General]
AudioFilename: 03 Xanandra.mp3
AudioLeadIn: 2000
PreviewTime: 58274
Countdown: 0
SampleSet: None
StackLeniency: 0.5
Mode: 0
LetterboxInBreaks: 0
WidescreenStoryboard: 0

[Editor]
Bookmarks: 320,5400,10481,15562,20642,25723,30804,35884,40965,46046,51127,58748,63828,68909,89232,94313,99393,104474,109555,146390,148930,160362,170523,175604,180685,185765,190846,195927,208629,223871,228951,246734,249274,250544,254355,258165
DistanceSpacing: 1.2
BeatDivisor: 4
GridSize: 4

[Metadata]
Title:Xanandra
TitleUnicode:Xanandra
Artist:Mago de Oz
ArtistUnicode:Mago de Oz
Creator:Xanandra
Version:Sieg's Hard
Source:
Tags:Sieg -Anhedonia- kazukisinx mancusojuanmattos mancuso_JM_
BeatmapID:249032
BeatmapSetID:74313

[Difficulty]
HPDrainRate:6
CircleSize:4
OverallDifficulty:7
ApproachRate:8
SliderMultiplier:1.3
SliderTickRate:1

[Events]
//Background and Video events
0,0,"clip (2013-01-20 at 09.10.37).jpg",0,0
//Break Periods
2,79160,87101
2,137741,145681
//Storyboard Layer 0 (Background)
//Storyboard Layer 1 (Fail)
//Storyboard Layer 2 (Pass)
//Storyboard Layer 3 (Foreground)
//Storyboard Sound Samples
//Background Colour Transformations
3,100,0,0,0

[TimingPoints]
377,317.510715986665,4,3,4,80,1,0
535,-100,4,3,3,80,0,0
5298,-100,4,3,4,80,0,0
5615,-100,4,3,3,80,0,0
6568,-100,4,3,4,80,0,0
6885,-100,4,3,3,80,0,0
7838,-100,4,3,4,80,0,0
8156,-100,4,3,3,80,0,0
9108,-100,4,3,4,80,0,0
9584,-100,4,3,3,80,0,0
10378,-100,4,3,4,80,0,0
10696,-100,4,3,3,80,0,0
11648,-100,4,3,4,80,0,0
11649,-100,4,3,3,80,0,0
11966,-100,4,3,3,80,0,0
14029,-100,4,3,4,80,0,0
14188,-100,4,3,3,80,0,0
14664,-100,4,3,4,80,0,0
15300,-100,4,3,3,80,0,0
15458,-100,4,3,4,80,0,0
15776,-100,4,3,3,80,0,0
16728,-100,4,3,4,80,0,0
17046,-100,4,3,3,80,0,0
17998,-100,4,3,4,80,0,0
18316,-100,4,3,3,80,0,0
19268,-100,4,3,4,80,0,0
19745,-100,4,3,3,80,0,0
20538,-100,4,3,4,80,0,0
20856,-100,4,3,3,80,0,0
30699,-100,4,3,4,80,0,0
31016,-100,4,3,3,80,0,0
40859,-100,4,3,4,80,0,0
41177,-100,4,3,5,80,0,0
45939,-100,4,3,4,80,0,0
46416,-100,4,3,5,80,0,0
51019,-100,4,3,4,80,0,0
51496,-100,4,3,5,80,0,0
53560,-100,4,3,4,80,0,0
53877,-100,4,3,5,80,0,0
54830,-100,4,3,4,80,0,0
55147,-100,4,3,5,80,0,0
55465,-100,4,3,4,80,0,0
55623,-100,4,3,5,80,0,0
57370,-100,4,3,4,80,0,0
58798,-100,4,3,3,80,0,1
63879,-100,4,3,4,80,0,1
64196,-100,4,3,3,80,0,1
66419,-100,4,3,4,80,0,1
66577,-100,4,3,3,80,0,1
67689,-100,4,3,4,80,0,1
67848,-100,4,3,3,80,0,1
68959,-100,4,3,4,80,0,1
69276,-100,4,3,5,80,0,1
74039,-100,4,3,4,80,0,1
74356,-100,4,3,5,80,0,1
75309,-100,4,3,4,80,0,1
75627,-100,4,3,5,80,0,1
76579,-100,4,3,4,80,0,0
76897,-100,4,3,5,80,0,0
78960,-100,4,3,4,80,0,0
87851,-100,4,3,3,80,0,0
89121,-100,4,3,4,80,0,0
89438,-100,4,3,3,80,0,0
99281,-100,4,3,4,80,0,0
99599,-100,4,3,3,80,0,0
99757,-100,4,3,5,80,0,0
104361,-100,4,3,4,80,0,0
104679,-100,4,3,3,80,0,0
104838,-100,4,3,5,80,0,0
109441,-100,4,3,4,80,0,0
109759,-100,4,3,3,80,0,0
109918,-100,4,3,5,80,0,0
113252,-100,4,3,4,80,0,0
113569,-100,4,3,3,80,0,0
113728,-100,4,3,5,80,0,0
113887,-100,4,3,4,80,0,0
114045,-100,4,3,5,80,0,0
115792,-100,4,3,4,80,0,0
117220,-100,4,3,3,80,0,1
122301,-100,4,3,4,80,0,1
122618,-100,4,3,3,80,0,1
124841,-100,4,3,4,80,0,1
124999,-100,4,3,3,80,0,1
126111,-100,4,3,4,80,0,1
126269,-100,4,3,3,80,0,1
127381,-100,4,3,4,80,0,1
127698,-100,4,3,5,80,0,1
132461,-100,4,3,4,80,0,1
132778,-100,4,3,5,80,0,1
133731,-100,4,3,4,80,0,1
134049,-100,4,3,5,80,0,1
135001,-100,4,3,4,80,0,0
135319,-100,4,3,5,80,0,0
137382,-100,4,3,4,80,0,0
149289,-100,4,3,3,80,0,0
153734,-100,4,3,4,80,0,0
154369,-100,4,3,3,80,0,0
155322,-100,4,3,4,80,0,0
155639,-100,4,3,3,80,0,0
157862,-100,4,3,4,80,0,0
160719,-100,4,3,5,80,0,0
165323,-100,4,3,4,80,0,0
165800,-100,4,3,5,80,0,0
170403,-100,4,3,4,80,0,0
170721,-100,4,3,3,80,0,0
170880,-100,4,3,5,80,0,0
175484,-100,4,3,4,80,0,0
175801,-100,4,3,3,80,0,0
175960,-100,4,3,5,80,0,0
180564,-100,4,3,4,80,0,0
180881,-100,4,3,3,80,0,0
181040,-100,4,3,5,80,0,0
183104,-100,4,3,4,80,0,0
183421,-100,4,3,3,80,0,0
183580,-100,4,3,5,80,0,0
185644,-100,4,3,4,80,0,0
185962,-100,4,3,3,80,0,0
186120,-100,4,3,5,80,0,0
186914,-100,4,3,4,80,0,0
187232,-100,4,3,3,80,0,0
187390,-100,4,3,5,80,0,0
188184,-100,4,3,4,80,0,0
188502,-100,4,3,3,80,0,0
188660,-100,4,3,5,80,0,0
189295,-100,4,3,4,80,0,0
189454,-100,4,3,5,80,0,0
190407,-100,4,3,3,80,0,0
190565,-100,4,3,5,80,0,0
190724,-100,4,3,4,80,0,0
191042,-100,4,3,3,80,0,0
191200,-100,4,3,5,80,0,0
195804,-100,4,3,4,80,0,0
196122,-100,4,3,3,80,0,0
196281,-100,4,3,5,80,0,0
197074,-100,4,3,4,80,0,0
197392,-100,4,3,3,80,0,0
197551,-100,4,3,5,80,0,0
198344,-100,4,3,4,80,0,0
198662,-100,4,3,3,80,0,0
198821,-100,4,3,5,80,0,0
199932,-100,4,3,4,80,0,0
200091,-100,4,3,5,80,0,0
200249,-100,4,3,3,80,0,0
200408,-100,4,3,5,80,0,0
200567,-100,4,3,3,80,0,0
200726,-100,4,3,5,80,0,0
200885,-100,4,3,4,80,0,0
201202,-100,4,3,3,80,0,0
201361,-100,4,3,5,80,0,0
204695,-100,4,3,4,80,0,0
205012,-100,4,3,5,80,0,0
207235,-100,4,3,4,80,0,0
208664,-100,4,3,3,80,0,1
213744,-100,4,3,4,80,0,1
214061,-100,4,3,3,80,0,1
216284,-100,4,3,4,80,0,1
216443,-100,4,3,3,80,0,1
217554,-100,4,3,4,80,0,1
217713,-100,4,3,3,80,0,1
218824,-100,4,3,4,80,0,1
219141,-100,4,3,5,80,0,1
223904,-100,4,3,4,80,0,1
224222,-100,4,3,5,80,0,1
225174,-100,4,3,4,80,0,1
225492,-100,4,3,5,80,0,1
226444,-100,4,3,4,80,0,0
228984,-100,4,3,3,80,0,1
234064,-100,4,3,4,80,0,1
234382,-100,4,3,3,80,0,1
236604,-100,4,3,4,80,0,1
236763,-100,4,3,3,80,0,1
237875,-100,4,3,4,80,0,1
238033,-100,4,3,3,80,0,1
239145,-100,4,3,4,80,0,1
239462,-100,4,3,5,80,0,1
244225,-100,4,3,4,80,0,1
244542,-100,4,3,5,80,0,1
245495,-100,4,3,4,80,0,1
245812,-100,4,3,5,80,0,1
246765,-100,4,3,4,80,0,0
247082,-100,4,3,3,80,0,0
248035,-100,4,3,3,80,0,1
248987,-100,4,3,4,80,0,0
249464,-100,4,3,3,80,0,0
249622,-100,4,3,4,80,0,0
249940,-100,4,3,3,80,0,0
254226,-100,4,3,4,80,0,0
254544,-100,4,3,3,80,0,0
255496,-100,4,3,4,80,0,0
255814,-100,4,3,3,80,0,0
256766,-100,4,3,4,80,0,0
257084,-100,4,3,3,80,0,0
258036,-100,4,3,4,80,0,0
258513,-100,4,3,3,80,0,0
259306,-100,4,3,4,80,0,0

[Colours]
Combo1 : 225,175,125
Combo2 : 75,150,75
Combo3 : 225,225,150
Combo4 : 0,150,150

[HitObjects]
72,48,218,54,0,P|114:85|105:160,1,130,12|8,0:0|0:0,0:0:0:0:
72,224,694,1,6,0:0:0:0:
156,356,1012,2,0,P|180:336|195:302,1,65,12|8,0:0|0:0,0:0:0:0:
214,230,1329,1,6,0:0:0:0:
365,185,1488,6,0,P|420:179|469:237,1,130,8|8,0:0|0:0,0:0:0:0:
481,307,1964,1,6,0:0:0:0:
324,313,2282,2,0,P|296:301|276:273,1,65,12|8,0:0|0:0,0:0:0:0:
240,205,2599,1,6,0:0:0:0:
332,79,2758,6,0,P|369:37|444:46,1,130,8|8,0:0|0:0,0:0:0:0:
500,89,3234,1,6,0:0:0:0:
509,244,3552,1,12,0:0:0:0:
473,313,3710,1,8,0:0:0:0:
401,345,3869,1,6,0:0:0:0:
245,348,4028,6,0,P|195:316|127:323,1,130,8|8,0:0|0:0,0:0:0:0:
57,359,4504,1,6,0:0:0:0:
29,205,4822,1,12,0:0:0:0:
10,128,4980,1,8,0:0:0:0:
34,53,5139,1,6,0:0:0:0:
188,39,5298,6,0,P|232:87|304:79,1,130,4|8,0:0|0:0,0:0:0:0:
365,54,5774,1,6,0:0:0:0:
466,172,6092,2,0,P|485:204|481:236,1,65,12|8,0:0|0:0,0:0:0:0:
464,307,6409,1,6,0:0:0:0:
325,237,6568,6,0,B|285:277|285:277|257:245|205:249,1,130,4|8,0:0|0:0,0:0:0:0:
141,247,7044,1,6,0:0:0:0:
174,95,7362,2,0,P|134:91|102:99,1,65,12|8,0:0|0:0,0:0:0:0:
40,131,7679,1,6,0:0:0:0:
95,287,7838,6,0,B|117:279|138:239|138:239|171:259|203:255,1,130,4|8,0:0|0:0,0:0:0:0:
276,242,8314,1,6,0:0:0:0:
429,215,8632,1,12,0:0:0:0:
477,276,8791,1,8,0:0:0:0:
472,353,8949,1,6,0:0:0:0:
316,358,9108,6,0,P|236:354|204:246,1,195,4|6,0:0|0:0,0:0:0:0:
263,115,9902,1,12,0:0:0:0:
338,96,10061,1,8,0:0:0:0:
414,112,10219,1,6,0:0:0:0:
268,78,10378,6,0,B|252:32|208:32|208:32|149:32,1,130,4|8,0:0|0:0,0:0:0:0:
34,156,10854,2,0,B|50:110|94:110|94:110|153:110,1,130,6|12,0:0|0:0,0:0:0:0:
221,110,11331,1,8,0:0:0:0:
298,110,11489,1,6,0:0:0:0:
449,150,11648,6,0,B|450:198|418:226|418:226|420:288,1,130,4|8,0:0|0:0,0:0:0:0:
318,355,12124,2,0,B|317:307|349:279|349:279|347:217,1,130,6|12,0:0|0:0,0:0:0:0:
351,155,12601,1,8,0:0:0:0:
351,77,12759,1,6,0:0:0:0:
206,115,12918,6,0,B|184:123|163:163|163:163|130:143|98:147,1,130,4|8,0:0|0:0,0:0:0:0:
74,267,13394,2,0,B|96:259|117:219|117:219|150:239|182:235,1,130,6|12,0:0|0:0,0:0:0:0:
255,248,13871,1,8,0:0:0:0:
314,196,14029,1,6,0:0:0:0:
330,40,14188,6,0,P|426:63|433:152,1,195,4|6,0:0|0:0,0:0:0:0:
328,338,14982,1,12,0:0:0:0:
250,347,15141,1,12,0:0:0:0:
176,321,15300,1,6,0:0:0:0:
62,214,15458,6,0,P|49:150|89:99,1,130,12|8,0:0|0:0,0:0:0:0:
162,235,15935,2,0,P|197:184|185:121,1,130,6|12,0:0|0:0,0:0:0:0:
142,55,16411,1,8,0:0:0:0:
68,29,16570,1,6,0:0:0:0:
35,182,16728,6,0,P|94:212|157:207,1,130,4|8,0:0|0:0,0:0:0:0:
222,165,17205,2,0,P|289:162|347:191,1,130,6|12,0:0|0:0,0:0:0:0:
400,243,17681,1,8,0:0:0:0:
450,302,17840,1,6,0:0:0:0:
299,342,17998,6,0,B|238:362|238:362|193:306,1,130,4|8,0:0|0:0,0:0:0:0:
265,272,18475,2,0,B|244:211|244:211|300:166,1,130,6|12,0:0|0:0,0:0:0:0:
362,129,18951,1,8,0:0:0:0:
425,83,19110,1,6,0:0:0:0:
272,50,19268,6,0,P|176:74|85:18,1,195,4|6,0:0|0:0,0:0:0:0:
21,168,20062,1,12,0:0:0:0:
26,245,20221,1,8,0:0:0:0:
70,309,20380,1,6,0:0:0:0:
141,340,20538,2,0,P|225:307|267:329,1,130,4|8,0:0|0:0,0:0:0:0:
407,364,21015,6,0,B|435:328|363:296|411:232,1,130,6|12,0:0|0:0,0:0:0:0:
478,103,21650,2,0,P|418:119|358:79,1,130,6|12,0:0|0:0,0:0:0:0:
211,46,22285,2,0,L|79:74,2,130,6|12|6,0:0|0:0|0:0,0:0:0:0:
288,38,23079,1,8,0:0:0:0:
354,78,23237,5,4,0:0:0:0:
324,149,23396,1,8,0:0:0:0:
264,199,23555,2,0,P|208:219|132:183,1,130,6|12,0:0|0:0,0:0:0:0:
156,352,24190,2,0,P|96:346|43:281,1,130,6|12,0:0|0:0,0:0:0:0:
36,144,24825,1,6,0:0:0:0:
36,144,25142,1,12,0:0:0:0:
179,144,25460,1,6,0:0:0:0:
200,69,25619,2,0,P|256:41|312:69,1,130,8|12,0:0|0:0,0:0:0:0:
333,144,26095,5,6,0:0:0:0:
427,334,26412,2,0,P|373:291|359:231,1,130,12|6,0:0|0:0,0:0:0:0:
448,106,27047,2,0,P|380:106|332:145,1,130,12|6,0:0|0:0,0:0:0:0:
154,245,27682,2,0,P|217:254|270:212,1,130,12|6,0:0|0:0,0:0:0:0:
316,154,28159,1,8,0:0:0:0:
345,82,28317,5,4,0:0:0:0:
306,14,28476,1,8,0:0:0:0:
228,8,28635,1,6,0:0:0:0:
54,115,28952,2,0,L|110:73,2,65,12|8|6,0:0|0:0|0:0,0:0:0:0:
60,247,29587,5,8,0:0:0:0:
122,200,29746,1,6,0:0:0:0:
184,247,29905,1,8,0:0:0:0:
247,200,30064,1,8,0:0:0:0:
308,247,30223,1,6,0:0:0:0:
370,200,30381,1,8,0:0:0:0:
431,247,30540,1,2,0:0:0:0:
493,200,30699,1,4,0:0:0:0:
420,61,31016,5,8,0:0:0:0:
342,53,31175,2,0,B|284:66|284:66|290:116|238:132,1,130,6|12,0:0|0:0,0:0:0:0:
72,119,31810,2,0,B|129:105|129:105|146:152|200:144,1,130,6|12,0:0|0:0,0:0:0:0:
271,273,32445,1,6,0:0:0:0:
425,249,32763,2,0,B|402:224|393:192|393:192|358:196|313:180,1,130,12|6,0:0|0:0,0:0:0:0:
252,173,33239,1,0,0:0:0:0:
195,226,33398,5,4,0:0:0:0:
199,303,33556,1,8,0:0:0:0:
228,375,33715,2,0,P|164:372|122:320,1,130,6|12,0:0|0:0,0:0:0:0:
80,174,34350,1,6,0:0:0:0:
167,45,34668,2,0,P|219:21|292:30,2,130,12|6|12,0:0|0:0|0:0,0:0:0:0:
80,174,35620,1,6,0:0:0:0:
155,194,35779,2,0,P|219:221|214:284,1,130,8|12,0:0|0:0,0:0:0:0:
188,345,36255,1,6,0:0:0:0:
404,114,36573,5,12,0:0:0:0:
188,345,36890,1,6,0:0:0:0:
226,31,37208,1,12,0:0:0:0:
380,308,37525,1,6,0:0:0:0:
93,174,37843,1,12,0:0:0:0:
404,114,38160,5,6,0:0:0:0:
449,177,38319,1,8,0:0:0:0:
438,254,38478,1,4,0:0:0:0:
380,308,38637,1,8,0:0:0:0:
305,287,38795,2,0,P|238:260|223:205,1,130,6|12,0:0|0:0,0:0:0:0:
213,130,39272,1,8,0:0:0:0:
147,171,39430,2,0,P|130:124|59:97,1,130,6|8,0:0|0:0,0:0:0:0:
13,33,39907,6,0,P|54:21|94:27,1,65,6|2,0:0|0:0,0:0:0:0:
152,39,40224,1,8,0:0:0:0:
206,94,40383,1,8,0:0:0:0:
230,168,40542,1,8,0:0:0:0:
282,226,40700,1,8,0:0:0:0:
326,289,40859,2,0,P|388:302|431:249,1,130,12|12,0:0|0:0,0:0:0:0:
459,184,41335,5,6,0:0:0:0:
405,37,41653,1,12,0:0:0:0:
326,34,41812,1,8,0:0:0:0:
363,102,41970,1,6,0:0:0:0:
328,253,42288,1,12,0:0:0:0:
252,273,42447,1,8,0:0:0:0:
216,203,42605,2,0,B|192:183|159:204|159:204|145:244|105:244,1,130,6|12,0:0|0:0,0:0:0:0:
31,232,43082,1,8,0:0:0:0:
48,308,43240,2,0,P|115:331|169:309,2,130,6|12|6,0:0|0:0|0:0,0:0:0:0:
15,155,44193,5,12,0:0:0:0:
33,79,44352,1,8,0:0:0:0:
50,2,44510,2,0,P|108:53|107:102,1,130,6|12,0:0|0:0,0:0:0:0:
97,178,44987,1,8,0:0:0:0:
102,255,45146,2,0,P|161:220|172:164,1,130,6|12,0:0|0:0,0:0:0:0:
162,85,45622,1,8,0:0:0:0:
198,16,45781,1,6,0:0:0:0:
275,7,45939,1,4,0:0:0:0:
237,376,46257,5,12,0:0:0:0:
242,298,46416,2,0,P|182:318|161:384,2,130,6|12|6,0:0|0:0|0:0,0:0:0:0:
394,330,47368,1,12,0:0:0:0:
432,261,47527,1,8,0:0:0:0:
493,212,47686,2,0,P|432:183|376:205,1,130,6|12,0:0|0:0,0:0:0:0:
319,256,48162,1,8,0:0:0:0:
276,321,48321,2,0,P|242:264|261:203,1,130,6|12,0:0|0:0,0:0:0:0:
296,137,48797,5,8,0:0:0:0:
355,86,48956,2,0,P|297:60|237:86,1,130,6|12,0:0|0:0,0:0:0:0:
189,144,49432,1,8,0:0:0:0:
153,213,49591,1,6,0:0:0:0:
70,344,49908,5,12,0:0:0:0:
29,277,50067,1,2,0:0:0:0:
24,199,50226,1,12,0:0:0:0:
37,122,50384,1,8,0:0:0:0:
85,60,50543,1,6,0:0:0:0:
146,12,50702,1,8,0:0:0:0:
224,8,50861,1,6,0:0:0:0:
301,16,51019,1,4,0:0:0:0:
450,86,51337,5,12,0:0:0:0:
450,86,51496,2,0,P|441:131|345:146,1,130,6|12,0:0|0:0,0:0:0:0:
297,126,51972,1,8,0:0:0:0:
223,99,52131,2,0,P|158:101|122:167,1,130,6|12,0:0|0:0,0:0:0:0:
118,228,52607,1,8,0:0:0:0:
176,279,52766,2,0,P|239:290|275:348,1,130,6|12,0:0|0:0,0:0:0:0:
352,338,53242,1,8,0:0:0:0:
400,277,53401,1,6,0:0:0:0:
476,294,53560,6,0,B|504:246|432:204|465:169,1,130,4|8,0:0|0:0,0:0:0:0:
493,100,54036,1,6,0:0:0:0:
352,31,54353,1,12,0:0:0:0:
295,85,54512,1,8,0:0:0:0:
217,85,54671,1,6,0:0:0:0:
161,32,54830,1,4,0:0:0:0:
5,23,55147,5,8,0:0:0:0:
69,65,55306,1,6,0:0:0:0:
110,131,55465,1,4,0:0:0:0:
119,208,55623,1,12,0:0:0:0:
94,281,55782,1,8,0:0:0:0:
62,352,55941,2,0,P|129:350|167:304,1,130,6|10,0:0|0:0,0:0:0:0:
194,231,56417,5,8,0:0:0:0:
233,165,56576,1,8,0:0:0:0:
301,127,56735,1,8,0:0:0:0:
378,127,56893,1,8,0:0:0:0:
445,166,57052,1,8,0:0:0:0:
484,232,57211,1,10,0:0:0:0:
485,309,57370,1,12,0:0:0:0:
203,343,58798,6,0,P|186:275|226:225,1,130,8|6,0:0|0:0,0:0:0:0:
151,70,59433,2,0,P|219:89|242:149,1,130,12|6,0:0|0:0,0:0:0:0:
413,162,60069,2,0,P|362:211|299:201,2,130,12|6|12,0:0|0:0|0:0,0:0:0:0:
110,193,61021,5,6,0:0:0:0:
83,119,61180,1,8,0:0:0:0:
106,44,61339,1,4,0:0:0:0:
178,16,61497,1,8,0:0:0:0:
256,16,61656,2,0,P|332:27|374:71,1,130,6|12,0:0|0:0,0:0:0:0:
412,221,62291,5,6,0:0:0:0:
227,348,62609,1,12,0:0:0:0:
100,163,62926,1,6,0:0:0:0:
285,36,63244,1,12,0:0:0:0:
433,83,63561,5,6,0:0:0:0:
472,150,63720,1,12,0:0:0:0:
394,150,63879,2,0,B|372:187|393:219|411:250|395:284,1,130,12|6,0:0|0:0,0:0:0:0:
118,150,64514,2,0,B|140:187|119:219|101:250|117:284,1,130,12|6,0:0|0:0,0:0:0:0:
316,40,65149,2,0,P|256:19|196:40,2,130,12|6|12,0:0|0:0|0:0,0:0:0:0:
431,144,66101,5,6,0:0:0:0:
470,209,66260,1,8,0:0:0:0:
460,285,66419,1,4,0:0:0:0:
403,337,66577,1,8,0:0:0:0:
328,342,66736,2,0,P|266:314|206:331,1,130,6|12,0:0|0:0,0:0:0:0:
132,349,67213,1,8,0:0:0:0:
54,355,67371,2,0,P|50:292|5:242,1,130,6|12,0:0|0:0,0:0:0:0:
7,164,67848,5,6,0:0:0:0:
68,117,68006,1,2,0:0:0:0:
144,103,68165,1,8,0:0:0:0:
216,131,68324,1,12,0:0:0:0:
277,179,68483,1,8,0:0:0:0:
344,219,68641,1,8,0:0:0:0:
421,222,68800,1,8,0:0:0:0:
489,185,68959,1,12,0:0:0:0:
388,64,69276,5,6,0:0:0:0:
197,55,69594,1,12,0:0:0:0:
217,131,69753,1,8,0:0:0:0:
273,79,69912,1,6,0:0:0:0:
61,131,70229,1,12,0:0:0:0:
40,206,70388,1,8,0:0:0:0:
114,189,70546,1,6,0:0:0:0:
117,342,70864,1,12,0:0:0:0:
190,364,71023,1,8,0:0:0:0:
173,287,71181,1,6,0:0:0:0:
364,274,71499,6,0,P|303:233|238:252,2,130,12|6|12,0:0|0:0|0:0,0:0:0:0:
408,337,72293,1,8,0:0:0:0:
482,314,72451,2,0,P|468:265|487:167,1,130,6|12,0:0|0:0,0:0:0:0:
496,111,72928,1,8,0:0:0:0:
431,67,73086,2,0,P|384:88|285:85,1,130,6|12,0:0|0:0,0:0:0:0:
228,87,73563,1,8,0:0:0:0:
153,63,73721,1,6,0:0:0:0:
78,86,73880,1,4,0:0:0:0:
21,140,74039,6,0,P|42:186|39:285,1,130,12|6,0:0|0:0,0:0:0:0:
175,351,74674,1,12,0:0:0:0:
219,286,74833,1,8,0:0:0:0:
229,209,74992,1,6,0:0:0:0:
220,53,75309,2,0,P|149:52|97:93,2,130,12|4|12,0:0|0:0|0:0,0:0:0:0:
295,71,76103,1,8,0:0:0:0:
354,121,76262,1,6,0:0:0:0:
418,272,76579,5,12,0:0:0:0:
256,348,76897,1,12,0:0:0:0:
94,272,77214,1,12,0:0:0:0:
46,209,77373,2,0,P|92:156|82:95,1,130,8|8,0:0|0:0,0:0:0:0:
31,43,77849,5,12,0:0:0:0:
107,27,78008,1,8,0:0:0:0:
163,81,78167,1,12,0:0:0:0:
171,158,78325,1,8,0:0:0:0:
144,231,78484,1,8,0:0:0:0:
132,307,78643,1,8,0:0:0:0:
177,370,78802,1,8,0:0:0:0:
254,357,78960,1,12,0:0:0:0:
258,357,87851,5,12,0:0:0:0:
335,370,88009,1,12,0:0:0:0:
380,307,88168,1,8,0:0:0:0:
368,231,88327,1,6,0:0:0:0:
341,158,88486,1,8,0:0:0:0:
349,81,88644,1,8,0:0:0:0:
405,27,88803,1,8,0:0:0:0:
481,38,88962,1,8,0:0:0:0:
426,100,89121,6,0,P|420:156|466:209,1,130,12|8,0:0|0:0,0:0:0:0:
418,272,89597,1,6,0:0:0:0:
258,358,89915,5,12,0:0:0:0:
140,125,90232,1,6,0:0:0:0:
187,380,90550,1,12,0:0:0:0:
211,120,90867,1,6,0:0:0:0:
116,361,91185,1,12,0:0:0:0:
307,126,91502,5,6,0:0:0:0:
340,198,91661,1,2,0:0:0:0:
416,183,91820,1,4,0:0:0:0:
421,105,91978,1,8,0:0:0:0:
376,40,92137,2,0,P|442:30|498:91,2,130,6|12|6,0:0|0:0|0:0,0:0:0:0:
136,40,93090,2,0,P|70:30|14:91,2,130,12|6|12,0:0|0:0|0:0,0:0:0:0:
188,98,93883,1,8,0:0:0:0:
196,175,94042,1,6,0:0:0:0:
203,252,94201,2,0,B|211:298|211:298|172:344|135:332,1,130,2|8,0:0|0:0,0:0:0:0:
62,327,94677,5,4,0:0:0:0:
129,75,94995,1,12,0:0:0:0:
189,327,95312,1,6,0:0:0:0:
257,75,95630,1,12,0:0:0:0:
315,327,95947,1,6,0:0:0:0:
384,75,96265,1,12,0:0:0:0:
442,327,96582,5,6,0:0:0:0:
459,250,96741,1,8,0:0:0:0:
387,219,96900,1,4,0:0:0:0:
340,155,97059,1,8,0:0:0:0:
331,76,97217,2,0,P|389:38|455:60,1,130,6|12,0:0|0:0,0:0:0:0:
490,114,97694,1,8,0:0:0:0:
447,179,97852,6,0,P|290:206|229:123,1,260,6|6,0:0|0:0,0:0:0:0:
198,71,98646,1,8,0:0:0:0:
133,30,98805,1,8,0:0:0:0:
57,39,98964,1,8,0:0:0:0:
4,94,99122,1,8,0:0:0:0:
4,172,99281,2,0,P|48:221|41:293,1,130,12|12,0:0|0:0,0:0:0:0:
95,342,99757,6,0,P|144:295|215:308,1,130,6|12,0:0|0:0,0:0:0:0:
275,327,100234,1,8,0:0:0:0:
349,349,100392,1,6,0:0:0:0:
420,318,100551,2,0,B|397:275|466:250|437:191,1,130,12|8,0:0|0:0,0:0:0:0:
403,126,101027,2,0,P|339:126|286:82,1,130,6|12,0:0|0:0,0:0:0:0:
244,22,101504,1,8,0:0:0:0:
178,64,101662,1,6,0:0:0:0:
108,28,101821,2,0,B|71:59|126:107|78:152,1,130,12|8,0:0|0:0,0:0:0:0:
21,198,102297,6,0,P|82:227|139:202,1,130,6|12,0:0|0:0,0:0:0:0:
201,160,102774,1,8,0:0:0:0:
251,101,102932,2,0,P|323:65|374:92,1,130,6|12,0:0|0:0,0:0:0:0:
414,142,103409,1,8,0:0:0:0:
393,216,103567,2,0,P|321:252|270:225,1,130,6|12,0:0|0:0,0:0:0:0:
216,188,104044,1,8,0:0:0:0:
139,172,104203,1,6,0:0:0:0:
62,186,104361,1,4,0:0:0:0:
58,342,104679,5,12,0:0:0:0:
134,357,104838,2,0,P|170:344|206:262,1,130,6|12,0:0|0:0,0:0:0:0:
216,188,105314,1,8,0:0:0:0:
200,111,105473,2,0,B|192:63|192:63|225:23|280:37,1,130,6|12,0:0|0:0,0:0:0:0:
341,42,105949,1,8,0:0:0:0:
419,43,106108,2,0,B|427:91|427:91|394:131|339:117,1,130,6|12,0:0|0:0,0:0:0:0:
277,112,106584,1,8,0:0:0:0:
286,189,106743,2,0,L|307:325,1,130,6|12,0:0|0:0,0:0:0:0:
360,372,107219,5,8,0:0:0:0:
378,295,107378,2,0,L|510:266,1,130,6|12,0:0|0:0,0:0:0:0:
504,188,107854,1,8,0:0:0:0:
472,116,108013,1,6,0:0:0:0:
396,116,108171,2,0,P|328:132|292:176,1,130,8|8,0:0|0:0,0:0:0:0:
240,233,108648,1,12,0:0:0:0:
191,294,108806,1,0,0:0:0:0:
147,358,108965,1,6,0:0:0:0:
74,327,109124,1,8,0:0:0:0:
20,270,109283,1,6,0:0:0:0:
10,192,109441,1,4,0:0:0:0:
78,51,109759,5,12,0:0:0:0:
138,99,109918,2,0,B|169:94|200:104|200:104|225:79|258:74,1,130,6|12,0:0|0:0,0:0:0:0:
330,42,110394,1,8,0:0:0:0:
388,93,110553,1,6,0:0:0:0:
345,158,110711,2,0,P|300:206|304:269,1,130,12|8,0:0|0:0,0:0:0:0:
329,340,111188,2,0,B|360:343|387:361|387:361|418:344|456:352,1,130,6|12,0:0|0:0,0:0:0:0:
509,295,111664,1,8,0:0:0:0:
501,217,111823,1,6,0:0:0:0:
475,143,111982,1,4,0:0:0:0:
431,78,112140,5,12,0:0:0:0:
361,41,112299,1,8,0:0:0:0:
285,60,112458,2,0,P|219:86|151:71,1,130,6|12,0:0|0:0,0:0:0:0:
88,51,112934,1,8,0:0:0:0:
22,93,113093,1,6,0:0:0:0:
28,170,113252,1,4,0:0:0:0:
62,321,113569,5,8,0:0:0:0:
135,301,113728,1,6,0:0:0:0:
181,239,113887,1,4,0:0:0:0:
229,179,114045,1,12,0:0:0:0:
305,169,114204,1,8,0:0:0:0:
381,185,114363,2,0,B|393:223|447:235|447:235|463:290,1,130
487,348,114839,5,8,0:0:0:0:
414,376,114998,1,8,0:0:0:0:
335,379,115157,1,8,0:0:0:0:
273,330,115315,1,8,0:0:0:0:
246,256,115474,1,8,0:0:0:0:
230,179,115633,1,10,0:0:0:0:
236,101,115792,1,12,0:0:0:0:
126,321,117220,6,0,B|112:283|131:247|131:247|122:193,1,130,8|6,0:0|0:0,0:0:0:0:
273,33,117855,2,0,B|287:71|268:107|268:107|277:160,1,130,12|6,0:0|0:0,0:0:0:0:
451,301,118490,2,0,B|455:260|428:229|428:229|423:175,2,130,12|6|12,0:0|0:0|0:0,0:0:0:0:
300,341,119443,5,6,0:0:0:0:
255,276,119602,1,8,0:0:0:0:
193,227,119761,1,4,0:0:0:0:
116,212,119919,1,8,0:0:0:0:
39,225,120078,2,0,B|26:267|53:286|69:316|47:356,1,130,6|12,0:0|0:0,0:0:0:0:
125,79,120713,5,6,0:0:0:0:
369,61,121031,1,12,0:0:0:0:
387,305,121348,1,6,0:0:0:0:
143,323,121666,1,12,0:0:0:0:
222,188,121983,5,6,0:0:0:0:
184,119,122142,1,12,0:0:0:0:
214,47,122301,2,0,B|159:29|124:70|124:70|74:56,1,130,12|6,0:0|0:0,0:0:0:0:
298,47,122936,2,0,B|353:29|388:70|388:70|438:56,1,130,12|6,0:0|0:0,0:0:0:0:
298,178,123571,2,0,B|353:196|388:155|388:155|438:169,2,130,12|6|12,0:0|0:0|0:0,0:0:0:0:
182,73,124523,5,6,0:0:0:0:
115,32,124682,1,8,0:0:0:0:
39,51,124841,1,4,0:0:0:0:
5,121,124999,1,8,0:0:0:0:
49,185,125158,2,0,P|77:247|60:307,1,130,6|12,0:0|0:0,0:0:0:0:
18,370,125634,1,8,0:0:0:0:
95,379,125793,2,0,P|145:341|213:343,1,130,6|12,0:0|0:0,0:0:0:0:
286,362,126269,5,6,0:0:0:0:
362,349,126428,1,2,0:0:0:0:
413,290,126587,1,8,0:0:0:0:
393,214,126746,1,12,0:0:0:0:
327,170,126905,1,8,0:0:0:0:
262,126,127063,1,8,0:0:0:0:
233,53,127222,1,8,0:0:0:0:
294,5,127381,1,12,0:0:0:0:
435,71,127698,5,6,0:0:0:0:
393,214,128016,1,12,0:0:0:0:
393,214,128175,1,8,0:0:0:0:
393,214,128333,1,6,0:0:0:0:
256,344,128651,1,12,0:0:0:0:
256,344,128810,1,8,0:0:0:0:
256,344,128968,1,6,0:0:0:0:
119,214,129286,1,12,0:0:0:0:
119,214,129445,1,8,0:0:0:0:
119,214,129603,1,6,0:0:0:0:
256,140,129921,6,0,B|280:100|256:76|236:44|256:8,2,130,12|6|12,0:0|0:0|0:0,0:0:0:0:
216,208,130715,1,8,0:0:0:0:
152,252,130873,2,0,P|112:300|106:366,1,130,6|12,0:0|0:0,0:0:0:0:
184,380,131350,1,8,0:0:0:0:
236,321,131508,2,0,P|172:304|105:320,1,130,6|12,0:0|0:0,0:0:0:0:
38,347,131985,1,8,0:0:0:0:
52,270,132143,1,6,0:0:0:0:
23,197,132302,1,4,0:0:0:0:
57,127,132461,6,0,P|103:148|202:145,1,130,12|6,0:0|0:0,0:0:0:0:
300,49,133096,1,12,0:0:0:0:
223,31,133255,1,8,0:0:0:0:
151,60,133413,1,6,0:0:0:0:
253,177,133731,2,0,P|324:178|376:137,2,130,12|4|12,0:0|0:0|0:0,0:0:0:0:
191,129,134525,1,8,0:0:0:0:
151,60,134684,1,6,0:0:0:0:
339,117,135001,5,12,0:0:0:0:
457,219,135319,1,12,0:0:0:0:
350,332,135636,1,12,0:0:0:0:
298,273,135795,2,0,P|245:227|184:237,1,130,8|8,0:0|0:0,0:0:0:0:
125,279,136271,5,12,0:0:0:0:
84,212,136430,1,8,0:0:0:0:
104,136,136589,1,12,0:0:0:0:
174,102,136747,1,8,0:0:0:0:
252,100,136906,1,8,0:0:0:0:
318,139,137065,1,8,0:0:0:0:
361,203,137224,1,8,0:0:0:0:
434,229,137382,1,12,0:0:0:0:
510,215,137541,1,12,0:0:0:0:
120,312,146431,5,12,0:0:0:0:
432,80,146908,1,12,0:0:0:0:
80,248,147384,1,12,0:0:0:0:
456,148,147860,1,12,0:0:0:0:
68,172,148336,5,12,0:0:0:0:
46,96,148495,1,2,0:0:0:0:
89,30,148654,1,2,0:0:0:0:
166,23,148813,1,10,0:0:0:0:
233,62,148972,6,0,P|288:78|352:46,1,130,12|6,0:0|0:0,0:0:0:0:
210,268,149607,2,0,P|260:219|326:210,1,130,12|6,0:0|0:0,0:0:0:0:
469,242,150242,1,12,0:0:0:0:
470,242,150559,1,6,0:0:0:0:
283,363,150877,2,0,P|221:315|209:259,1,130,12|6,0:0|0:0,0:0:0:0:
396,157,151512,6,0,P|383:88|331:53,1,130,12|6,0:0|0:0,0:0:0:0:
76,205,152147,2,0,P|141:193|186:140,1,130,12|6,0:0|0:0,0:0:0:0:
396,158,152782,2,0,P|455:204|475:256,1,130,12|6,0:0|0:0,0:0:0:0:
357,357,153417,1,12,0:0:0:0:
358,357,153734,1,6,0:0:0:0:
164,273,154052,6,0,P|128:233|53:234,1,130,12|6,0:0|0:0,0:0:0:0:
117,24,154687,2,0,P|137:85|193:111,1,130,12|6,0:0|0:0,0:0:0:0:
340,114,155322,1,12,0:0:0:0:
340,114,155639,1,6,0:0:0:0:
452,334,155957,2,0,P|430:273|370:242,1,130,12|6,0:0|0:0,0:0:0:0:
98,214,156592,2,0,P|120:275|180:306,1,130,12|6,0:0|0:0,0:0:0:0:
354,182,157227,2,0,P|404:139|395:73,1,130,12|6,0:0|0:0,0:0:0:0:
241,31,157862,5,12,0:0:0:0:
96,205,158338,1,12,0:0:0:0:
269,351,158814,1,12,0:0:0:0:
415,177,159291,1,12,0:0:0:0:
241,31,159767,5,12,0:0:0:0:
172,69,159926,1,2,0:0:0:0:
97,90,160084,1,0,0:0:0:0:
18,86,160243,1,2,0:0:0:0:
23,163,160402,6,0,P|31:228|3:296,2,130,12|6|12,0:0|0:0|0:0,0:0:0:0:
100,167,161196,1,8,0:0:0:0:
154,222,161354,2,0,P|212:165|268:152,1,130,6|12,0:0|0:0,0:0:0:0:
336,156,161831,1,8,0:0:0:0:
346,233,161989,2,0,B|378:273|360:304|344:331|377:363,1,130,6|12,0:0|0:0,0:0:0:0:
439,319,162466,1,8,0:0:0:0:
461,244,162624,2,0,B|484:198|461:171|440:148|466:110,1,130,6|12,0:0|0:0,0:0:0:0:
497,49,163101,5,8,0:0:0:0:
420,35,163259,2,0,B|390:54|356:43|356:43|335:77|304:73,1,130,6|12,0:0|0:0,0:0:0:0:
228,87,163736,1,8,0:0:0:0:
150,74,163895,2,0,B|118:77|97:43|97:43|63:54|34:35,1,130,6|12,0:0|0:0,0:0:0:0:
5,107,164371,1,8,0:0:0:0:
78,133,164530,2,0,B|66:166|32:180|32:180|42:247,1,130,6|12,0:0|0:0,0:0:0:0:
48,319,165006,1,8,0:0:0:0:
110,366,165165,1,6,0:0:0:0:
187,359,165323,1,4,0:0:0:0:
174,203,165641,5,12,0:0:0:0:
209,272,165800,2,0,P|248:222|237:159,1,130,6|12,0:0|0:0,0:0:0:0:
192,95,166276,1,8,0:0:0:0:
132,44,166435,2,0,P|190:17|254:48,1,130,6|12,0:0|0:0,0:0:0:0:
298,99,166911,1,8,0:0:0:0:
339,165,167070,2,0,P|375:110|358:50,1,130,6|12,0:0|0:0,0:0:0:0:
433,25,167546,1,8,0:0:0:0:
478,87,167705,2,0,P|442:142|459:202,1,130,6|12,0:0|0:0,0:0:0:0:
502,265,168181,5,8,0:0:0:0:
453,325,168340,2,0,P|398:361|338:344,1,130,6|12,0:0|0:0,0:0:0:0:
284,289,168816,1,8,0:0:0:0:
217,248,168975,2,0,P|272:212|332:229,1,130,6|12,0:0|0:0,0:0:0:0:
384,171,169451,1,2,0:0:0:0:
312,139,169610,1,12,0:0:0:0:
234,141,169768,1,8,0:0:0:0:
169,184,169927,1,6,0:0:0:0:
137,255,170086,1,8,0:0:0:0:
84,311,170245,1,6,0:0:0:0:
8,290,170403,6,0,P|27:226|14:163,1,130,4|12,0:0|0:0,0:0:0:0:
14,86,170880,2,0,B|25:43|25:43|78:63|119:27,1,130,6|12,0:0|0:0,0:0:0:0:
184,24,171356,1,8,0:0:0:0:
244,73,171515,2,0,B|208:109|165:99|165:99|119:123,2,130,6|12|6,0:0|0:0|0:0,0:0:0:0:
337,198,172467,2,0,B|373:234|416:224|416:224|462:248,2,130,12|6|12,0:0|0:0|0:0,0:0:0:0:
397,149,173261,1,8,0:0:0:0:
397,149,173420,1,6,0:0:0:0:
115,149,173737,5,12,0:0:0:0:
115,149,173896,1,8,0:0:0:0:
192,136,174055,2,0,P|172:204|115:228,1,130,6|12,0:0|0:0,0:0:0:0:
154,299,174531,1,8,0:0:0:0:
201,360,174690,2,0,P|263:326|320:349,1,130,6|12,0:0|0:0,0:0:0:0:
389,370,175166,1,8,0:0:0:0:
462,346,175325,1,6,0:0:0:0:
485,271,175484,1,4,0:0:0:0:
340,211,175801,5,12,0:0:0:0:
398,159,175960,2,0,L|413:17,2,130,6|12|6,0:0|0:0|0:0,0:0:0:0:
271,68,176912,1,12,0:0:0:0:
227,133,177071,1,8,0:0:0:0:
304,140,177230,1,6,0:0:0:0:
157,87,177547,1,12,0:0:0:0:
86,122,177706,1,8,0:0:0:0:
150,166,177865,1,6,0:0:0:0:
79,304,178183,5,12,0:0:0:0:
0,298,178341,1,8,0:0:0:0:
33,368,178500,1,6,0:0:0:0:
172,298,178818,1,12,0:0:0:0:
237,253,178976,1,8,0:0:0:0:
244,331,179135,1,6,0:0:0:0:
395,293,179453,5,2,0:0:0:0:
410,216,179611,1,2,0:0:0:0:
375,146,179770,1,8,0:0:0:0:
314,96,179929,1,8,0:0:0:0:
242,127,180088,1,8,0:0:0:0:
170,156,180246,1,8,0:0:0:0:
92,161,180405,1,8,0:0:0:0:
16,140,180564,1,4,0:0:0:0:
120,24,180881,5,12,0:0:0:0:
87,95,181040,2,0,B|72:132|98:171|98:171|76:225,1,130,6|12,0:0|0:0,0:0:0:0:
50,290,181516,1,8,0:0:0:0:
20,361,181675,1,6,0:0:0:0:
97,372,181834,2,0,L|152:252,1,130,8|8,0:0|0:0,0:0:0:0:
239,67,182310,2,0,L|184:187,1,130,6|6,0:0|0:0,0:0:0:0:
228,250,182786,1,8,0:0:0:0:
215,326,182945,1,6,0:0:0:0:
288,352,183104,2,0,B|303:308|303:308|346:304|361:253,1,130,4|12,0:0|0:0,0:0:0:0:
395,363,183580,5,6,0:0:0:0:
502,352,183739,2,0,B|487:308|487:308|444:304|429:253,1,130,8|2,0:0|0:0,0:0:0:0:
392,186,184215,1,12,0:0:0:0:
463,155,184374,2,0,L|493:25,1,130,2|8,0:0|0:0,0:0:0:0:
414,32,184850,1,6,0:0:0:0:
379,101,185009,2,0,P|324:76|254:96,1,130,12|12,0:0|0:0,0:0:0:0:
207,151,185485,1,6,0:0:0:0:
158,211,185644,1,4,0:0:0:0:
264,338,185962,5,12,0:0:0:0:
334,305,186120,2,0,P|287:264|220:272,1,130,6|12,0:0|0:0,0:0:0:0:
147,289,186597,1,8,0:0:0:0:
76,323,186755,1,6,0:0:0:0:
2,348,186914,2,0,P|7:288|66:245,1,130,12|12,0:0|0:0,0:0:0:0:
2,36,187390,6,0,P|7:96|66:139,1,130,6|12,0:0|0:0,0:0:0:0:
114,192,187867,1,8,0:0:0:0:
192,192,188025,1,6,0:0:0:0:
179,114,188184,2,0,P|144:64|72:63,1,130,12|12,0:0|0:0,0:0:0:0:
256,32,188660,5,6,0:0:0:0:
333,114,188819,2,0,P|368:64|440:63,1,130,4|8,0:0|0:0,0:0:0:0:
429,189,189295,1,6,0:0:0:0:
350,189,189454,1,8,0:0:0:0:
288,237,189613,1,12,0:0:0:0:
228,287,189772,1,2,0:0:0:0:
158,251,189930,1,12,0:0:0:0:
93,206,190089,1,8,0:0:0:0:
46,268,190248,1,6,0:0:0:0:
40,345,190407,1,12,0:0:0:0:
117,339,190565,1,6,0:0:0:0:
189,367,190724,1,4,0:0:0:0:
323,367,191042,5,12,0:0:0:0:
350,293,191200,2,0,P|420:320|458:371,2,130,6|12|6,0:0|0:0|0:0,0:0:0:0:
268,192,191994,2,0,P|338:202|390:159,1,130,8|8,0:0|0:0,0:0:0:0:
286,61,192470,2,0,P|331:28|401:38,1,130,6|12,0:0|0:0,0:0:0:0:
458,92,192947,1,8,0:0:0:0:
492,162,193106,1,6,0:0:0:0:
438,219,193264,2,0,B|406:228|384:252|384:252|349:233|309:243,1,130,8|8,0:0|0:0,0:0:0:0:
242,233,193741,6,0,L|232:101,1,130,6|12,0:0|0:0,0:0:0:0:
194,34,194217,1,8,0:0:0:0:
118,15,194376,1,6,0:0:0:0:
50,54,194534,2,0,L|60:190,1,130,8|8,0:0|0:0,0:0:0:0:
156,227,195011,2,0,L|145:92,1,130,6|12,0:0|0:0,0:0:0:0:
194,34,195487,1,8,0:0:0:0:
263,69,195646,1,6,0:0:0:0:
300,137,195804,1,4,0:0:0:0:
344,288,196122,5,12,0:0:0:0:
398,343,196281,2,0,P|421:285|386:223,1,130,6|12,0:0|0:0,0:0:0:0:
326,185,196757,1,8,0:0:0:0:
249,169,196916,1,6,0:0:0:0:
183,210,197074,2,0,P|175:145|219:96,1,130,12|12,0:0|0:0,0:0:0:0:
281,57,197551,2,0,P|232:23|158:43,1,130,6|12,0:0|0:0,0:0:0:0:
102,80,198027,1,8,0:0:0:0:
50,138,198186,1,6,0:0:0:0:
28,212,198344,2,0,L|0:353,1,130,12|12,0:0|0:0,0:0:0:0:
85,349,198821,6,0,P|92:283|125:223,1,130,6|12,0:0|0:0,0:0:0:0:
170,166,199297,1,8,0:0:0:0:
206,97,199456,1,6,0:0:0:0:
273,50,199614,1,8,0:0:0:0:
349,39,199773,1,12,0:0:0:0:
422,65,199932,1,12,0:0:0:0:
481,115,200091,1,6,0:0:0:0:
504,192,200249,1,12,0:0:0:0:
500,269,200408,1,12,0:0:0:0:
455,333,200567,1,12,0:0:0:0:
384,367,200726,1,6,0:0:0:0:
309,344,200885,6,0,P|262:317|190:340,1,130,12|12,0:0|0:0,0:0:0:0:
167,263,201361,2,0,P|224:238|300:249,1,130,6|12,0:0|0:0,0:0:0:0:
363,270,201837,1,8,0:0:0:0:
430,309,201996,1,6,0:0:0:0:
436,231,202155,2,0,P|395:193|384:116,1,130,8|8,0:0|0:0,0:0:0:0:
348,52,202631,2,0,B|296:56|256:80|256:80|216:56|164:52,1,195,6|8,0:0|0:0,0:0:0:0:
129,122,203266,1,6,0:0:0:0:
54,144,203425,2,0,P|35:76|57:14,1,130,8|8,0:0|0:0,0:0:0:0:
54,240,203901,6,0,P|35:308|57:370,1,130,6|12,0:0|0:0,0:0:0:0:
128,383,204377,1,8,0:0:0:0:
202,359,204536,1,6,0:0:0:0:
256,303,204695,2,0,B|244:273|256:237|278:201|256:176,1,130,12|8,0:0|0:0,0:0:0:0:
234,101,205171,1,6,0:0:0:0:
270,32,205330,1,12,0:0:0:0:
256,192,205647,12,4,207235,0:0:0:0:
89,286,208664,6,0,P|144:296|204:252,1,130,8|6,0:0|0:0,0:0:0:0:
198,71,209299,2,0,P|255:30|310:40,1,130,12|6,0:0|0:0,0:0:0:0:
423,286,209934,2,0,P|368:296|308:252,2,130,12|6|12,0:0|0:0|0:0,0:0:0:0:
469,137,210886,5,6,0:0:0:0:
432,68,211045,1,8,0:0:0:0:
365,26,211204,1,4,0:0:0:0:
287,32,211362,1,8,0:0:0:0:
224,79,211521,2,0,P|162:109|102:96,1,130,6|12,0:0|0:0,0:0:0:0:
162,344,212156,5,6,0:0:0:0:
105,98,212474,1,12,0:0:0:0:
350,41,212791,1,6,0:0:0:0:
407,286,213109,1,12,0:0:0:0:
260,339,213426,5,6,0:0:0:0:
226,268,213585,1,12,0:0:0:0:
161,224,213744,2,0,B|32:260,1,130,12|6,0:0|0:0,0:0:0:0:
38,102,214379,2,0,B|163:66,1,130,12|6,0:0|0:0,0:0:0:0:
474,102,215014,2,0,B|349:66,2,130,12|6|12,0:0|0:0|0:0,0:0:0:0:
480,258,215966,5,6,0:0:0:0:
421,207,216125,1,8,0:0:0:0:
350,173,216284,1,4,0:0:0:0:
271,175,216443,1,8,0:0:0:0:
200,208,216601,2,0,P|138:236|78:219,1,130,6|12,0:0|0:0,0:0:0:0:
12,184,217078,1,8,0:0:0:0:
0,261,217236,2,0,P|38:311|36:379,1,130,6|12,0:0|0:0,0:0:0:0:
115,379,217713,5,6,0:0:0:0:
183,343,217871,1,2,0:0:0:0:
259,326,218030,1,8,0:0:0:0:
336,336,218189,1,12,0:0:0:0:
409,362,218348,1,8,0:0:0:0:
465,308,218506,1,8,0:0:0:0:
454,231,218665,1,8,0:0:0:0:
417,162,218824,1,12,0:0:0:0:
322,37,219141,5,6,0:0:0:0:
167,55,219459,1,12,0:0:0:0:
167,55,219618,1,8,0:0:0:0:
167,55,219776,1,6,0:0:0:0:
37,192,220094,1,12,0:0:0:0:
37,192,220253,1,8,0:0:0:0:
37,192,220411,1,6,0:0:0:0:
167,329,220729,1,12,0:0:0:0:
167,329,220888,1,8,0:0:0:0:
167,329,221046,1,6,0:0:0:0:
256,140,221364,6,0,B|280:100|256:76|236:44|256:8,2,130,12|6|12,0:0|0:0|0:0,0:0:0:0:
296,208,222158,1,8,0:0:0:0:
360,252,222316,2,0,P|400:300|406:366,1,130,6|12,0:0|0:0,0:0:0:0:
328,380,222793,1,8,0:0:0:0:
268,329,222952,2,0,P|204:312|137:328,1,130,6|12,0:0|0:0,0:0:0:0:
68,348,223428,1,8,0:0:0:0:
29,279,223587,1,6,0:0:0:0:
44,202,223745,1,4,0:0:0:0:
86,136,223904,6,0,P|112:77|78:15,1,130,12|6,0:0|0:0,0:0:0:0:
190,137,224539,1,12,0:0:0:0:
267,155,224698,1,8,0:0:0:0:
339,126,224857,1,6,0:0:0:0:
431,251,225174,2,0,P|370:288|304:280,2,130,12|4|12,0:0|0:0|0:0,0:0:0:0:
473,185,225968,1,8,0:0:0:0:
479,107,226127,1,6,0:0:0:0:
256,192,226444,12,4,227714,0:0:0:0:
203,343,228984,6,0,B|177:291|177:291|215:261|216:221,1,130,8|6,0:0|0:0,0:0:0:0:
151,70,229619,2,0,B|209:74|209:74|216:121|250:142,1,130,12|6,0:0|0:0,0:0:0:0:
413,162,230254,2,0,B|381:210|381:210|336:193|301:212,2,130,12|6|12,0:0|0:0|0:0,0:0:0:0:
458,311,231207,5,6,0:0:0:0:
389,349,231366,1,8,0:0:0:0:
315,323,231524,1,4,0:0:0:0:
244,290,231683,1,8,0:0:0:0:
165,290,231842,2,0,P|89:301|47:345,1,130,6|12,0:0|0:0,0:0:0:0:
100,163,232477,5,6,0:0:0:0:
285,36,232794,1,12,0:0:0:0:
412,221,233112,1,6,0:0:0:0:
227,348,233429,1,12,0:0:0:0:
79,301,233747,5,6,0:0:0:0:
40,234,233906,1,12,0:0:0:0:
118,234,234064,2,0,B|140:197|119:165|101:134|117:100,1,130,12|6,0:0|0:0,0:0:0:0:
394,234,234699,2,0,B|372:197|393:165|411:134|395:100,1,130,12|6,0:0|0:0,0:0:0:0:
196,40,235334,2,0,P|256:19|316:40,2,130,12|6|12,0:0|0:0|0:0,0:0:0:0:
81,144,236287,5,6,0:0:0:0:
42,209,236446,1,8,0:0:0:0:
52,285,236604,1,4,0:0:0:0:
109,337,236763,1,8,0:0:0:0:
184,342,236922,2,0,P|246:314|306:331,1,130,6|12,0:0|0:0,0:0:0:0:
380,349,237398,1,8,0:0:0:0:
458,355,237557,2,0,P|462:292|507:242,1,130,6|12,0:0|0:0,0:0:0:0:
505,164,238033,5,6,0:0:0:0:
444,117,238192,1,2,0:0:0:0:
368,103,238351,1,8,0:0:0:0:
296,131,238510,1,12,0:0:0:0:
235,179,238668,1,8,0:0:0:0:
168,219,238827,1,8,0:0:0:0:
91,222,238986,1,8,0:0:0:0:
23,185,239145,1,12,0:0:0:0:
124,64,239462,5,6,0:0:0:0:
275,56,239780,1,12,0:0:0:0:
222,114,239938,1,8,0:0:0:0:
296,131,240097,1,6,0:0:0:0:
449,155,240415,1,12,0:0:0:0:
396,213,240573,1,8,0:0:0:0:
470,230,240732,1,6,0:0:0:0:
316,260,241050,1,12,0:0:0:0:
263,318,241208,1,8,0:0:0:0:
337,335,241367,1,6,0:0:0:0:
148,274,241685,6,0,P|172:222|240:205,2,130,12|6|12,0:0|0:0|0:0,0:0:0:0:
104,337,242478,1,8,0:0:0:0:
30,314,242637,2,0,P|44:265|25:167,1,130,6|12,0:0|0:0,0:0:0:0:
16,111,243113,1,8,0:0:0:0:
81,67,243272,2,0,P|128:88|227:85,1,130,6|12,0:0|0:0,0:0:0:0:
284,87,243748,1,8,0:0:0:0:
359,63,243907,1,6,0:0:0:0:
434,86,244066,1,4,0:0:0:0:
491,140,244225,6,0,P|470:186|473:285,1,130,12|6,0:0|0:0,0:0:0:0:
337,351,244860,1,12,0:0:0:0:
293,286,245019,1,8,0:0:0:0:
283,209,245177,1,6,0:0:0:0:
292,53,245495,2,0,P|363:52|415:93,2,130,12|4|12,0:0|0:0|0:0,0:0:0:0:
217,71,246289,1,8,0:0:0:0:
176,137,246447,1,6,0:0:0:0:
331,153,246765,5,12,0:0:0:0:
449,255,247082,1,12,0:0:0:0:
342,368,247400,1,12,0:0:0:0:
290,309,247559,2,0,P|237:263|176:273,1,130,8|8,0:0|0:0,0:0:0:0:
256,192,248035,12,4,249146,0:0:0:0:
93,98,249464,5,8,0:0:0:0:
68,171,249622,1,6,0:0:0:0:
108,321,249940,2,0,P|136:301|173:296,1,65,12|8,0:0|0:0,0:0:0:0:
242,309,250257,1,6,0:0:0:0:
351,200,250416,6,0,P|406:194|448:133,1,130,8|8,0:0|0:0,0:0:0:0:
446,58,250892,1,6,0:0:0:0:
289,61,251210,2,0,P|261:73|226:67,1,65,12|8,0:0|0:0,0:0:0:0:
153,42,251527,1,6,0:0:0:0:
189,195,251686,6,0,P|152:153|77:162,1,130,8|8,0:0|0:0,0:0:0:0:
13,193,252162,1,6,0:0:0:0:
91,327,252480,1,12,0:0:0:0:
161,293,252639,1,8,0:0:0:0:
236,312,252798,1,6,0:0:0:0:
286,164,252956,6,0,P|336:196|404:189,1,130,8|8,0:0|0:0,0:0:0:0:
477,160,253433,1,6,0:0:0:0:
497,314,253750,1,12,0:0:0:0:
423,286,253909,1,8,0:0:0:0:
345,296,254068,1,6,0:0:0:0:
286,164,254226,6,0,P|244:213|172:204,1,130,4|8,0:0|0:0,0:0:0:0:
108,185,254703,1,6,0:0:0:0:
31,49,255020,2,0,P|63:30|95:34,1,65,12|8,0:0|0:0,0:0:0:0:
165,51,255338,1,6,0:0:0:0:
320,46,255496,6,0,B|360:86|360:86|388:54|440:58,1,130,4|8,0:0|0:0,0:0:0:0:
503,60,255973,1,6,0:0:0:0:
401,177,256290,2,0,P|397:217|405:249,1,65,12|8,0:0|0:0,0:0:0:0:
437,311,256608,1,6,0:0:0:0:
281,296,256766,6,0,B|259:288|238:248|238:248|205:268|173:264,1,130,4|8,0:0|0:0,0:0:0:0:
100,251,257243,1,6,0:0:0:0:
30,111,257560,1,12,0:0:0:0:
104,133,257719,1,8,0:0:0:0:
171,93,257878,1,6,0:0:0:0:
288,199,258036,6,0,P|368:195|400:87,1,195,4|6,0:0|0:0,0:0:0:0:
256,48,258830,1,12,0:0:0:0:
184,17,258989,1,8,0:0:0:0:
106,29,259148,1,6,0:0:0:0:
37,68,259306,1,4,0:0:0:0:
