osu file format v12

[General]
AudioFilename: 03 Xanandra.mp3
AudioLeadIn: 2000
PreviewTime: 58274
Countdown: 0
SampleSet: Normal
StackLeniency: 0.5
Mode: 1
LetterboxInBreaks: 0
WidescreenStoryboard: 0

[Editor]
Bookmarks: 20801,40806,58748,137499,160362
DistanceSpacing: 0.3
BeatDivisor: 4
GridSize: 4

[Metadata]
Title:Xanandra
TitleUnicode:Xanandra
Artist:Mago de Oz
ArtistUnicode:Mago de Oz
Creator:Xanandra
Version:Mancuso's Muzukashii
Source:
Tags:Sieg -Anhedonia- kazukisinx mancusojuanmattos mancuso_JM_
BeatmapID:281724
BeatmapSetID:74313

[Difficulty]
HPDrainRate:4
CircleSize:5
OverallDifficulty:5
ApproachRate:5
SliderMultiplier:1.4
SliderTickRate:2

[Events]
//Background and Video events
0,0,"clip (2013-01-20 at 09.10.37).jpg",0,0
//Break Periods
//Storyboard Layer 0 (Background)
//Storyboard Layer 1 (Fail)
//Storyboard Layer 2 (Pass)
//Storyboard Layer 3 (Foreground)
//Storyboard Sound Samples
//Background Colour Transformations
3,100,0,0,0

[TimingPoints]
377,317.510715986665,4,1,0,100,1,0
58798,-100,4,1,0,100,0,1
76579,-100,4,1,0,100,0,0
117220,-100,4,1,0,100,0,1
135001,-100,4,1,0,100,0,0
208664,-100,4,1,0,100,0,1
226444,-100,4,1,0,100,0,0
228984,-100,4,1,0,100,0,1
249146,-100,4,1,0,100,0,0

[HitObjects]
256,192,218,1,4,0:0:0:0:
256,192,535,1,0,0:0:0:0:
256,192,694,1,8,0:0:0:0:
256,192,853,1,8,0:0:0:0:
256,192,1012,1,0,0:0:0:0:
256,192,1170,1,8,0:0:0:0:
256,192,1329,1,0,0:0:0:0:
256,192,1488,1,0,0:0:0:0:
256,192,1805,1,0,0:0:0:0:
256,192,1964,1,8,0:0:0:0:
256,192,2123,1,8,0:0:0:0:
256,192,2282,1,0,0:0:0:0:
256,192,2440,1,8,0:0:0:0:
256,192,2758,1,0,0:0:0:0:
256,192,3075,1,0,0:0:0:0:
256,192,3234,1,8,0:0:0:0:
256,192,3552,1,0,0:0:0:0:
256,192,3710,1,8,0:0:0:0:
256,192,3869,1,0,0:0:0:0:
256,192,4028,1,0,0:0:0:0:
256,192,4345,1,0,0:0:0:0:
256,192,4504,1,8,0:0:0:0:
256,192,4663,1,0,0:0:0:0:
256,192,4822,1,0,0:0:0:0:
256,192,4980,1,8,0:0:0:0:
256,192,5139,1,8,0:0:0:0:
256,192,5298,1,4,0:0:0:0:
256,192,5615,1,0,0:0:0:0:
256,192,5774,1,8,0:0:0:0:
256,192,5933,1,8,0:0:0:0:
256,192,6092,1,0,0:0:0:0:
256,192,6250,1,8,0:0:0:0:
256,192,6409,1,8,0:0:0:0:
256,192,6568,1,4,0:0:0:0:
256,192,6885,1,0,0:0:0:0:
256,192,7044,1,8,0:0:0:0:
256,192,7362,1,8,0:0:0:0:
256,192,7520,1,0,0:0:0:0:
256,192,7679,1,0,0:0:0:0:
256,192,7838,1,4,0:0:0:0:
256,192,8156,1,0,0:0:0:0:
256,192,8314,1,8,0:0:0:0:
256,192,8473,1,8,0:0:0:0:
256,192,8632,1,0,0:0:0:0:
256,192,8949,1,8,0:0:0:0:
256,192,9108,1,0,0:0:0:0:
256,192,9426,1,0,0:0:0:0:
256,192,9505,1,0,0:0:0:0:
256,192,9584,1,0,0:0:0:0:
256,192,9743,1,0,0:0:0:0:
256,192,9902,1,8,0:0:0:0:
256,192,10061,1,8,0:0:0:0:
256,192,10219,1,8,0:0:0:0:
256,192,10378,1,4,0:0:0:0:
256,192,10696,1,0,0:0:0:0:
256,192,10854,1,8,0:0:0:0:
256,192,11013,1,8,0:0:0:0:
256,192,11172,1,0,0:0:0:0:
256,192,11331,1,8,0:0:0:0:
256,192,11648,1,0,0:0:0:0:
256,192,11966,1,0,0:0:0:0:
256,192,12124,1,8,0:0:0:0:
256,192,12442,1,0,0:0:0:0:
256,192,12601,1,8,0:0:0:0:
256,192,12918,1,0,0:0:0:0:
256,192,13236,1,8,0:0:0:0:
256,192,13394,1,8,0:0:0:0:
256,192,13712,1,0,0:0:0:0:
256,192,13871,1,8,0:0:0:0:
256,192,14188,1,4,0:0:0:0:
256,192,14506,1,0,0:0:0:0:
256,192,14664,1,8,0:0:0:0:
256,192,14982,1,0,0:0:0:0:
256,192,15141,1,8,0:0:0:0:
256,192,15300,1,8,0:0:0:0:
256,192,15458,1,4,0:0:0:0:
256,192,15776,1,0,0:0:0:0:
256,192,15935,1,8,0:0:0:0:
256,192,16093,1,8,0:0:0:0:
256,192,16252,1,0,0:0:0:0:
256,192,16411,1,8,0:0:0:0:
256,192,16570,1,0,0:0:0:0:
256,192,16728,1,0,0:0:0:0:
256,192,17046,1,0,0:0:0:0:
256,192,17205,1,8,0:0:0:0:
256,192,17522,1,0,0:0:0:0:
256,192,17681,1,8,0:0:0:0:
256,192,17840,1,8,0:0:0:0:
256,192,17998,1,0,0:0:0:0:
256,192,18316,1,0,0:0:0:0:
256,192,18475,1,8,0:0:0:0:
256,192,18633,1,8,0:0:0:0:
256,192,18792,1,0,0:0:0:0:
256,192,18951,1,8,0:0:0:0:
256,192,19110,1,0,0:0:0:0:
256,192,19268,1,4,0:0:0:0:
256,192,19586,1,0,0:0:0:0:
256,192,19745,1,8,0:0:0:0:
256,192,19903,1,8,0:0:0:0:
256,192,20062,1,0,0:0:0:0:
256,192,20221,1,0,0:0:0:0:
256,192,20380,1,8,0:0:0:0:
256,192,20538,1,4,0:0:0:0:
256,192,20856,1,0,0:0:0:0:
256,192,21015,1,8,0:0:0:0:
256,192,21332,1,0,0:0:0:0:
256,192,21650,1,8,0:0:0:0:
256,192,21808,1,0,0:0:0:0:
256,192,22126,1,0,0:0:0:0:
256,192,22285,1,8,0:0:0:0:
256,192,22602,1,0,0:0:0:0:
256,192,22920,1,8,0:0:0:0:
256,192,23079,1,0,0:0:0:0:
256,192,23396,1,0,0:0:0:0:
256,192,23555,1,8,0:0:0:0:
256,192,23714,1,8,0:0:0:0:
256,192,23872,1,0,0:0:0:0:
256,192,24190,1,8,0:0:0:0:
256,192,24349,1,8,0:0:0:0:
256,192,24666,1,0,0:0:0:0:
256,192,24825,1,8,0:0:0:0:
256,192,24984,1,0,0:0:0:0:
256,192,25301,1,8,0:0:0:0:
256,192,25460,1,8,0:0:0:0:
256,192,25619,1,0,0:0:0:0:
256,192,25936,1,0,0:0:0:0:
256,192,26095,1,8,0:0:0:0:
256,192,26412,1,0,0:0:0:0:
256,192,26571,1,0,0:0:0:0:
256,192,26730,1,8,0:0:0:0:
256,192,26889,1,0,0:0:0:0:
256,192,27206,1,0,0:0:0:0:
256,192,27365,1,8,0:0:0:0:
256,192,27524,1,8,0:0:0:0:
256,192,27682,1,0,0:0:0:0:
256,192,27841,1,0,0:0:0:0:
256,192,28000,1,8,0:0:0:0:
256,192,28159,1,0,0:0:0:0:
256,192,28476,1,0,0:0:0:0:
256,192,28635,1,8,0:0:0:0:
256,192,28952,1,0,0:0:0:0:
256,192,29111,1,8,0:0:0:0:
256,192,29270,1,8,0:0:0:0:
256,192,29429,1,0,0:0:0:0:
256,192,29587,1,4,0:0:0:0:
256,192,29746,1,4,0:0:0:0:
256,192,30064,1,0,0:0:0:0:
256,192,30223,1,8,0:0:0:0:
256,192,30381,1,8,0:0:0:0:
256,192,30540,1,8,0:0:0:0:
256,192,30699,1,4,0:0:0:0:
256,192,31016,1,0,0:0:0:0:
256,192,31175,1,8,0:0:0:0:
256,192,31493,1,0,0:0:0:0:
256,192,31651,1,0,0:0:0:0:
256,192,31810,1,8,0:0:0:0:
256,192,31969,1,8,0:0:0:0:
256,192,32128,1,0,0:0:0:0:
256,192,32445,1,8,0:0:0:0:
256,192,32604,1,0,0:0:0:0:
256,192,32763,1,0,0:0:0:0:
256,192,32921,1,0,0:0:0:0:
256,192,33080,1,8,0:0:0:0:
256,192,33239,1,4,0:0:0:0:
256,192,33556,1,0,0:0:0:0:
256,192,33715,1,8,0:0:0:0:
256,192,34033,1,0,0:0:0:0:
256,192,34191,1,0,0:0:0:0:
256,192,34350,1,8,0:0:0:0:
256,192,34509,1,0,0:0:0:0:
256,192,34826,1,0,0:0:0:0:
256,192,34985,1,8,0:0:0:0:
256,192,35144,1,0,0:0:0:0:
256,192,35461,1,8,0:0:0:0:
256,192,35620,1,8,0:0:0:0:
256,192,35779,1,4,0:0:0:0:
256,192,36096,1,0,0:0:0:0:
256,192,36255,1,8,0:0:0:0:
256,192,36573,1,0,0:0:0:0:
256,192,36731,1,0,0:0:0:0:
256,192,36890,1,8,0:0:0:0:
256,192,37049,1,0,0:0:0:0:
256,192,37366,1,0,0:0:0:0:
256,192,37525,1,8,0:0:0:0:
256,192,37684,1,0,0:0:0:0:
256,192,38002,1,0,0:0:0:0:
256,192,38160,1,8,0:0:0:0:
256,192,38319,1,4,0:0:0:0:
256,192,38637,1,0,0:0:0:0:
256,192,38795,1,8,0:0:0:0:
256,192,39113,1,8,0:0:0:0:
256,192,39272,1,0,0:0:0:0:
256,192,39430,1,0,0:0:0:0:
256,192,39589,1,8,0:0:0:0:
256,192,39907,1,0,0:0:0:0:
256,192,39986,1,0,0:0:0:0:
256,192,40065,1,0,0:0:0:0:
256,192,40224,1,0,0:0:0:0:
256,192,40383,1,8,0:0:0:0:
256,192,40542,1,8,0:0:0:0:
256,192,40700,1,8,0:0:0:0:
256,192,40859,1,4,0:0:0:0:
256,192,41177,1,0,0:0:0:0:
256,192,41335,1,6,0:0:0:0:
256,192,41653,1,2,0:0:0:0:
256,192,41812,1,0,0:0:0:0:
256,192,41970,1,0,0:0:0:0:
256,192,42129,1,8,0:0:0:0:
256,192,42447,1,0,0:0:0:0:
256,192,42605,1,8,0:0:0:0:
256,192,42923,1,0,0:0:0:0:
256,192,43082,1,8,0:0:0:0:
256,192,43240,1,8,0:0:0:0:
256,192,43399,1,0,0:0:0:0:
256,192,43558,1,8,0:0:0:0:
256,192,43717,1,0,0:0:0:0:
256,192,43875,1,8,0:0:0:0:
256,192,44193,1,8,0:0:0:0:
256,192,44352,1,0,0:0:0:0:
256,192,44510,1,0,0:0:0:0:
256,192,44669,1,8,0:0:0:0:
256,192,44987,1,8,0:0:0:0:
256,192,45066,1,8,0:0:0:0:
256,192,45146,1,8,0:0:0:0:
256,192,45304,1,0,0:0:0:0:
256,192,45463,1,8,0:0:0:0:
256,192,45622,1,8,0:0:0:0:
256,192,45781,1,8,0:0:0:0:
256,192,45939,1,4,0:0:0:0:
256,192,46257,1,0,0:0:0:0:
256,192,46416,1,6,0:0:0:0:
256,192,46733,1,2,0:0:0:0:
256,192,47051,1,0,0:0:0:0:
256,192,47209,1,8,0:0:0:0:
256,192,47527,1,8,0:0:0:0:
256,192,47686,1,0,0:0:0:0:
256,192,48003,1,0,0:0:0:0:
256,192,48162,1,8,0:0:0:0:
256,192,48321,1,8,0:0:0:0:
256,192,48479,1,0,0:0:0:0:
256,192,48797,1,0,0:0:0:0:
256,192,48956,1,8,0:0:0:0:
256,192,49273,1,8,0:0:0:0:
256,192,49432,1,0,0:0:0:0:
256,192,49591,1,0,0:0:0:0:
256,192,49749,1,0,0:0:0:0:
256,192,49829,1,0,0:0:0:0:
256,192,49908,1,0,0:0:0:0:
256,192,50067,1,0,0:0:0:0:
256,192,50226,1,8,0:0:0:0:
256,192,50543,1,8,0:0:0:0:
256,192,50702,1,8,0:0:0:0:
256,192,50861,1,0,0:0:0:0:
256,192,51019,1,6,0:0:0:0:
256,192,51337,1,0,0:0:0:0:
256,192,51496,1,8,0:0:0:0:
256,192,51813,1,8,0:0:0:0:
256,192,51972,1,0,0:0:0:0:
256,192,52131,1,0,0:0:0:0:
256,192,52290,1,8,0:0:0:0:
256,192,52607,1,0,0:0:0:0:
256,192,52766,1,8,0:0:0:0:
256,192,52925,1,0,0:0:0:0:
256,192,53083,1,8,0:0:0:0:
256,192,53242,1,8,0:0:0:0:
256,192,53401,1,0,0:0:0:0:
256,192,53560,1,6,0:0:0:0:
256,192,53877,1,0,0:0:0:0:
256,192,54036,1,8,0:0:0:0:
256,192,54353,1,8,0:0:0:0:
256,192,54512,1,0,0:0:0:0:
256,192,54671,1,8,0:0:0:0:
256,192,54830,1,6,0:0:0:0:
256,192,55147,1,0,0:0:0:0:
256,192,55306,1,8,0:0:0:0:
256,192,55465,1,4,0:0:0:0:
256,192,55782,1,0,0:0:0:0:
256,192,55941,1,8,0:0:0:0:
256,192,56100,1,0,0:0:0:0:
256,192,56258,1,8,0:0:0:0:
256,192,56417,1,0,0:0:0:0:
256,192,56576,1,0,0:0:0:0:
256,192,56735,1,0,0:0:0:0:
256,192,56893,1,0,0:0:0:0:
256,192,57052,1,0,0:0:0:0:
256,192,57211,1,8,0:0:0:0:
256,192,57370,1,4,0:0:0:0:
256,192,58481,1,0,0:0:0:0:
256,192,58640,1,8,0:0:0:0:
256,192,58798,1,4,0:0:0:0:
256,192,59116,1,8,0:0:0:0:
256,192,59433,1,0,0:0:0:0:
256,192,59592,1,0,0:0:0:0:
256,192,59751,1,8,0:0:0:0:
256,192,59910,1,0,0:0:0:0:
256,192,60227,1,0,0:0:0:0:
256,192,60386,1,8,0:0:0:0:
256,192,60704,1,8,0:0:0:0:
256,192,60862,1,8,0:0:0:0:
256,192,61021,1,0,0:0:0:0:
256,192,61180,1,8,0:0:0:0:
256,192,61497,1,0,0:0:0:0:
256,192,61577,1,0,0:0:0:0:
256,192,61656,1,0,0:0:0:0:
256,192,61815,1,0,0:0:0:0:
256,192,61974,1,8,0:0:0:0:
256,192,62132,1,8,0:0:0:0:
256,192,62291,1,0,0:0:0:0:
256,192,62450,1,6,0:0:0:0:
256,192,62767,1,8,0:0:0:0:
256,192,62926,1,8,0:0:0:0:
256,192,63085,1,0,0:0:0:0:
256,192,63244,1,8,0:0:0:0:
256,192,63402,1,8,0:0:0:0:
256,192,63561,1,0,0:0:0:0:
256,192,63720,1,0,0:0:0:0:
256,192,63879,1,4,0:0:0:0:
256,192,64196,1,8,0:0:0:0:
256,192,64514,1,0,0:0:0:0:
256,192,64672,1,0,0:0:0:0:
256,192,64831,1,8,0:0:0:0:
256,192,64990,1,0,0:0:0:0:
256,192,65307,1,0,0:0:0:0:
256,192,65466,1,8,0:0:0:0:
256,192,65784,1,8,0:0:0:0:
256,192,65942,1,0,0:0:0:0:
256,192,66101,1,0,0:0:0:0:
256,192,66260,1,8,0:0:0:0:
256,192,66339,1,8,0:0:0:0:
256,192,66419,1,8,0:0:0:0:
256,192,66577,1,0,0:0:0:0:
256,192,66736,1,8,0:0:0:0:
256,192,67054,1,8,0:0:0:0:
256,192,67213,1,0,0:0:0:0:
256,192,67371,1,0,0:0:0:0:
256,192,67689,1,4,0:0:0:0:
256,192,67848,1,8,0:0:0:0:
256,192,68165,1,0,0:0:0:0:
256,192,68324,1,8,0:0:0:0:
256,192,68483,1,0,0:0:0:0:
256,192,68562,1,0,0:0:0:0:
256,192,68641,1,0,0:0:0:0:
256,192,68800,1,8,0:0:0:0:
256,192,68959,1,4,0:0:0:0:
256,192,69276,1,8,0:0:0:0:
256,192,69435,1,0,0:0:0:0:
256,192,69594,1,0,0:0:0:0:
256,192,69753,1,0,0:0:0:0:
256,192,69911,1,8,0:0:0:0:
256,192,70070,1,0,0:0:0:0:
256,192,70388,1,0,0:0:0:0:
256,192,70546,1,8,0:0:0:0:
256,192,70864,1,0,0:0:0:0:
256,192,71023,1,0,0:0:0:0:
256,192,71102,1,0,0:0:0:0:
256,192,71181,1,0,0:0:0:0:
256,192,71340,1,0,0:0:0:0:
256,192,71499,1,0,0:0:0:0:
256,192,71658,1,8,0:0:0:0:
256,192,71816,1,0,0:0:0:0:
256,192,72134,1,0,0:0:0:0:
256,192,72293,1,0,0:0:0:0:
256,192,72451,1,8,0:0:0:0:
256,192,72769,1,8,0:0:0:0:
256,192,73086,1,8,0:0:0:0:
256,192,73245,1,0,0:0:0:0:
256,192,73404,1,0,0:0:0:0:
256,192,73721,1,4,0:0:0:0:
256,192,73880,1,4,0:0:0:0:
256,192,74039,1,4,0:0:0:0:
256,192,74356,1,6,0:0:0:0:
256,192,74674,1,4,0:0:0:0:
256,192,74833,1,0,0:0:0:0:
256,192,74992,1,8,0:0:0:0:
256,192,75150,1,8,0:0:0:0:
256,192,75309,1,4,0:0:0:0:
256,192,75627,1,8,0:0:0:0:
256,192,75785,1,0,0:0:0:0:
256,192,75865,1,0,0:0:0:0:
256,192,75944,1,0,0:0:0:0:
256,192,76103,1,0,0:0:0:0:
256,192,76262,1,8,0:0:0:0:
256,192,76420,1,8,0:0:0:0:
256,192,76579,1,4,0:0:0:0:
256,192,76897,1,8,0:0:0:0:
256,192,77214,1,0,0:0:0:0:
256,192,77373,1,8,0:0:0:0:
256,192,77690,1,0,0:0:0:0:
256,192,77849,1,8,0:0:0:0:
256,192,78008,1,8,0:0:0:0:
256,192,78087,1,8,0:0:0:0:
256,192,78167,1,8,0:0:0:0:
256,192,78325,1,0,0:0:0:0:
256,192,78484,1,8,0:0:0:0:
256,192,78643,1,8,0:0:0:0:
256,192,78802,1,8,0:0:0:0:
256,192,78960,1,4,0:0:0:0:
256,192,79278,1,0,0:0:0:0:
256,192,79437,1,6,0:0:0:0:
256,192,79754,1,8,0:0:0:0:
256,192,79913,1,0,0:0:0:0:
256,192,80072,1,0,0:0:0:0:
256,192,80230,1,8,0:0:0:0:
256,192,80548,1,0,0:0:0:0:
256,192,80707,1,8,0:0:0:0:
256,192,80865,1,8,0:0:0:0:
256,192,81024,1,0,0:0:0:0:
256,192,81183,1,8,0:0:0:0:
256,192,81342,1,0,0:0:0:0:
256,192,81500,1,0,0:0:0:0:
256,192,81818,1,0,0:0:0:0:
256,192,81977,1,8,0:0:0:0:
256,192,82136,1,8,0:0:0:0:
256,192,82294,1,0,0:0:0:0:
256,192,82453,1,8,0:0:0:0:
256,192,82612,1,0,0:0:0:0:
256,192,82771,1,4,0:0:0:0:
256,192,83088,1,0,0:0:0:0:
256,192,83247,1,8,0:0:0:0:
256,192,83406,1,4,0:0:0:0:
256,192,83723,1,0,0:0:0:0:
256,192,83882,1,8,0:0:0:0:
256,192,84041,1,6,0:0:0:0:
256,192,84358,1,0,0:0:0:0:
256,192,84517,1,8,0:0:0:0:
256,192,84676,1,0,0:0:0:0:
256,192,84755,1,0,0:0:0:0:
256,192,84834,1,0,0:0:0:0:
256,192,84993,1,0,0:0:0:0:
256,192,85152,1,8,0:0:0:0:
256,192,85311,1,0,0:0:0:0:
256,192,85628,1,8,0:0:0:0:
256,192,85787,1,8,0:0:0:0:
256,192,85946,1,0,0:0:0:0:
256,192,86104,1,8,0:0:0:0:
256,192,86263,1,0,0:0:0:0:
256,192,86422,1,0,0:0:0:0:
256,192,86581,1,8,0:0:0:0:
256,192,86898,1,8,0:0:0:0:
256,192,87057,1,0,0:0:0:0:
256,192,87216,1,0,0:0:0:0:
256,192,87374,1,8,0:0:0:0:
256,192,87533,1,0,0:0:0:0:
256,192,87851,1,8,0:0:0:0:
256,192,88009,1,0,0:0:0:0:
256,192,88168,1,0,0:0:0:0:
256,192,88327,1,8,0:0:0:0:
256,192,88486,1,8,0:0:0:0:
256,192,88644,1,8,0:0:0:0:
256,192,88803,1,0,0:0:0:0:
256,192,88962,1,8,0:0:0:0:
256,192,89121,1,4,0:0:0:0:
256,192,89438,1,0,0:0:0:0:
256,192,89597,1,8,0:0:0:0:
256,192,89915,1,0,0:0:0:0:
256,192,90073,1,0,0:0:0:0:
256,192,90232,1,8,0:0:0:0:
256,192,90391,1,0,0:0:0:0:
256,192,90708,1,0,0:0:0:0:
256,192,90867,1,8,0:0:0:0:
256,192,91026,1,0,0:0:0:0:
256,192,91343,1,8,0:0:0:0:
256,192,91502,1,8,0:0:0:0:
256,192,91661,1,0,0:0:0:0:
256,192,91978,1,0,0:0:0:0:
256,192,92137,1,8,0:0:0:0:
256,192,92296,1,8,0:0:0:0:
256,192,92455,1,0,0:0:0:0:
256,192,92772,1,8,0:0:0:0:
256,192,92931,1,0,0:0:0:0:
256,192,93248,1,0,0:0:0:0:
256,192,93407,1,8,0:0:0:0:
256,192,93566,1,0,0:0:0:0:
256,192,93725,1,0,0:0:0:0:
256,192,93883,1,8,0:0:0:0:
256,192,94042,1,8,0:0:0:0:
256,192,94201,1,0,0:0:0:0:
256,192,94518,1,0,0:0:0:0:
256,192,94677,1,8,0:0:0:0:
256,192,94836,1,0,0:0:0:0:
256,192,94995,1,0,0:0:0:0:
256,192,95312,1,8,0:0:0:0:
256,192,95471,1,8,0:0:0:0:
256,192,95630,1,0,0:0:0:0:
256,192,95947,1,0,0:0:0:0:
256,192,96106,1,8,0:0:0:0:
256,192,96423,1,8,0:0:0:0:
256,192,96582,1,0,0:0:0:0:
256,192,96741,1,0,0:0:0:0:
256,192,97059,1,0,0:0:0:0:
256,192,97217,1,8,0:0:0:0:
256,192,97535,1,8,0:0:0:0:
256,192,97694,1,0,0:0:0:0:
256,192,97852,1,8,0:0:0:0:
256,192,98011,1,0,0:0:0:0:
256,192,98329,1,0,0:0:0:0:
256,192,98487,1,8,0:0:0:0:
256,192,98646,1,0,0:0:0:0:
256,192,98725,1,0,0:0:0:0:
256,192,98805,1,0,0:0:0:0:
256,192,98964,1,0,0:0:0:0:
256,192,99122,1,8,0:0:0:0:
256,192,99281,1,4,0:0:0:0:
256,192,99599,1,0,0:0:0:0:
256,192,99757,1,8,0:0:0:0:
256,192,100075,1,8,0:0:0:0:
256,192,100234,1,0,0:0:0:0:
256,192,100392,1,0,0:0:0:0:
256,192,100551,1,8,0:0:0:0:
256,192,100869,1,0,0:0:0:0:
256,192,101027,1,8,0:0:0:0:
256,192,101186,1,0,0:0:0:0:
256,192,101345,1,0,0:0:0:0:
256,192,101504,1,8,0:0:0:0:
256,192,101662,1,8,0:0:0:0:
256,192,101821,1,0,0:0:0:0:
256,192,101980,1,8,0:0:0:0:
256,192,102297,1,8,0:0:0:0:
256,192,102456,1,0,0:0:0:0:
256,192,102615,1,8,0:0:0:0:
256,192,102932,1,8,0:0:0:0:
256,192,103091,1,0,0:0:0:0:
256,192,103409,1,8,0:0:0:0:
256,192,103488,1,8,0:0:0:0:
256,192,103567,1,8,0:0:0:0:
256,192,103726,1,0,0:0:0:0:
256,192,103885,1,8,0:0:0:0:
256,192,104044,1,8,0:0:0:0:
256,192,104203,1,8,0:0:0:0:
256,192,104361,1,4,0:0:0:0:
256,192,104679,1,8,0:0:0:0:
256,192,104838,1,8,0:0:0:0:
256,192,105155,1,0,0:0:0:0:
256,192,105314,1,0,0:0:0:0:
256,192,105473,1,8,0:0:0:0:
256,192,105631,1,0,0:0:0:0:
256,192,105949,1,0,0:0:0:0:
256,192,106108,1,8,0:0:0:0:
256,192,106425,1,8,0:0:0:0:
256,192,106584,1,0,0:0:0:0:
256,192,106743,1,0,0:0:0:0:
256,192,106901,1,8,0:0:0:0:
256,192,107219,1,0,0:0:0:0:
256,192,107378,1,8,0:0:0:0:
256,192,107695,1,0,0:0:0:0:
256,192,107854,1,8,0:0:0:0:
256,192,108013,1,0,0:0:0:0:
256,192,108171,1,8,0:0:0:0:
256,192,108330,1,0,0:0:0:0:
256,192,108410,1,0,0:0:0:0:
256,192,108489,1,0,0:0:0:0:
256,192,108648,1,8,0:0:0:0:
256,192,108965,1,8,0:0:0:0:
256,192,109045,1,8,0:0:0:0:
256,192,109124,1,8,0:0:0:0:
256,192,109283,1,0,0:0:0:0:
256,192,109441,1,4,0:0:0:0:
256,192,109759,1,8,0:0:0:0:
256,192,109918,1,0,0:0:0:0:
256,192,110235,1,0,0:0:0:0:
256,192,110394,1,0,0:0:0:0:
256,192,110553,1,8,0:0:0:0:
256,192,110711,1,0,0:0:0:0:
256,192,110870,1,8,0:0:0:0:
256,192,111188,1,8,0:0:0:0:
256,192,111346,1,0,0:0:0:0:
256,192,111505,1,8,0:0:0:0:
256,192,111823,1,0,0:0:0:0:
256,192,111982,1,8,0:0:0:0:
256,192,112140,1,0,0:0:0:0:
256,192,112458,1,8,0:0:0:0:
256,192,112775,1,8,0:0:0:0:
256,192,112934,1,8,0:0:0:0:
256,192,113093,1,0,0:0:0:0:
256,192,113252,1,6,0:0:0:0:
256,192,113569,1,8,0:0:0:0:
256,192,113728,1,0,0:0:0:0:
256,192,113887,1,6,0:0:0:0:
256,192,114204,1,0,0:0:0:0:
256,192,114363,1,8,0:0:0:0:
256,192,114522,1,0,0:0:0:0:
256,192,114680,1,0,0:0:0:0:
256,192,114839,1,0,0:0:0:0:
256,192,114918,1,0,0:0:0:0:
256,192,114998,1,0,0:0:0:0:
256,192,115157,1,0,0:0:0:0:
256,192,115315,1,0,0:0:0:0:
256,192,115474,1,8,0:0:0:0:
256,192,115633,1,8,0:0:0:0:
256,192,115792,1,4,0:0:0:0:
256,192,116903,1,0,0:0:0:0:
256,192,117062,1,8,0:0:0:0:
256,192,117220,1,4,0:0:0:0:
256,192,117538,1,8,0:0:0:0:
256,192,117855,1,0,0:0:0:0:
256,192,118014,1,0,0:0:0:0:
256,192,118173,1,8,0:0:0:0:
256,192,118332,1,0,0:0:0:0:
256,192,118490,1,0,0:0:0:0:
256,192,118808,1,8,0:0:0:0:
256,192,118967,1,0,0:0:0:0:
256,192,119126,1,0,0:0:0:0:
256,192,119284,1,0,0:0:0:0:
256,192,119443,1,8,0:0:0:0:
256,192,119602,1,0,0:0:0:0:
256,192,119919,1,0,0:0:0:0:
256,192,120078,1,8,0:0:0:0:
256,192,120396,1,0,0:0:0:0:
256,192,120554,1,0,0:0:0:0:
256,192,120713,1,8,0:0:0:0:
256,192,120872,1,8,0:0:0:0:
256,192,121031,1,0,0:0:0:0:
256,192,121348,1,8,0:0:0:0:
256,192,121507,1,0,0:0:0:0:
256,192,121666,1,8,0:0:0:0:
256,192,121824,1,8,0:0:0:0:
256,192,121983,1,0,0:0:0:0:
256,192,122142,1,0,0:0:0:0:
256,192,122301,1,4,0:0:0:0:
256,192,122618,1,8,0:0:0:0:
256,192,122936,1,0,0:0:0:0:
256,192,123094,1,0,0:0:0:0:
256,192,123253,1,8,0:0:0:0:
256,192,123412,1,0,0:0:0:0:
256,192,123729,1,0,0:0:0:0:
256,192,123888,1,8,0:0:0:0:
256,192,124206,1,0,0:0:0:0:
256,192,124364,1,0,0:0:0:0:
256,192,124523,1,8,0:0:0:0:
256,192,124682,1,0,0:0:0:0:
256,192,124761,1,0,0:0:0:0:
256,192,124841,1,0,0:0:0:0:
256,192,124999,1,0,0:0:0:0:
256,192,125317,1,0,0:0:0:0:
256,192,125476,1,8,0:0:0:0:
256,192,125634,1,0,0:0:0:0:
256,192,125952,1,8,0:0:0:0:
256,192,126111,1,8,0:0:0:0:
256,192,126269,1,8,0:0:0:0:
256,192,126349,1,8,0:0:0:0:
256,192,126428,1,8,0:0:0:0:
256,192,126587,1,0,0:0:0:0:
256,192,126746,1,8,0:0:0:0:
256,192,126905,1,0,0:0:0:0:
256,192,127063,1,8,0:0:0:0:
256,192,127222,1,8,0:0:0:0:
256,192,127381,1,4,0:0:0:0:
256,192,127698,1,8,0:0:0:0:
256,192,128016,1,0,0:0:0:0:
256,192,128175,1,0,0:0:0:0:
256,192,128333,1,8,0:0:0:0:
256,192,128492,1,0,0:0:0:0:
256,192,128810,1,8,0:0:0:0:
256,192,128968,1,8,0:0:0:0:
256,192,129127,1,0,0:0:0:0:
256,192,129286,1,8,0:0:0:0:
256,192,129445,1,8,0:0:0:0:
256,192,129603,1,0,0:0:0:0:
256,192,129762,1,0,0:0:0:0:
256,192,130080,1,8,0:0:0:0:
256,192,130238,1,8,0:0:0:0:
256,192,130556,1,0,0:0:0:0:
256,192,130715,1,0,0:0:0:0:
256,192,130873,1,8,0:0:0:0:
256,192,131032,1,0,0:0:0:0:
256,192,131350,1,0,0:0:0:0:
256,192,131508,1,8,0:0:0:0:
256,192,131667,1,0,0:0:0:0:
256,192,131826,1,0,0:0:0:0:
256,192,131985,1,0,0:0:0:0:
256,192,132143,1,8,0:0:0:0:
256,192,132302,1,8,0:0:0:0:
256,192,132461,1,4,0:0:0:0:
256,192,132778,1,4,0:0:0:0:
256,192,133096,1,0,0:0:0:0:
256,192,133255,1,8,0:0:0:0:
256,192,133413,1,8,0:0:0:0:
256,192,133572,1,0,0:0:0:0:
256,192,133890,1,0,0:0:0:0:
256,192,134049,1,8,0:0:0:0:
256,192,134366,1,0,0:0:0:0:
256,192,134525,1,0,0:0:0:0:
256,192,134684,1,8,0:0:0:0:
256,192,135001,1,0,0:0:0:0:
256,192,135160,1,0,0:0:0:0:
256,192,135477,1,0,0:0:0:0:
256,192,135636,1,8,0:0:0:0:
256,192,135954,1,8,0:0:0:0:
256,192,136112,1,0,0:0:0:0:
256,192,136430,1,8,0:0:0:0:
256,192,136589,1,0,0:0:0:0:
256,192,136747,1,0,0:0:0:0:
256,192,136906,1,8,0:0:0:0:
256,192,137224,1,8,0:0:0:0:
256,192,137382,1,8,0:0:0:0:
256,192,137541,1,4,0:0:0:0:
256,192,137859,1,8,0:0:0:0:
256,192,138017,1,0,0:0:0:0:
256,192,138176,1,0,0:0:0:0:
256,192,138494,1,0,0:0:0:0:
256,192,138652,1,0,0:0:0:0:
256,192,138811,1,8,0:0:0:0:
256,192,139129,1,8,0:0:0:0:
256,192,139287,1,8,0:0:0:0:
256,192,139446,1,0,0:0:0:0:
256,192,139605,1,0,0:0:0:0:
256,192,139764,1,8,0:0:0:0:
256,192,139922,1,0,0:0:0:0:
256,192,140240,1,0,0:0:0:0:
256,192,140399,1,8,0:0:0:0:
256,192,140557,1,0,0:0:0:0:
256,192,140875,1,8,0:0:0:0:
256,192,141034,1,0,0:0:0:0:
256,192,141193,1,8,0:0:0:0:
256,192,141510,1,8,0:0:0:0:
256,192,141669,1,0,0:0:0:0:
256,192,141828,1,0,0:0:0:0:
256,192,141986,1,8,0:0:0:0:
256,192,142304,1,0,0:0:0:0:
256,192,142463,1,0,0:0:0:0:
256,192,142621,1,8,0:0:0:0:
256,192,142780,1,8,0:0:0:0:
256,192,142939,1,0,0:0:0:0:
256,192,143098,1,0,0:0:0:0:
256,192,143256,1,8,0:0:0:0:
256,192,143415,1,0,0:0:0:0:
256,192,143574,1,8,0:0:0:0:
256,192,143733,1,0,0:0:0:0:
256,192,144050,1,0,0:0:0:0:
256,192,144209,1,8,0:0:0:0:
256,192,144368,1,8,0:0:0:0:
256,192,144526,1,8,0:0:0:0:
256,192,144685,1,0,0:0:0:0:
256,192,144844,1,8,0:0:0:0:
256,192,145003,1,0,0:0:0:0:
256,192,145320,1,0,0:0:0:0:
256,192,145479,1,8,0:0:0:0:
256,192,145638,1,0,0:0:0:0:
256,192,145796,1,8,0:0:0:0:
256,192,145955,1,0,0:0:0:0:
256,192,146114,1,8,0:0:0:0:
256,192,146273,1,8,0:0:0:0:
256,192,146431,1,4,0:0:0:0:
256,192,146749,1,8,0:0:0:0:
256,192,146908,1,4,0:0:0:0:
256,192,147225,1,8,0:0:0:0:
256,192,147384,1,4,0:0:0:0:
256,192,147701,1,8,0:0:0:0:
256,192,147860,1,4,0:0:0:0:
256,192,148178,1,8,0:0:0:0:
256,192,148337,1,4,0:0:0:0:
256,192,148495,1,0,0:0:0:0:
256,192,148654,1,8,0:0:0:0:
256,192,148813,1,0,0:0:0:0:
256,192,148972,1,4,0:0:0:0:
256,192,149289,1,8,0:0:0:0:
256,192,149607,1,0,0:0:0:0:
256,192,149765,1,0,0:0:0:0:
256,192,149924,1,8,0:0:0:0:
256,192,150083,1,0,0:0:0:0:
256,192,150400,1,0,0:0:0:0:
256,192,150559,1,8,0:0:0:0:
256,192,150718,1,8,0:0:0:0:
256,192,150877,1,0,0:0:0:0:
256,192,151035,1,8,0:0:0:0:
256,192,151194,1,8,0:0:0:0:
256,192,151353,1,4,0:0:0:0:
256,192,151670,1,0,0:0:0:0:
256,192,151829,1,8,0:0:0:0:
256,192,151988,1,4,0:0:0:0:
256,192,152305,1,0,0:0:0:0:
256,192,152464,1,8,0:0:0:0:
256,192,152623,1,4,0:0:0:0:
256,192,152940,1,0,0:0:0:0:
256,192,153099,1,8,0:0:0:0:
256,192,153258,1,4,0:0:0:0:
256,192,153575,1,0,0:0:0:0:
256,192,153734,1,6,0:0:0:0:
256,192,154052,1,8,0:0:0:0:
256,192,154210,1,0,0:0:0:0:
256,192,154369,1,0,0:0:0:0:
256,192,154528,1,8,0:0:0:0:
256,192,154687,1,8,0:0:0:0:
256,192,154845,1,0,0:0:0:0:
256,192,155004,1,8,0:0:0:0:
256,192,155163,1,0,0:0:0:0:
256,192,155480,1,0,0:0:0:0:
256,192,155639,1,8,0:0:0:0:
256,192,155957,1,0,0:0:0:0:
256,192,156116,1,8,0:0:0:0:
256,192,156274,1,8,0:0:0:0:
256,192,156433,1,0,0:0:0:0:
256,192,156751,1,0,0:0:0:0:
256,192,156909,1,8,0:0:0:0:
256,192,157068,1,0,0:0:0:0:
256,192,157227,1,8,0:0:0:0:
256,192,157386,1,0,0:0:0:0:
256,192,157544,1,0,0:0:0:0:
256,192,157862,1,4,0:0:0:0:
256,192,158338,1,4,0:0:0:0:
256,192,158814,1,4,0:0:0:0:
256,192,159291,1,4,0:0:0:0:
256,192,159767,1,4,0:0:0:0:
256,192,160084,1,8,0:0:0:0:
256,192,160402,1,4,0:0:0:0:
256,192,160561,1,8,0:0:0:0:
256,192,160640,1,8,0:0:0:0:
256,192,160719,1,8,0:0:0:0:
256,192,160878,1,0,0:0:0:0:
256,192,161037,1,8,0:0:0:0:
256,192,161196,1,0,0:0:0:0:
256,192,161354,1,0,0:0:0:0:
256,192,161513,1,8,0:0:0:0:
256,192,161831,1,0,0:0:0:0:
256,192,161989,1,8,0:0:0:0:
256,192,162307,1,8,0:0:0:0:
256,192,162466,1,0,0:0:0:0:
256,192,162624,1,0,0:0:0:0:
256,192,162783,1,8,0:0:0:0:
256,192,163101,1,0,0:0:0:0:
256,192,163259,1,8,0:0:0:0:
256,192,163418,1,0,0:0:0:0:
256,192,163498,1,0,0:0:0:0:
256,192,163577,1,0,0:0:0:0:
256,192,163736,1,0,0:0:0:0:
256,192,163895,1,8,0:0:0:0:
256,192,164053,1,0,0:0:0:0:
256,192,164371,1,0,0:0:0:0:
256,192,164530,1,8,0:0:0:0:
256,192,164847,1,8,0:0:0:0:
256,192,165006,1,0,0:0:0:0:
256,192,165165,1,0,0:0:0:0:
256,192,165323,1,8,0:0:0:0:
256,192,165641,1,0,0:0:0:0:
256,192,165800,1,8,0:0:0:0:
256,192,166117,1,8,0:0:0:0:
256,192,166196,1,8,0:0:0:0:
256,192,166276,1,8,0:0:0:0:
256,192,166435,1,0,0:0:0:0:
256,192,166593,1,8,0:0:0:0:
256,192,166752,1,8,0:0:0:0:
256,192,166911,1,8,0:0:0:0:
256,192,167070,1,0,0:0:0:0:
256,192,167387,1,8,0:0:0:0:
256,192,167546,1,0,0:0:0:0:
256,192,167705,1,8,0:0:0:0:
256,192,168022,1,0,0:0:0:0:
256,192,168181,1,8,0:0:0:0:
256,192,168340,1,8,0:0:0:0:
256,192,168498,1,0,0:0:0:0:
256,192,168657,1,8,0:0:0:0:
256,192,168816,1,0,0:0:0:0:
256,192,168975,1,8,0:0:0:0:
256,192,169133,1,8,0:0:0:0:
256,192,169213,1,8,0:0:0:0:
256,192,169292,1,8,0:0:0:0:
256,192,169451,1,0,0:0:0:0:
256,192,169610,1,8,0:0:0:0:
256,192,169927,1,8,0:0:0:0:
256,192,170086,1,0,0:0:0:0:
256,192,170245,1,0,0:0:0:0:
256,192,170403,1,8,0:0:0:0:
256,192,170721,1,0,0:0:0:0:
256,192,170880,1,0,0:0:0:0:
256,192,171039,1,0,0:0:0:0:
256,192,171197,1,8,0:0:0:0:
256,192,171356,1,0,0:0:0:0:
256,192,171515,1,8,0:0:0:0:
256,192,171832,1,8,0:0:0:0:
256,192,171991,1,0,0:0:0:0:
256,192,172150,1,8,0:0:0:0:
256,192,172467,1,8,0:0:0:0:
256,192,172626,1,0,0:0:0:0:
256,192,172785,1,8,0:0:0:0:
256,192,173102,1,0,0:0:0:0:
256,192,173261,1,0,0:0:0:0:
256,192,173420,1,8,0:0:0:0:
256,192,173579,1,0,0:0:0:0:
256,192,173658,1,0,0:0:0:0:
256,192,173737,1,0,0:0:0:0:
256,192,173896,1,0,0:0:0:0:
256,192,174055,1,8,0:0:0:0:
256,192,174214,1,8,0:0:0:0:
256,192,174372,1,0,0:0:0:0:
256,192,174690,1,8,0:0:0:0:
256,192,175007,1,0,0:0:0:0:
256,192,175166,1,8,0:0:0:0:
256,192,175325,1,8,0:0:0:0:
256,192,175484,1,0,0:0:0:0:
256,192,175801,1,8,0:0:0:0:
256,192,175960,1,8,0:0:0:0:
256,192,176277,1,8,0:0:0:0:
256,192,176436,1,0,0:0:0:0:
256,192,176595,1,0,0:0:0:0:
256,192,176754,1,8,0:0:0:0:
256,192,176912,1,8,0:0:0:0:
256,192,177230,1,8,0:0:0:0:
256,192,177547,1,0,0:0:0:0:
256,192,177706,1,8,0:0:0:0:
256,192,177865,1,0,0:0:0:0:
256,192,178024,1,0,0:0:0:0:
256,192,178183,1,8,0:0:0:0:
256,192,178500,1,8,0:0:0:0:
256,192,178659,1,8,0:0:0:0:
256,192,178738,1,8,0:0:0:0:
256,192,178818,1,8,0:0:0:0:
256,192,178976,1,0,0:0:0:0:
256,192,179135,1,8,0:0:0:0:
256,192,179294,1,0,0:0:0:0:
256,192,179453,1,0,0:0:0:0:
256,192,179532,1,0,0:0:0:0:
256,192,179611,1,0,0:0:0:0:
256,192,179770,1,8,0:0:0:0:
256,192,180088,1,8,0:0:0:0:
256,192,180246,1,8,0:0:0:0:
256,192,180405,1,0,0:0:0:0:
256,192,180564,1,4,0:0:0:0:
256,192,180881,1,0,0:0:0:0:
256,192,181040,1,8,0:0:0:0:
256,192,181358,1,8,0:0:0:0:
256,192,181516,1,8,0:0:0:0:
256,192,181675,1,0,0:0:0:0:
256,192,181834,1,8,0:0:0:0:
256,192,182151,1,0,0:0:0:0:
256,192,182310,1,8,0:0:0:0:
256,192,182628,1,0,0:0:0:0:
256,192,182786,1,0,0:0:0:0:
256,192,182945,1,8,0:0:0:0:
256,192,183104,1,4,0:0:0:0:
256,192,183421,1,0,0:0:0:0:
256,192,183580,1,8,0:0:0:0:
256,192,183739,1,4,0:0:0:0:
256,192,184056,1,0,0:0:0:0:
256,192,184215,1,8,0:0:0:0:
256,192,184374,1,4,0:0:0:0:
256,192,184691,1,0,0:0:0:0:
256,192,184850,1,8,0:0:0:0:
256,192,185009,1,0,0:0:0:0:
256,192,185168,1,8,0:0:0:0:
256,192,185326,1,0,0:0:0:0:
256,192,185485,1,8,0:0:0:0:
256,192,185644,1,4,0:0:0:0:
256,192,185962,1,0,0:0:0:0:
256,192,186120,1,8,0:0:0:0:
256,192,186279,1,0,0:0:0:0:
256,192,186438,1,8,0:0:0:0:
256,192,186597,1,8,0:0:0:0:
256,192,186755,1,8,0:0:0:0:
256,192,186914,1,4,0:0:0:0:
256,192,187232,1,8,0:0:0:0:
256,192,187390,1,8,0:0:0:0:
256,192,187708,1,0,0:0:0:0:
256,192,187867,1,8,0:0:0:0:
256,192,188025,1,8,0:0:0:0:
256,192,188184,1,4,0:0:0:0:
256,192,188502,1,0,0:0:0:0:
256,192,188660,1,8,0:0:0:0:
256,192,188819,1,4,0:0:0:0:
256,192,189137,1,0,0:0:0:0:
256,192,189295,1,6,0:0:0:0:
256,192,189613,2,0,L|256:236,10,35
256,192,190724,1,4,0:0:0:0:
256,192,191042,1,8,0:0:0:0:
256,192,191200,1,0,0:0:0:0:
256,192,191518,1,0,0:0:0:0:
256,192,191677,1,0,0:0:0:0:
256,192,191835,1,8,0:0:0:0:
256,192,191994,1,0,0:0:0:0:
256,192,192312,1,0,0:0:0:0:
256,192,192470,1,8,0:0:0:0:
256,192,192788,1,0,0:0:0:0:
256,192,192947,1,8,0:0:0:0:
256,192,193106,1,8,0:0:0:0:
256,192,193264,1,0,0:0:0:0:
256,192,193582,1,8,0:0:0:0:
256,192,193741,1,8,0:0:0:0:
256,192,194058,1,0,0:0:0:0:
256,192,194217,1,0,0:0:0:0:
256,192,194376,1,8,0:0:0:0:
256,192,194534,1,8,0:0:0:0:
256,192,194693,1,0,0:0:0:0:
256,192,195011,1,8,0:0:0:0:
256,192,195169,1,0,0:0:0:0:
256,192,195487,1,0,0:0:0:0:
256,192,195646,1,8,0:0:0:0:
256,192,195804,1,4,0:0:0:0:
256,192,196122,1,0,0:0:0:0:
256,192,196281,1,8,0:0:0:0:
256,192,196439,1,0,0:0:0:0:
256,192,196519,1,0,0:0:0:0:
256,192,196598,1,0,0:0:0:0:
256,192,196757,1,0,0:0:0:0:
256,192,196916,1,8,0:0:0:0:
256,192,197074,1,4,0:0:0:0:
256,192,197392,1,0,0:0:0:0:
256,192,197551,1,8,0:0:0:0:
256,192,197709,5,0,0:0:0:0:
256,192,198027,1,8,0:0:0:0:
256,192,198186,1,8,0:0:0:0:
256,192,198344,1,4,0:0:0:0:
256,192,198662,1,0,0:0:0:0:
256,192,198821,1,8,0:0:0:0:
256,192,198979,1,0,0:0:0:0:
256,192,199138,1,8,0:0:0:0:
256,192,199297,1,8,0:0:0:0:
256,192,199456,1,8,0:0:0:0:
256,192,199614,1,0,0:0:0:0:
256,192,199932,1,4,0:0:0:0:
256,192,200249,1,4,0:0:0:0:
256,192,200567,1,4,0:0:0:0:
256,192,200885,1,6,0:0:0:0:
256,192,201202,1,0,0:0:0:0:
256,192,201361,1,8,0:0:0:0:
256,192,201678,1,8,0:0:0:0:
256,192,201837,1,0,0:0:0:0:
256,192,201996,1,0,0:0:0:0:
256,192,202155,1,8,0:0:0:0:
256,192,202472,1,0,0:0:0:0:
256,192,202631,1,8,0:0:0:0:
256,192,202948,1,0,0:0:0:0:
256,192,203107,1,0,0:0:0:0:
256,192,203266,1,8,0:0:0:0:
256,192,203425,1,0,0:0:0:0:
256,192,203742,1,0,0:0:0:0:
256,192,203901,1,8,0:0:0:0:
256,192,204218,1,0,0:0:0:0:
256,192,204377,1,0,0:0:0:0:
256,192,204536,1,8,0:0:0:0:
256,192,204695,1,0,0:0:0:0:
256,192,204774,1,0,0:0:0:0:
256,192,204853,1,0,0:0:0:0:
256,192,205012,1,0,0:0:0:0:
256,192,205171,1,8,0:0:0:0:
256,192,205330,1,4,0:0:0:0:
256,192,205647,1,0,0:0:0:0:
256,192,205806,1,8,0:0:0:0:
256,192,205965,1,0,0:0:0:0:
256,192,206123,2,0,L|256:244,14,35
256,192,207393,12,0,208187,0:0:0:0:
256,192,208346,5,0,0:0:0:0:
256,192,208505,1,8,0:0:0:0:
256,192,208663,1,4,0:0:0:0:
256,192,208981,1,8,0:0:0:0:
256,192,209299,1,0,0:0:0:0:
256,192,209457,1,0,0:0:0:0:
256,192,209616,1,8,0:0:0:0:
256,192,209775,1,0,0:0:0:0:
256,192,210092,1,8,0:0:0:0:
256,192,210251,1,8,0:0:0:0:
256,192,210569,1,8,0:0:0:0:
256,192,210727,1,8,0:0:0:0:
256,192,210886,1,0,0:0:0:0:
256,192,211045,1,8,0:0:0:0:
256,192,211362,1,0,0:0:0:0:
256,192,211442,1,0,0:0:0:0:
256,192,211521,1,0,0:0:0:0:
256,192,211680,1,0,0:0:0:0:
256,192,211839,1,8,0:0:0:0:
256,192,211997,1,0,0:0:0:0:
256,192,212156,1,8,0:0:0:0:
256,192,212315,1,0,0:0:0:0:
256,192,212632,1,0,0:0:0:0:
256,192,212791,1,8,0:0:0:0:
256,192,213109,1,0,0:0:0:0:
256,192,213267,1,0,0:0:0:0:
256,192,213426,1,8,0:0:0:0:
256,192,213585,1,0,0:0:0:0:
256,192,213744,1,4,0:0:0:0:
256,192,214061,1,8,0:0:0:0:
256,192,214379,1,0,0:0:0:0:
256,192,214537,1,0,0:0:0:0:
256,192,214696,1,8,0:0:0:0:
256,192,214855,1,0,0:0:0:0:
256,192,215172,1,0,0:0:0:0:
256,192,215331,1,8,0:0:0:0:
256,192,215649,1,0,0:0:0:0:
256,192,215808,1,0,0:0:0:0:
256,192,215966,1,8,0:0:0:0:
256,192,216125,1,0,0:0:0:0:
256,192,216204,1,0,0:0:0:0:
256,192,216284,1,0,0:0:0:0:
256,192,216443,1,8,0:0:0:0:
256,192,216760,1,0,0:0:0:0:
256,192,216919,1,8,0:0:0:0:
256,192,217236,1,0,0:0:0:0:
256,192,217395,1,8,0:0:0:0:
256,192,217554,1,4,0:0:0:0:
256,192,217713,1,0,0:0:0:0:
256,192,218030,1,0,0:0:0:0:
256,192,218189,1,8,0:0:0:0:
256,192,218506,1,8,0:0:0:0:
256,192,218665,1,8,0:0:0:0:
256,192,218824,1,4,0:0:0:0:
256,192,219141,1,6,0:0:0:0:
256,192,219459,1,0,0:0:0:0:
256,192,219618,1,0,0:0:0:0:
256,192,219776,1,8,0:0:0:0:
256,192,219935,1,8,0:0:0:0:
256,192,220253,1,0,0:0:0:0:
256,192,220411,1,8,0:0:0:0:
256,192,220570,1,0,0:0:0:0:
256,192,220650,1,0,0:0:0:0:
256,192,220729,1,0,0:0:0:0:
256,192,220888,1,0,0:0:0:0:
256,192,221046,1,8,0:0:0:0:
256,192,221205,1,0,0:0:0:0:
256,192,221523,1,8,0:0:0:0:
256,192,221681,1,0,0:0:0:0:
256,192,221840,1,0,0:0:0:0:
256,192,221999,1,8,0:0:0:0:
256,192,222316,1,8,0:0:0:0:
256,192,222475,1,0,0:0:0:0:
256,192,222793,1,0,0:0:0:0:
256,192,222952,1,8,0:0:0:0:
256,192,223269,1,0,0:0:0:0:
256,192,223428,1,0,0:0:0:0:
256,192,223587,1,8,0:0:0:0:
256,192,223745,1,8,0:0:0:0:
256,192,223904,1,4,0:0:0:0:
256,192,224222,1,6,0:0:0:0:
256,192,224539,1,0,0:0:0:0:
256,192,224698,1,0,0:0:0:0:
256,192,224857,1,8,0:0:0:0:
256,192,225015,1,0,0:0:0:0:
256,192,225333,1,0,0:0:0:0:
256,192,225492,1,0,0:0:0:0:
256,192,225809,1,0,0:0:0:0:
256,192,225968,1,0,0:0:0:0:
256,192,226127,1,8,0:0:0:0:
256,192,226285,1,0,0:0:0:0:
256,192,226444,1,4,0:0:0:0:
256,192,226762,1,8,0:0:0:0:
256,192,227079,1,0,0:0:0:0:
256,192,227238,1,0,0:0:0:0:
256,192,227397,1,8,0:0:0:0:
256,192,227714,1,4,0:0:0:0:
256,192,227873,1,0,0:0:0:0:
256,192,228190,1,0,0:0:0:0:
256,192,228349,1,8,0:0:0:0:
256,192,228667,1,0,0:0:0:0:
256,192,228825,1,8,0:0:0:0:
256,192,228984,1,4,0:0:0:0:
256,192,229302,1,8,0:0:0:0:
256,192,229619,1,0,0:0:0:0:
256,192,229778,1,0,0:0:0:0:
256,192,229937,1,8,0:0:0:0:
256,192,230096,1,8,0:0:0:0:
256,192,230254,1,0,0:0:0:0:
256,192,230572,1,8,0:0:0:0:
256,192,230731,1,0,0:0:0:0:
256,192,230889,1,0,0:0:0:0:
256,192,231048,1,8,0:0:0:0:
256,192,231207,1,8,0:0:0:0:
256,192,231366,1,0,0:0:0:0:
256,192,231683,1,0,0:0:0:0:
256,192,231842,1,8,0:0:0:0:
256,192,232159,1,0,0:0:0:0:
256,192,232318,1,0,0:0:0:0:
256,192,232477,1,8,0:0:0:0:
256,192,232636,1,0,0:0:0:0:
256,192,232794,1,0,0:0:0:0:
256,192,233112,1,8,0:0:0:0:
256,192,233429,1,8,0:0:0:0:
256,192,233588,1,8,0:0:0:0:
256,192,233747,1,0,0:0:0:0:
256,192,233906,1,0,0:0:0:0:
256,192,234064,1,8,0:0:0:0:
256,192,234382,1,0,0:0:0:0:
256,192,234699,1,8,0:0:0:0:
256,192,234858,1,0,0:0:0:0:
256,192,235017,1,0,0:0:0:0:
256,192,235176,1,8,0:0:0:0:
256,192,235493,1,0,0:0:0:0:
256,192,235652,1,8,0:0:0:0:
256,192,235969,1,0,0:0:0:0:
256,192,236128,1,0,0:0:0:0:
256,192,236287,1,8,0:0:0:0:
256,192,236446,1,0,0:0:0:0:
256,192,236604,1,4,0:0:0:0:
256,192,236922,1,8,0:0:0:0:
256,192,237081,1,4,0:0:0:0:
256,192,237398,1,8,0:0:0:0:
256,192,237557,1,4,0:0:0:0:
256,192,237875,1,8,0:0:0:0:
256,192,238033,1,4,0:0:0:0:
256,192,238351,1,8,0:0:0:0:
256,192,238510,1,0,0:0:0:0:
256,192,238589,1,0,0:0:0:0:
256,192,238668,1,0,0:0:0:0:
256,192,238827,1,8,0:0:0:0:
256,192,238986,1,0,0:0:0:0:
256,192,239145,1,0,0:0:0:0:
256,192,239462,1,12,0:0:0:0:
256,192,239780,1,0,0:0:0:0:
256,192,239938,1,0,0:0:0:0:
256,192,240097,1,8,0:0:0:0:
256,192,240256,1,0,0:0:0:0:
256,192,240573,1,0,0:0:0:0:
256,192,240732,1,8,0:0:0:0:
256,192,241050,1,8,0:0:0:0:
256,192,241208,1,0,0:0:0:0:
256,192,241367,1,0,0:0:0:0:
256,192,241526,1,8,0:0:0:0:
256,192,241605,1,8,0:0:0:0:
256,192,241685,1,8,0:0:0:0:
256,192,241843,1,0,0:0:0:0:
256,192,242002,1,8,0:0:0:0:
256,192,242320,1,0,0:0:0:0:
256,192,242478,1,8,0:0:0:0:
256,192,242637,1,8,0:0:0:0:
256,192,242796,1,0,0:0:0:0:
256,192,242955,1,8,0:0:0:0:
256,192,243113,1,0,0:0:0:0:
256,192,243272,1,0,0:0:0:0:
256,192,243590,1,8,0:0:0:0:
256,192,243748,1,0,0:0:0:0:
256,192,243907,1,0,0:0:0:0:
256,192,244066,1,8,0:0:0:0:
256,192,244225,1,4,0:0:0:0:
256,192,244542,1,4,0:0:0:0:
256,192,244860,1,0,0:0:0:0:
256,192,245019,1,8,0:0:0:0:
256,192,245177,1,8,0:0:0:0:
256,192,245336,1,8,0:0:0:0:
256,192,245495,1,4,0:0:0:0:
256,192,245812,1,8,0:0:0:0:
256,192,246130,1,0,0:0:0:0:
256,192,246289,1,0,0:0:0:0:
256,192,246447,1,8,0:0:0:0:
256,192,246606,1,0,0:0:0:0:
256,192,246685,1,0,0:0:0:0:
256,192,246765,1,0,0:0:0:0:
256,192,247082,1,8,0:0:0:0:
256,192,247400,1,0,0:0:0:0:
256,192,247559,1,8,0:0:0:0:
256,192,247717,1,8,0:0:0:0:
256,192,247876,1,0,0:0:0:0:
256,192,248035,1,0,0:0:0:0:
256,192,248114,1,0,0:0:0:0:
256,192,248194,1,0,0:0:0:0:
256,192,248352,1,0,0:0:0:0:
256,192,248670,1,8,0:0:0:0:
256,192,248829,1,0,0:0:0:0:
256,192,248987,1,8,0:0:0:0:
256,192,249146,1,4,0:0:0:0:
256,192,249463,1,0,0:0:0:0:
256,192,249622,1,8,0:0:0:0:
256,192,249781,1,8,0:0:0:0:
256,192,249940,1,0,0:0:0:0:
256,192,250098,1,8,0:0:0:0:
256,192,250257,1,0,0:0:0:0:
256,192,250416,1,0,0:0:0:0:
256,192,250733,1,0,0:0:0:0:
256,192,250892,1,8,0:0:0:0:
256,192,251051,1,8,0:0:0:0:
256,192,251210,1,0,0:0:0:0:
256,192,251368,1,8,0:0:0:0:
256,192,251686,1,0,0:0:0:0:
256,192,252003,1,0,0:0:0:0:
256,192,252162,1,8,0:0:0:0:
256,192,252480,1,0,0:0:0:0:
256,192,252638,1,8,0:0:0:0:
256,192,252797,1,0,0:0:0:0:
256,192,252956,1,4,0:0:0:0:
256,192,253274,1,0,0:0:0:0:
256,192,253433,1,8,0:0:0:0:
256,192,253591,1,4,0:0:0:0:
256,192,253909,1,0,0:0:0:0:
256,192,254068,1,8,0:0:0:0:
256,192,254226,1,4,0:0:0:0:
256,192,254544,1,0,0:0:0:0:
256,192,254703,1,8,0:0:0:0:
256,192,254861,1,8,0:0:0:0:
256,192,255020,1,0,0:0:0:0:
256,192,255179,1,8,0:0:0:0:
256,192,255496,1,4,0:0:0:0:
256,192,255814,1,0,0:0:0:0:
256,192,255973,1,8,0:0:0:0:
256,192,256290,1,0,0:0:0:0:
256,192,256449,1,8,0:0:0:0:
256,192,256608,1,8,0:0:0:0:
256,192,256766,1,4,0:0:0:0:
256,192,257084,1,0,0:0:0:0:
256,192,257243,1,8,0:0:0:0:
256,192,257401,1,8,0:0:0:0:
256,192,257560,1,0,0:0:0:0:
256,192,257719,1,8,0:0:0:0:
256,192,257878,1,0,0:0:0:0:
256,192,258036,1,4,0:0:0:0:
256,192,258354,1,0,0:0:0:0:
256,192,258433,1,0,0:0:0:0:
256,192,258513,1,0,0:0:0:0:
256,192,258671,1,0,0:0:0:0:
256,192,258830,1,8,0:0:0:0:
256,192,258989,1,0,0:0:0:0:
256,192,259148,1,8,0:0:0:0:
256,192,259306,1,0,0:0:0:0:
256,192,259465,12,0,259942,0:0:0:0:
