osu file format v12

[General]
AudioFilename: 03 Xanandra.mp3
AudioLeadIn: 2000
PreviewTime: 58274
Countdown: 0
SampleSet: Soft
StackLeniency: 0.5
Mode: 0
LetterboxInBreaks: 0
WidescreenStoryboard: 0

[Editor]
DistanceSpacing: 1
BeatDivisor: 4
GridSize: 8

[Metadata]
Title:Xanandra
TitleUnicode:Xanandra
Artist:Mago de Oz
ArtistUnicode:Mago de Oz
Creator:Xanandra
Version:Insane
Source:
Tags:Sieg -Anhedonia- kazukisinx mancusojuanmattos mancuso_JM_
BeatmapID:221026
BeatmapSetID:74313

[Difficulty]
HPDrainRate:6
CircleSize:4
OverallDifficulty:8
ApproachRate:9
SliderMultiplier:1.6
SliderTickRate:2

[Events]
//Background and Video events
0,0,"clip (2013-01-20 at 09.10.37).jpg",0,0
//Break Periods
2,79160,87251
2,137741,145514
//Storyboard Layer 0 (Background)
//Storyboard Layer 1 (Fail)
//Storyboard Layer 2 (Pass)
//Storyboard Layer 3 (Foreground)
//Storyboard Sound Samples
//Background Colour Transformations
3,100,0,0,0

[TimingPoints]
377,317.510715986665,4,2,1,100,1,0
9267,-100,4,2,1,40,0,0
9346,-100,4,2,1,55,0,0
9426,-100,4,2,1,70,0,0
9506,-100,4,2,1,85,0,0
9584,-100,4,2,1,100,0,0
11410,-100,4,2,5,100,0,0
11569,-100,4,2,1,100,0,0
12680,-100,4,2,5,100,0,0
12839,-100,4,2,1,100,0,0
13950,-100,4,2,5,100,0,0
14109,-100,4,2,1,100,0,0
16490,-100,4,2,5,100,0,0
16649,-100,4,2,1,100,0,0
17760,-100,4,2,5,100,0,0
17919,-100,4,2,1,100,0,0
57528,-100,4,1,1,100,0,0
58798,-100,4,1,1,100,0,1
76579,-100,4,1,1,100,0,0
89280,-100,4,2,1,100,0,0
115950,-100,4,1,1,100,0,0
117220,-100,4,1,1,100,0,1
135001,-100,4,1,1,100,0,0
146352,-100,4,2,1,100,0,0
206123,-100,4,2,1,50,0,0
206282,-100,4,2,1,60,0,0
206441,-100,4,2,1,70,0,0
206600,-100,4,2,1,80,0,0
206758,-100,4,2,1,90,0,0
206917,-100,4,2,1,100,0,0
207393,-100,4,1,1,100,0,0
208664,-100,4,1,1,100,0,1
226444,-100,4,1,1,100,0,0
228984,-80,4,1,1,100,0,1
246765,-80,4,1,1,100,0,0
248035,-80,4,1,1,100,0,1
248987,-80,4,1,1,100,0,0
249146,-100,4,1,1,100,0,0
250178,-100,4,2,5,100,0,0
250337,-100,4,1,1,100,0,0
251475,-100,4,2,5,100,0,0
251607,-100,4,1,1,100,0,0
252718,-100,4,2,5,100,0,0
252877,-100,4,1,1,100,0,0
255258,-100,4,2,5,100,0,0
255417,-100,4,1,1,100,0,0
256528,-100,4,2,5,100,0,0
256687,-100,4,1,1,100,0,0

[Colours]
Combo1 : 225,175,125
Combo2 : 75,150,75
Combo3 : 225,225,150
Combo4 : 0,150,150

[HitObjects]
478,289,218,2,0,P|406:257|325:257,1,160,4|0,0:0|0:0,0:0:0:0:
202,245,694,1,8,1:0:0:0:
271,167,853,2,0,P|299:138|335:124,2,80,8|0|0,1:0|0:0|0:0,0:0:0:0:
220,75,1329,1,0,1:0:0:0:
0,115,1488,6,0,P|71:147|152:147,1,160,0|0,0:0|0:0,0:0:0:0:
238,204,1964,1,8,1:0:0:0:
166,279,2123,2,0,P|137:308|101:322,2,80,8|0|0,1:0|0:0|0:0,0:0:0:0:
255,332,2599,1,0,1:0:0:0:
478,289,2758,6,0,P|406:257|325:257,1,160,0|0,0:0|0:0,0:0:0:0:
220,75,3234,1,8,1:0:0:0:
238,204,3393,1,8,1:0:0:0:
255,332,3552,1,0,0:0:0:0:
307,127,3710,1,0,0:0:0:0:
325,256,3869,1,0,1:0:0:0:
342,384,4028,5,2,0:3:0:0:
342,384,4107,1,0,0:0:0:0:
342,384,4187,1,2,0:0:0:0:
169,276,4345,1,4,0:3:0:0:
325,256,4504,1,10,0:3:0:0:
152,148,4663,1,0,0:0:0:0:
307,127,4822,1,10,0:3:0:0:
134,19,4980,1,4,0:3:0:0:
291,2,5139,1,10,0:3:0:0:
134,19,5298,6,0,B|150:60|150:60|221:101|221:101|227:134,1,160,4|0,0:0|0:0,0:0:0:0:
32,134,5774,2,0,L|103:171,1,80,8|8,1:0|1:0,0:0:0:0:
48,260,6092,2,0,L|119:297,1,80,2|0,0:0|0:0,0:0:0:0:
301,199,6409,1,0,1:0:0:0:
301,199,6568,6,0,B|257:175|257:175|226:114|226:114|179:89,1,160,4|0,0:0|0:0,0:0:0:0:
354,97,7044,2,0,L|311:19,1,80,8|8,1:0|1:0,0:0:0:0:
472,124,7362,2,0,L|433:53,1,80,2|0,0:0|0:0,0:0:0:0:
396,189,7679,1,0,1:0:0:0:
396,189,7838,6,0,B|419:245|419:245|398:299|398:299|419:356,1,160,4|0,0:0|0:0,0:0:0:0:
251,370,8314,2,0,L|295:284,1,80,8|8,1:0|1:0,0:0:0:0:
267,91,8632,2,0,L|223:177,1,80,2|0,0:0|0:0,0:0:0:0:
32,346,8949,1,0,1:0:0:0:
32,346,9029,1,0,0:0:0:0:
32,346,9108,6,0,L|76:260,1,80,2|0,0:3|0:3,0:0:0:0:
79,271,9346,1,4,0:3:0:0:
90,267,9426,1,4,0:3:0:0:
101,263,9505,1,4,0:3:0:0:
112,259,9584,1,10,0:3:0:0:
159,183,9743,2,0,L|115:269,1,80,0|10,0:0|0:3,0:0:0:0:
125,57,10061,1,4,0:3:0:0:
125,57,10219,1,6,0:3:0:0:
252,28,10378,6,0,P|337:37|392:101,1,160,4|0,0:0|0:0,0:0:0:0:
477,138,10854,2,0,L|406:201,1,80,12|8,1:0|1:0,0:0:0:0:
420,295,11172,1,2,0:0:0:0:
318,273,11331,2,0,P|240:268|161:318,1,160,0|2,0:0|0:0,0:0:0:0:
32,71,11807,5,0,0:0:0:0:
32,71,11966,1,2,0:0:0:0:
32,71,12124,2,0,L|109:142,1,80,8|8,1:0|1:0,0:0:0:0:
124,223,12442,1,2,0:0:0:0:
217,177,12601,2,0,P|259:107|329:76,1,160,0|2,0:0|0:0,0:0:0:0:
498,272,13077,5,0,0:0:0:0:
498,272,13236,1,2,0:0:0:0:
498,272,13394,2,0,L|393:265,1,80,8|8,1:0|1:0,0:0:0:0:
345,341,13712,1,2,0:0:0:0:
253,291,13871,2,0,P|206:341|112:354,1,160,0|6,0:0|1:0,0:0:0:0:
118,355,14347,5,0,0:0:0:0:
118,355,14506,1,4,0:0:0:0:
95,198,14664,1,2,1:0:0:0:
67,297,14823,1,4,0:0:0:0:
190,148,14982,1,2,1:0:0:0:
25,235,15141,1,4,0:0:0:0:
304,84,15300,1,2,1:0:0:0:
298,205,15458,6,0,P|317:241|362:270,1,80,2|0,0:0|0:0,0:0:0:0:
347,264,15776,1,2,0:0:0:0:
212,60,15935,2,0,P|193:24|148:-5,1,80,8|8,1:0|1:0,0:0:0:0:
162,0,16252,1,2,0:0:0:0:
76,57,16411,2,0,P|114:129|204:187,1,160,0|2,0:0|0:0,0:0:0:0:
175,176,16887,1,0,0:0:0:0:
6,164,17046,6,0,P|37:188|56:224,1,80,0|8,0:0|1:0,0:0:0:0:
56,224,17363,1,8,1:0:0:0:
84,323,17522,1,2,0:0:0:0:
186,307,17681,2,0,P|279:291|338:219,2,160,0|2|2,0:0|0:0|0:0,0:0:0:0:
175,176,18475,6,0,P|197:154|244:146,1,80,8|8,1:0|1:0,0:0:0:0:
333,91,18792,1,2,0:0:0:0:
241,41,18951,2,0,L|80:16,2,160,0|6|10,0:0|0:1|0:3,0:0:0:0:
333,91,19745,5,0,0:1:0:0:
358,191,19903,1,10,0:3:0:0:
503,364,20062,1,0,0:0:0:0:
478,264,20221,1,6,0:3:0:0:
336,88,20380,1,4,0:3:0:0:
361,188,20538,1,6,0:1:0:0:
340,83,20856,5,4,3:0:0:0:
365,183,21015,1,0,1:0:0:0:
397,281,21173,2,0,P|330:304|314:319,1,80,0|2,0:0|0:0,0:0:0:0:
221,330,21491,2,0,L|241:240,1,80,0|0,0:0|1:0,0:0:0:0:
258,149,21808,2,0,P|170:153|99:129,1,160,2|0,0:0|0:0,0:0:0:0:
9,83,22285,1,0,1:0:0:0:
77,4,22443,1,2,0:0:0:0:
435,380,22761,5,4,3:0:0:0:
435,380,22920,1,0,1:0:0:0:
503,301,23079,1,0,0:0:0:0:
409,253,23237,2,0,P|342:231|254:235,1,160,2|0,0:0|1:0,0:0:0:0:
212,139,23714,6,0,L|170:230,1,80,0|2,0:0|0:0,0:0:0:0:
179,212,24031,1,0,0:0:0:0:
206,312,24190,1,0,1:0:0:0:
107,344,24349,1,2,0:0:0:0:
197,176,24666,1,0,0:0:0:0:
240,328,24825,1,0,1:0:0:0:
91,376,24984,1,2,0:0:0:0:
441,52,25301,6,0,P|408:24|355:6,1,80,4|0,3:0|1:0,0:0:0:0:
469,132,25619,1,0,0:0:0:0:
469,132,25777,2,0,P|454:213|391:282,1,160,2|0,0:0|1:0,0:0:0:0:
429,373,26254,1,0,0:0:0:0:
429,373,26412,2,0,L|319:360,1,80,2|0,0:0|0:0,0:0:0:0:
295,273,26730,1,0,1:0:0:0:
231,354,26889,6,0,P|180:296|172:204,1,160,2|0,0:0|0:0,0:0:0:0:
64,211,27365,1,0,1:0:0:0:
64,211,27524,2,0,L|118:118,1,80,2|0,0:0|0:0,0:0:0:0:
9,98,27841,1,0,0:0:0:0:
85,27,28000,1,0,1:0:0:0:
85,27,28159,2,0,L|265:51,1,160,2|0,0:0|0:0,0:0:0:0:
243,48,28635,5,0,1:0:0:0:
191,147,28794,1,0,0:0:0:0:
138,245,28952,1,2,0:0:0:0:
343,106,29111,1,0,0:0:0:0:
291,205,29270,1,0,1:0:0:0:
238,303,29429,1,0,0:0:0:0:
444,167,29587,5,4,3:0:0:0:
243,48,29746,1,4,3:0:0:0:
392,266,29905,1,2,0:0:0:0:
191,147,30064,1,0,0:0:0:0:
339,364,30223,5,10,3:0:0:0:
138,245,30381,1,4,3:0:0:0:
343,106,30540,1,10,3:0:0:0:
339,364,30699,1,6,1:0:0:0:
176,215,31016,5,0,3:0:0:0:
176,215,31175,2,0,L|158:309,1,80,8|0,0:0|0:0,0:0:0:0:
309,283,31493,2,0,L|246:356,1,80,0|0,3:0|0:0,0:0:0:0:
507,73,31810,2,0,L|433:10,1,80,8|0,0:0|0:0,0:0:0:0:
385,157,32128,2,0,L|353:66,1,80,0|0,3:0|0:0,0:0:0:0:
234,162,32445,2,0,L|251:67,1,80,8|0,0:0|0:0,0:0:0:0:
102,105,32763,2,0,L|164:31,1,80,0|0,3:0|0:0,0:0:0:0:
396,306,33080,1,10,0:1:0:0:
396,306,33239,2,0,P|314:290|228:322,1,160,2|0,0:1|0:0,0:0:0:0:
23,353,33715,6,0,L|3:258,1,80,8|0,0:0|0:0,0:0:0:0:
156,288,34033,2,0,L|91:215,1,80,0|0,3:0|0:0,0:0:0:0:
233,158,34350,2,0,L|141:127,1,80,8|0,0:0|0:0,0:0:0:0:
247,15,34668,2,0,L|152:34,1,80,0|0,3:0|0:0,0:0:0:0:
417,313,34985,2,0,L|483:243,1,80,8|0,0:0|0:0,0:0:0:0:
339,185,35303,2,0,L|431:157,1,80,0|0,0:0|3:0,0:0:0:0:
213,231,35620,1,10,0:1:0:0:
213,231,35779,2,0,P|255:287|273:374,1,160,2|0,0:1|0:0,0:0:0:0:
68,198,36255,6,0,L|0:157,1,80,8|0,0:0|0:0,0:0:0:0:
147,125,36573,2,0,L|110:55,1,80,0|0,3:0|0:0,0:0:0:0:
252,102,36890,2,0,L|255:23,1,80,8|0,0:0|0:0,0:0:0:0:
363,383,37208,2,0,L|429:339,1,80,0|0,3:0|0:0,0:0:0:0:
287,311,37525,2,0,L|323:239,1,80,8|0,0:0|0:0,0:0:0:0:
180,286,37843,2,0,L|175:206,1,80,0|0,0:0|3:0,0:0:0:0:
360,1,38160,1,10,0:1:0:0:
360,1,38319,6,0,P|438:57|521:68,1,160,2|0,0:1|0:0,0:0:0:0:
439,187,38795,2,0,P|360:130|277:119,1,160,10|2,0:1|0:1,0:0:0:0:
217,54,39272,1,2,0:1:0:0:
232,173,39430,1,8,0:1:0:0:
248,292,39589,1,2,0:1:0:0:
141,237,39748,6,0,P|94:240|35:230,1,80,0|4,0:0|0:3,0:0:0:0:
61,236,39986,1,4,0:3:0:0:
61,236,40065,1,6,0:3:0:0:
337,145,40224,1,0,0:0:0:0:
163,384,40383,1,6,0:3:0:0:
167,89,40542,1,2,0:1:0:0:
336,325,40700,1,4,0:3:0:0:
206,236,40859,1,6,0:1:0:0:
59,110,41177,5,0,0:0:0:0:
51,213,41335,1,10,0:0:0:0:
52,317,41494,1,0,0:0:0:0:
141,368,41653,1,2,0:0:0:0:
141,263,41812,1,0,0:0:0:0:
149,159,41970,1,10,0:0:0:0:
232,221,42129,2,0,P|296:230|406:231,1,160,2|0,0:0|0:0,0:0:0:0:
149,159,42605,1,10,0:0:0:0:
240,111,42764,2,0,P|335:112|399:121,1,160,2|0,0:0|0:0,0:0:0:0:
471,46,43240,2,0,L|503:139,1,80,10|0,0:0|0:0,0:0:0:0:
388,0,43558,6,0,L|227:21,2,160,2|10|2,0:0|0:0|0:0,0:0:0:0:
449,203,44352,1,0,0:0:0:0:
347,183,44510,1,10,0:0:0:0:
244,162,44669,5,2,0:1:0:0:
232,159,44749,1,0,0:0:0:0:
220,156,44828,1,2,0:1:0:0:
208,153,44907,1,0,0:0:0:0:
196,150,44987,1,0,0:0:0:0:
184,147,45066,1,0,0:0:0:0:
172,145,45146,1,2,0:1:0:0:
160,143,45225,1,0,0:0:0:0:
148,140,45304,2,0,P|137:100|139:55,1,80,0|2,0:0|0:1,0:0:0:0:
137,62,45622,1,2,0:1:0:0:
81,206,45781,1,10,0:0:0:0:
81,206,45939,2,0,P|103:286|99:376,1,160,6|0,0:1|0:0,0:0:0:0:
149,136,46416,6,0,P|178:165|199:205,1,80,12|0,0:0|0:0,0:0:0:0:
259,114,46733,2,0,L|345:105,1,80,2|0,0:0|0:0,0:0:0:0:
218,16,47051,1,10,0:0:0:0:
218,16,47209,2,0,L|390:-2,1,160,2|0,0:0|0:0,0:0:0:0:
170,163,47686,1,10,0:0:0:0:
170,163,47844,2,0,L|342:145,1,160,2|0,0:0|0:0,0:0:0:0:
78,214,48321,1,10,0:0:0:0:
70,317,48479,1,0,0:0:0:0:
165,277,48638,6,0,P|242:319|299:392,2,160,2|10|2,0:0|0:0|0:0,0:0:0:0:
213,184,49432,2,0,P|250:161|285:154,1,80,0|0,0:0|0:0,0:0:0:0:
112,187,49749,1,2,0:1:0:0:
275,245,49908,1,10,0:3:0:0:
112,187,50067,1,0,0:0:0:0:
112,187,50226,1,2,0:1:0:0:
112,187,50384,5,0,0:0:0:0:
348,140,50543,1,10,0:3:0:0:
112,187,50702,1,0,0:0:0:0:
376,22,50861,1,10,0:3:0:0:
158,325,51019,1,6,0:1:0:0:
456,297,51337,6,0,L|365:272,1,80,0|10,0:0|0:0,0:0:0:0:
284,319,51654,1,0,0:0:0:0:
480,191,51813,2,0,L|389:166,1,80,2|0,0:0|0:0,0:0:0:0:
308,213,52131,1,10,0:0:0:0:
505,87,52290,2,0,L|323:37,1,160,2|0,0:0|0:0,0:0:0:0:
247,29,52766,1,10,0:0:0:0:
148,62,52925,2,0,P|105:143|103:227,1,160,2|0,0:0|0:0,0:0:0:0:
126,310,53401,2,0,L|21:326,1,80,10|4,0:0|0:0,0:0:0:0:
374,187,53877,5,0,0:0:0:0:
270,200,54036,1,10,0:0:0:0:
166,214,54195,1,0,0:0:0:0:
436,270,54353,1,2,0:0:0:0:
332,283,54512,1,0,0:0:0:0:
228,297,54671,1,10,0:0:0:0:
126,310,54830,1,4,0:0:0:0:
436,270,55147,5,0,0:0:0:0:
281,289,55306,1,10,0:0:0:0:
126,310,55465,1,4,0:0:0:0:
436,270,55782,5,0,0:0:0:0:
126,310,55941,1,8,0:0:0:0:
345,189,56100,1,0,0:0:0:0:
190,208,56258,1,8,0:0:0:0:
257,110,56417,1,0,0:0:0:0:
257,110,56576,5,4,0:3:0:0:
174,209,56735,1,0,0:0:0:0:
361,185,56893,1,4,0:3:0:0:
94,314,57052,1,0,0:0:0:0:
467,263,57211,1,0,1:0:0:0:
257,110,57370,1,4,0:0:0:0:
257,110,58481,5,10,0:0:0:0:
223,207,58640,1,0,0:0:0:0:
324,180,58798,2,0,P|368:109|454:103,2,160,2|10|2,0:0|0:0|0:0,0:0:0:0:
401,248,59592,1,2,0:0:0:0:
401,248,59751,2,0,L|420:335,1,80,8|0,0:0|0:0,0:0:0:0:
474,121,60069,2,0,L|512:295,1,160,2|8,0:0|0:0,0:0:0:0:
417,46,60545,2,0,L|504:27,1,80,0|0,0:0|0:0,0:0:0:0:
344,104,60862,2,0,L|325:17,1,80,0|8,0:0|0:0,0:0:0:0:
318,187,61180,6,0,L|231:206,1,80,2|0,0:0|0:0,0:0:0:0:
181,291,61497,1,2,0:0:0:0:
17,259,61656,2,0,L|104:240,1,80,10|0,0:0|0:0,0:0:0:0:
185,306,61974,1,2,0:0:0:0:
131,76,62132,2,0,L|150:163,1,80,0|8,0:0|0:0,0:0:0:0:
188,320,62450,1,2,0:0:0:0:
260,132,62609,2,0,P|312:84|330:0,2,160,2|8|0,0:0|0:0|0:0,0:0:0:0:
380,203,63402,2,0,P|343:226|308:224,1,80,0|10,0:0|0:0,0:0:0:0:
204,206,63720,1,8,0:0:0:0:
103,233,63879,6,0,P|51:281|33:365,2,160,6|10|2,0:0|0:0|0:0,0:0:0:0:
203,206,64672,1,2,0:0:0:0:
143,120,64831,2,0,L|49:113,1,80,8|0,0:0|0:0,0:0:0:0:
259,104,65149,2,0,L|447:118,2,160,2|10|2,0:0|0:0|0:0,0:0:0:0:
328,234,65942,1,2,0:0:0:0:
328,234,66101,1,8,0:0:0:0:
394,384,66260,6,0,P|315:364|209:374,1,160,6|0,0:0|0:0,0:0:0:0:
145,322,66736,1,8,0:0:0:0:
302,238,66895,2,0,P|263:249|220:280,1,80
136,336,67213,1,0,0:0:0:0:
200,131,67371,2,0,P|172:159|150:208,1,80,8|0,0:0|0:0,0:0:0:0:
280,100,67689,2,0,P|358:111|453:161,2,160,4|8|0,0:0|0:0|0:0,0:0:0:0:
277,204,68483,1,0,0:0:0:0:
321,297,68641,1,10,0:0:0:0:
297,249,68721,1,0,0:0:0:0:
277,204,68800,1,8,0:0:0:0:
236,108,68959,6,0,P|181:51|85:3,2,160,6|10|2,0:0|0:0|0:0,0:0:0:0:
179,195,69753,2,0,L|85:204,1,80,2|8,0:0|0:0,0:0:0:0:
347,122,70070,2,0,L|535:104,1,160,2|0,0:0|0:0,0:0:0:0:
506,106,70546,1,8,0:0:0:0:
265,32,70705,2,0,L|359:23,1,80,0|0,0:0|0:0,0:0:0:0:
344,24,71023,1,0,0:0:0:0:
447,12,71181,1,8,0:0:0:0:
211,151,71340,6,0,P|220:234|192:316,1,160,2|2,0:0|0:0,0:0:0:0:
271,381,71816,2,0,L|181:385,1,80,8|2,0:0|0:0,0:0:0:0:
96,340,72134,1,2,0:0:0:0:
334,280,72293,2,0,L|244:284,1,80,0|10,0:0|0:0,0:0:0:0:
159,239,72610,1,2,0:0:0:0:
159,239,72769,1,6,0:0:0:0:
159,239,72928,1,0,0:0:0:0:
399,175,73086,2,0,L|309:179,1,80,8|0,0:0|0:0,0:0:0:0:
224,134,73404,1,0,0:0:0:0:
224,134,73563,1,0,0:0:0:0:
224,134,73721,5,10,0:0:0:0:
159,239,73880,1,0,0:0:0:0:
96,340,74039,1,6,0:0:0:0:
96,340,74356,1,14,0:0:0:0:
96,340,74674,1,2,0:0:0:0:
159,239,74833,1,2,0:0:0:0:
224,134,74992,1,10,0:0:0:0:
119,74,75150,1,0,0:0:0:0:
57,177,75309,1,6,0:0:0:0:
158,240,75468,5,0,0:0:0:0:
241,130,75627,1,10,0:0:0:0:
114,57,75785,1,0,0:0:0:0:
40,181,75944,1,2,0:0:0:0:
162,258,76103,1,2,0:0:0:0:
252,127,76262,6,0,P|292:108|331:104,1,80,8|2,0:0|0:0,0:0:0:0:
332,114,76500,1,0,0:0:0:0:
338,123,76579,2,0,P|370:210|426:262,2,160,6|8|0,0:0|0:0|0:0,0:0:0:0:
423,53,77373,2,0,L|350:21,1,80,0|8,0:0|0:0,0:0:0:0:
252,59,77690,1,0,0:0:0:0:
188,141,77849,6,0,P|108:106|59:41,1,160,8|4,0:3|0:3,0:0:0:0:
55,59,78246,1,0,0:0:0:0:
45,66,78325,1,0,0:0:0:0:
6,318,78484,1,4,0:3:0:0:
15,310,78564,1,4,0:3:0:0:
24,302,78643,2,0,P|56:265|98:247,1,80,4|8,0:3|0:3,0:0:0:0:
0,166,78960,1,4,0:0:0:0:
401,153,87851,6,0,P|334:182|244:186,1,160,2|2,0:0|0:0,0:0:0:0:
208,15,88327,2,0,L|224:102,1,80,10|0,0:0|0:0,0:0:0:0:
60,143,88644,2,0,L|143:172,1,80,2|0,0:0|0:0,0:0:0:0:
118,329,88962,2,0,L|185:271,1,80,10|4,0:0|0:0,0:0:0:0:
178,277,89438,5,0,3:0:0:0:
178,277,89597,1,8,0:1:0:0:
281,293,89756,1,0,0:0:0:0:
383,309,89915,1,0,3:0:0:0:
485,325,90073,1,0,0:0:0:0:
142,233,90232,5,8,0:1:0:0:
244,248,90391,1,0,0:0:0:0:
346,264,90550,1,0,3:0:0:0:
448,280,90708,1,0,0:0:0:0:
107,183,90867,5,8,0:1:0:0:
209,198,91026,1,0,0:0:0:0:
311,214,91185,1,0,3:0:0:0:
413,230,91343,1,0,0:0:0:0:
299,0,91502,5,10,0:1:0:0:
299,0,91661,2,0,P|266:68|267:150,1,160,2|0,0:1|0:0,0:0:0:0:
50,176,92137,5,8,0:1:0:0:
137,231,92296,1,0,0:0:0:0:
313,339,92455,5,0,3:0:0:0:
224,284,92613,1,0,0:0:0:0:
32,120,92772,5,8,0:1:0:0:
121,175,92931,1,0,0:0:0:0:
296,283,93090,5,0,3:0:0:0:
208,229,93248,1,0,0:0:0:0:
20,61,93407,5,8,0:1:0:0:
108,115,93566,1,0,0:0:0:0:
283,224,93725,5,0,3:0:0:0:
196,169,93883,1,0,3:0:0:0:
365,86,94042,5,10,0:1:0:0:
365,86,94201,2,0,P|283:65|222:8,1,160,2|0,0:1|0:0,0:0:0:0:
481,129,94677,5,8,0:1:0:0:
386,174,94836,1,0,0:0:0:0:
178,316,94995,5,0,3:0:0:0:
272,271,95153,1,0,0:0:0:0:
439,241,95312,5,8,0:1:0:0:
346,286,95471,1,0,0:0:0:0:
202,263,95630,5,0,3:0:0:0:
294,218,95788,1,0,0:0:0:0:
459,183,95947,5,8,0:1:0:0:
365,227,96106,1,0,0:0:0:0:
160,374,96265,5,0,3:0:0:0:
253,331,96423,1,0,3:0:0:0:
77,54,96582,5,10,0:1:0:0:
77,54,96741,2,0,P|54:132|-1:188,1,160,2|0,0:1|0:0,0:0:0:0:
120,255,97217,2,0,P|143:177|198:121,1,160,10|2,0:1|0:1,0:0:0:0:
162,22,97694,1,2,0:1:0:0:
265,33,97852,1,8,0:0:0:0:
367,45,98011,1,6,0:3:0:0:
418,52,98090,1,4,0:3:0:0:
470,57,98170,5,4,0:3:0:0:
162,22,98329,1,0,0:0:0:0:
452,170,98487,1,10,0:3:0:0:
144,135,98646,1,4,0:3:0:0:
436,281,98805,1,10,0:3:0:0:
128,246,98964,1,6,0:3:0:0:
297,157,99122,1,8,0:3:0:0:
297,157,99281,1,6,0:1:0:0:
40,375,99599,6,0,P|93:366|134:348,1,80,0|10,0:0|0:0,0:0:0:0:
212,313,99916,2,0,P|250:275|273:236,1,80,0|2,0:0|0:0,0:0:0:0:
363,287,100234,1,0,0:0:0:0:
330,188,100392,1,10,0:0:0:0:
432,203,100551,2,0,P|455:123|517:60,2,160,2|2|0,0:0|0:0|0:0,0:0:0:0:
503,278,101345,6,0,L|416:328,1,80,2|0,0:0|0:0,0:0:0:0:
337,276,101662,1,10,0:0:0:0:
337,276,101821,2,0,P|256:275|171:326,1,160,2|0,0:0|0:0,0:0:0:0:
132,221,102297,2,0,P|132:174|151:136,1,80,10|0,0:0|0:0,0:0:0:0:
200,55,102615,1,2,0:0:0:0:
347,180,102774,2,0,P|332:150|296:120,1,80,0|10,0:0|0:0,0:0:0:0:
200,55,103091,5,2,0:1:0:0:
206,80,103171,1,0,0:0:0:0:
212,105,103250,1,2,0:1:0:0:
218,130,103329,1,0,0:0:0:0:
224,155,103409,1,2,0:1:0:0:
230,180,103488,1,0,0:0:0:0:
236,205,103567,1,2,0:1:0:0:
242,230,103647,1,0,0:0:0:0:
250,254,103726,2,0,P|306:267|338:264,1,80,0|2,0:0|0:1,0:0:0:0:
416,203,104044,1,2,0:1:0:0:
172,302,104203,1,10,0:0:0:0:
172,302,104361,2,0,P|60:276|-4:282,1,160,6|0,0:1|0:0,0:0:0:0:
132,200,104838,6,0,P|147:152|180:111,1,80,10|0,0:0|0:0,0:0:0:0:
320,35,105155,2,0,P|292:41|248:66,1,80,2|0,0:0|0:0,0:0:0:0:
392,112,105473,1,10,0:0:0:0:
158,44,105631,2,0,P|83:17|-7:14,1,160,2|0,0:0|0:0,0:0:0:0:
245,192,106108,1,10,0:0:0:0:
245,192,106266,2,0,P|320:219|410:222,1,160,2|0,0:0|0:0,0:0:0:0:
158,340,106743,1,10,0:0:0:0:
158,340,106901,2,0,P|83:367|-7:370,1,160,2|0,0:0|0:0,0:0:0:0:
3,371,107378,5,10,0:0:0:0:
56,219,107536,2,0,P|91:237|131:245,1,80
131,245,107854,1,4,0:3:0:0:
125,93,108013,2,0,P|146:128|184:157,1,80,10|6,0:0|0:3,0:0:0:0:
175,152,108330,5,2,0:3:0:0:
253,264,108489,1,0,0:0:0:0:
385,226,108648,1,6,0:3:0:0:
391,89,108806,1,0,0:0:0:0:
260,44,108965,1,10,0:3:0:0:
253,264,109124,1,10,0:3:0:0:
391,89,109283,1,8,0:0:0:0:
292,152,109441,6,0,P|215:207|150:220,1,160,6|0,0:1|0:0,0:0:0:0:
152,219,109918,2,0,P|95:231|67:249,1,80,10|0,0:0|0:0,0:0:0:0:
73,114,110235,2,0,P|94:113|149:132,1,80,2|0,0:0|0:0,0:0:0:0:
256,355,110553,1,10,0:0:0:0:
256,355,110711,2,0,P|244:239|227:201,1,160,2|0,0:0|0:0,0:0:0:0:
363,3,111188,1,10,0:0:0:0:
363,3,111346,2,0,P|268:71|243:105,1,160,2|0,0:0|0:0,0:0:0:0:
395,197,111823,2,0,P|373:197|318:178,1,80,10|0,0:0|0:0,0:0:0:0:
153,125,112140,6,0,P|64:92|-21:94,2,160,2|10|2,0:0|0:0|0:0,0:0:0:0:
189,27,112934,1,0,0:0:0:0:
251,120,113093,1,10,0:0:0:0:
317,210,113252,1,4,0:0:0:0:
189,27,113569,5,0,0:0:0:0:
278,166,113728,1,10,0:0:0:0:
383,296,113887,1,4,0:0:0:0:
189,27,114204,5,0,0:0:0:0:
189,27,114363,1,8,0:0:0:0:
189,27,114522,5,0,0:0:0:0:
278,166,114680,1,8,0:0:0:0:
383,296,114839,1,0,0:0:0:0:
210,59,114998,5,8,0:3:0:0:
299,198,115157,1,0,0:0:0:0:
404,328,115315,1,8,0:3:0:0:
234,88,115474,5,0,0:0:0:0:
323,228,115633,1,0,1:0:0:0:
428,358,115792,1,4,0:0:0:0:
428,358,116903,5,2,0:0:0:0:
345,293,117062,1,0,0:0:0:0:
269,366,117220,2,0,P|187:350|107:362,2,160,2|10|2,0:0|0:0|0:0,0:0:0:0:
229,269,118014,2,0,L|325:247,1,80,2|8,0:0|0:0,0:0:0:0:
305,36,118332,1,0,0:0:0:0:
305,36,118490,2,0,P|349:104|356:199,1,160,2|8,0:0|0:0,0:0:0:0:
466,292,118967,2,0,P|425:294|390:280,1,80
290,315,119284,2,0,L|301:230,1,80,0|8,0:0|0:0,0:0:0:0:
240,150,119602,6,0,P|201:154|167:176,1,80,2|0,0:0|0:0,0:0:0:0:
75,260,119919,1,2,0:0:0:0:
155,71,120078,2,0,P|124:94|105:130,1,80,10|0,0:0|0:0,0:0:0:0:
67,295,120396,1,2,0:0:0:0:
42,45,120554,2,0,P|26:80|28:121,1,80,2|8,0:0|0:0,0:0:0:0:
60,328,120872,1,2,0:0:0:0:
189,148,121031,2,0,P|193:229|163:301,2,160,2|8|8,0:0|0:0|0:0,0:0:0:0:
323,201,121824,1,8,0:0:0:0:
279,106,121983,1,10,0:0:0:0:
237,10,122142,1,0,0:0:0:0:
340,20,122301,6,0,P|418:6|516:19,2,160,6|10|2,0:0|0:0|0:0,0:0:0:0:
465,91,123094,2,0,L|365:94,1,80,2|8,0:0|0:0,0:0:0:0:
510,175,123412,2,0,L|334:176,1,160,2|0,0:0|0:0,0:0:0:0:
428,342,123888,2,0,P|398:300|371:277,1,80,10|0,0:0|0:0,0:0:0:0:
288,351,124206,1,2,0:0:0:0:
310,241,124364,2,0,P|213:204|142:196,1,160,2|2,0:0|0:0,0:0:0:0:
189,37,124841,6,0,P|170:85|166:120,1,80,6|0,0:0|0:0,0:0:0:0:
147,285,125158,1,8,0:0:0:0:
10,83,125317,2,0,P|58:101|93:105,1,80
256,112,125634,1,0,0:0:0:0:
65,269,125793,2,0,P|83:220|87:185,1,80,8|0,0:0|0:0,0:0:0:0:
81,16,126111,1,0,0:0:0:0:
93,31,126190,1,0,0:0:0:0:
105,46,126269,1,0,0:0:0:0:
117,61,126349,1,0,0:0:0:0:
129,76,126428,2,0,P|169:68|224:69,1,80,8|0,0:0|0:0,0:0:0:0:
462,228,126746,6,0,L|453:133,1,80,4|0,0:0|0:0,0:0:0:0:
367,242,127063,2,0,L|311:164,1,80,14|0,0:0|0:0,0:0:0:0:
314,322,127381,2,0,L|227:282,1,80,14|8,0:0|0:0,0:0:0:0:
170,130,127698,2,0,P|243:93|297:34,1,160,10|2,0:0|0:0,0:0:0:0:
87,166,128175,2,0,P|50:184|24:212,1,80,0|8,0:0|0:0,0:0:0:0:
258,359,128492,6,0,P|202:307|165:234,1,160,2|0,0:0|0:0,0:0:0:0:
164,233,128968,1,8,0:0:0:0:
164,233,129127,1,0,0:0:0:0:
48,378,129286,1,0,0:0:0:0:
67,276,129445,1,0,0:0:0:0:
87,166,129603,1,8,0:0:0:0:
108,55,129762,6,0,P|215:63|288:55,1,160,2|2,0:0|0:0,0:0:0:0:
379,62,130238,1,10,0:0:0:0:
177,172,130397,2,0,P|230:168|267:172,1,80,0|2,0:0|0:0,0:0:0:0:
397,172,130715,1,2,0:0:0:0:
454,323,130873,1,8,0:0:0:0:
286,310,131032,2,0,P|179:302|106:310,1,160,2|0,0:0|0:0,0:0:0:0:
33,243,131508,1,8,0:0:0:0:
288,179,131667,2,0,P|234:175|198:179,1,80,0|0,0:0|0:0,0:0:0:0:
15,266,131985,1,0,0:0:0:0:
170,52,132143,6,0,P|116:56|80:52,1,80,10|8,0:0|0:0,0:0:0:0:
2,284,132461,2,0,P|109:292|182:284,2,160,6|10|2,0:0|0:0|0:0,0:0:0:0:
255,253,133255,2,0,P|294:230|321:190,1,80,2|8,0:0|0:0,0:0:0:0:
419,267,133572,2,2,P|422:175|450:98,1,160,2|8,0:0|0:0,0:0:0:0:
443,111,134049,1,10,0:0:0:0:
339,124,134207,2,0,P|346:70|339:21,1,80,0|2,0:0|0:0,0:0:0:0:
343,44,134525,1,2,0:0:0:0:
260,214,134684,2,0,P|253:268|260:317,1,80,8|2,0:0|0:0,0:0:0:0:
245,301,134922,1,0,0:0:0:0:
236,308,135001,1,2,0:0:0:0:
237,123,135160,6,0,P|155:60|67:25,1,160,6|0,0:3|0:0,0:0:0:0:
11,166,135636,2,0,P|92:228|180:263,1,160,6|8,0:3|0:0,0:0:0:0:
247,233,136112,1,0,0:0:0:0:
333,289,136271,1,0,0:3:0:0:
421,343,136430,1,0,0:0:0:0:
230,136,136589,5,8,0:0:0:0:
316,192,136747,1,0,0:0:0:0:
404,246,136906,1,0,0:3:0:0:
213,41,137065,5,0,0:0:0:0:
333,289,137224,1,4,0:3:0:0:
59,322,137382,1,4,0:3:0:0:
59,322,137541,1,4,0:0:0:0:
512,213,146114,5,0,0:0:0:0:
512,213,146273,1,0,0:0:0:0:
512,213,146431,2,0,L|418:174,1,80,6|0,0:1|0:0,0:0:0:0:
296,126,146749,1,2,0:0:0:0:
454,319,146908,6,0,L|393:239,1,80,6|0,0:1|0:0,0:0:0:0:
311,118,147225,1,2,0:0:0:0:
351,378,147384,6,0,L|338:278,1,80,6|0,0:1|0:0,0:0:0:0:
326,110,147701,1,2,0:0:0:0:
232,384,147860,6,0,L|272:291,1,80,6|0,0:1|0:0,0:0:0:0:
341,102,148178,1,2,0:0:0:0:
124,323,148336,6,0,L|205:262,2,80,6|0|2,1:0|1:0|1:0,0:0:0:0:
358,96,148813,5,2,0:0:0:0:
358,96,148972,2,0,P|369:55|365:17,1,80,2|0,0:1|0:0,0:0:0:0:
285,141,149289,2,0,P|274:182|278:220,1,80,0|0,1:0|0:0,0:0:0:0:
139,228,149607,2,0,P|170:258|204:273,1,80,2|0,0:0|0:0,0:0:0:0:
294,324,149924,1,2,1:0:0:0:
374,256,150083,2,0,P|427:189|449:116,1,160,2|0,0:1|0:0,0:0:0:0:
284,222,150559,6,0,P|251:195|215:184,1,80,0|0,1:0|0:0,0:0:0:0:
434,338,150877,2,0,P|468:364|504:375,1,80,2|0,0:0|0:0,0:0:0:0:
309,343,151194,1,2,1:0:0:0:
211,308,151353,2,0,P|128:321|61:359,1,160,2|0,0:1|0:0,0:0:0:0:
356,267,151829,5,2,1:0:0:0:
153,216,151988,2,0,P|74:185|-2:185,1,160,2|0,0:1|0:0,0:0:0:0:
405,185,152464,5,2,1:0:0:0:
169,110,152623,2,0,P|116:44|50:5,1,160,2|0,0:1|0:0,0:0:0:0:
0,185,153099,5,2,1:0:0:0:
63,358,153258,2,0,P|128:321|211:308,1,160,2|0,0:1|0:0,0:0:0:0:
152,216,153734,5,6,1:0:0:0:
152,216,153893,1,0,0:0:0:0:
233,149,154052,2,0,P|242:192|272:241,1,80,6|0,1:0|0:0,0:0:0:0:
314,312,154369,2,0,P|348:340|402:360,1,80,0|0,1:0|0:0,0:0:0:0:
484,367,154687,1,2,0:0:0:0:
495,263,154845,2,0,P|481:221|446:176,1,80,0|10,0:1|1:0,0:0:0:0:
470,21,155163,2,0,P|415:75|379:175,1,160,2|0,0:1|0:0,0:0:0:0:
202,64,155639,6,0,P|212:101|246:141,1,80,2|0,1:0|0:0,0:0:0:0:
91,250,155957,2,0,P|129:260|181:250,1,80,2|0,0:1|0:0,0:0:0:0:
311,240,156274,1,0,1:0:0:0:
311,240,156433,2,0,P|377:284|424:361,1,160,2|2,0:1|0:1,0:0:0:0:
512,177,156909,5,0,1:0:0:0:
409,165,157068,1,2,0:1:0:0:
307,153,157227,1,0,0:0:0:0:
204,141,157386,1,2,0:1:0:0:
101,129,157544,1,0,1:0:0:0:
512,177,157862,5,6,0:1:0:0:
512,177,158021,1,0,0:0:0:0:
409,165,158179,1,2,0:0:0:0:
512,177,158338,5,6,0:1:0:0:
512,177,158497,1,0,0:0:0:0:
307,153,158656,1,2,0:0:0:0:
512,177,158814,5,6,0:1:0:0:
512,177,158973,1,0,0:0:0:0:
204,141,159132,1,2,0:0:0:0:
512,177,159291,5,6,0:1:0:0:
512,177,159449,1,0,0:0:0:0:
101,129,159608,2,0,P|55:124|14:110,1,80,2|6,0:0|0:1,0:0:0:0:
21,106,159846,1,0,0:0:0:0:
19,98,159926,5,4,3:0:0:0:
259,134,160084,1,4,3:0:0:0:
496,166,160243,1,0,3:0:0:0:
496,166,160402,2,0,P|497:121|507:87,1,80,6|0,3:0|0:0,0:0:0:0:
393,283,160719,2,0,P|389:329|378:371,2,80,10|0|2,0:1|0:0|0:1,0:0:0:0:
274,182,161196,2,0,P|290:116|298:24,2,160,2|2|0,0:1|0:1|0:0,0:0:0:0:
113,216,161989,2,0,P|129:282|137:374,1,160,10|0,0:1|0:0,0:0:0:0:
14,164,162466,5,0,0:0:0:0:
14,164,162545,1,0,0:0:0:0:
14,164,162624,2,0,P|49:135|70:93,1,80,8|2,0:0|0:1,0:0:0:0:
155,50,162942,1,0,0:0:0:0:
155,50,163101,2,0,L|81:-12,1,80,2|8,0:1|0:0,0:0:0:0:
188,151,163418,1,2,0:1:0:0:
188,151,163577,2,0,L|262:213,1,80,2|0,0:1|0:0,0:0:0:0:
351,179,163895,1,8,0:0:0:0:
351,179,163974,1,0,0:0:0:0:
351,179,164053,2,0,P|349:260|383:344,1,160,2|0,0:1|0:0,0:0:0:0:
510,315,164530,2,0,P|512:234|478:150,1,160,10|2,0:0|0:0,0:0:0:0:
401,97,165006,1,0,0:0:0:0:
401,97,165085,1,0,0:0:0:0:
401,97,165165,1,10,0:0:0:0:
306,55,165323,6,0,P|228:50|145:15,1,160,2|0,0:1|0:0,0:0:0:0:
67,80,165800,1,10,0:1:0:0:
140,153,165958,1,0,0:0:0:0:
134,172,166038,1,0,0:0:0:0:
128,191,166117,1,2,0:1:0:0:
96,290,166276,1,2,0:1:0:0:
326,354,166435,5,8,0:0:0:0:
249,261,166593,1,0,0:0:0:0:
245,237,166673,1,0,0:0:0:0:
241,213,166752,1,2,0:1:0:0:
223,94,166911,1,0,0:0:0:0:
461,11,167070,5,10,0:1:0:0:
362,105,167228,1,0,0:0:0:0:
357,140,167308,1,0,0:0:0:0:
352,175,167387,1,2,0:1:0:0:
415,295,167546,6,0,P|472:312|518:337,1,80,2|8,0:1|0:0,0:0:0:0:
135,286,167863,1,0,0:0:0:0:
117,241,167943,1,0,0:0:0:0:
99,196,168022,1,2,0:1:0:0:
141,65,168181,1,0,0:0:0:0:
448,185,168340,5,10,0:1:0:0:
448,185,168419,1,0,0:0:0:0:
448,185,168498,2,0,P|361:191|275:168,1,160,2|0,0:1|0:0,0:0:0:0:
198,126,168975,1,8,0:0:0:0:
95,145,169133,1,0,0:0:0:0:
95,145,169213,1,0,0:0:0:0:
95,145,169292,2,0,P|53:158|21:176,1,80,2|0,0:1|0:0,0:0:0:0:
173,225,169610,2,0,P|154:291|111:371,1,160,10|2,0:1|0:1,0:0:0:0:
249,53,170086,5,0,0:0:0:0:
290,209,170245,1,10,0:1:0:0:
332,364,170403,1,6,0:1:0:0:
154,62,170721,5,0,0:0:0:0:
154,62,170880,2,0,P|98:32|64:20,1,80,10|2,0:1|0:1,0:0:0:0:
64,17,171118,1,0,0:0:0:0:
44,12,171197,1,2,0:1:0:0:
263,18,171356,2,0,P|299:9|348:15,1,80,2|8,0:1|0:0,0:0:0:0:
352,8,171594,1,0,0:0:0:0:
366,0,171674,1,2,0:1:0:0:
462,76,171832,5,2,0:1:0:0:
392,219,171991,1,0,0:0:0:0:
311,154,172150,1,10,0:1:0:0:
287,148,172229,1,0,0:0:0:0:
263,143,172309,1,0,0:0:0:0:
181,78,172467,5,2,0:1:0:0:
62,273,172626,1,2,0:1:0:0:
152,222,172785,1,10,0:1:0:0:
175,218,172864,1,0,0:0:0:0:
198,214,172944,1,0,0:0:0:0:
288,266,173102,5,2,0:1:0:0:
448,89,173261,1,0,0:0:0:0:
352,47,173420,1,10,0:1:0:0:
328,52,173499,1,0,0:0:0:0:
304,56,173579,1,0,0:0:0:0:
201,36,173737,5,2,0:1:0:0:
117,274,173896,1,0,0:1:0:0:
214,238,174055,1,10,0:1:0:0:
237,241,174134,1,0,0:0:0:0:
260,246,174214,1,2,0:1:0:0:
358,213,174372,5,2,0:1:0:0:
358,213,174452,1,0,0:0:0:0:
358,213,174531,1,0,0:0:0:0:
447,159,174690,2,0,P|442:78|474:3,1,160,10|0,0:1|0:0,0:0:0:0:
315,11,175166,1,0,0:0:0:0:
326,114,175325,1,8,0:0:0:0:
345,215,175484,5,6,0:1:0:0:
321,221,175563,1,0,0:0:0:0:
298,229,175642,1,0,0:0:0:0:
275,236,175722,1,0,0:0:0:0:
252,243,175801,1,0,0:0:0:0:
229,250,175881,1,0,0:0:0:0:
206,257,175960,1,10,0:1:0:0:
183,264,176039,1,0,0:0:0:0:
159,270,176119,1,2,0:1:0:0:
135,272,176198,1,0,0:0:0:0:
111,271,176277,1,0,0:0:0:0:
87,263,176357,1,0,0:0:0:0:
66,250,176436,1,0,0:0:0:0:
49,232,176516,1,0,0:0:0:0:
35,211,176595,1,8,0:0:0:0:
22,190,176674,1,0,0:0:0:0:
15,166,176754,1,2,0:1:0:0:
6,143,176833,1,0,0:0:0:0:
3,119,176912,5,0,0:0:0:0:
25,126,176992,1,0,0:0:0:0:
48,133,177071,1,0,0:0:0:0:
71,137,177151,1,0,0:0:0:0:
94,138,177230,1,10,0:1:0:0:
117,133,177309,1,0,0:0:0:0:
138,122,177389,1,2,0:1:0:0:
155,106,177468,1,0,0:0:0:0:
170,88,177547,1,0,0:0:0:0:
185,69,177627,1,0,0:0:0:0:
203,53,177706,1,0,0:0:0:0:
222,38,177786,1,0,0:0:0:0:
244,29,177865,1,10,0:1:0:0:
267,24,177944,1,0,0:0:0:0:
291,26,178024,1,2,0:1:0:0:
312,35,178103,1,0,0:0:0:0:
345,57,178183,5,2,0:1:0:0:
332,77,178262,1,0,0:0:0:0:
320,97,178341,1,0,0:0:0:0:
307,117,178421,1,0,0:0:0:0:
327,150,178500,1,10,0:1:0:0:
314,170,178579,1,0,0:0:0:0:
302,190,178659,1,0,0:0:0:0:
289,210,178738,1,0,0:0:0:0:
251,223,178818,1,2,0:1:0:0:
231,210,178897,1,0,0:0:0:0:
211,198,178976,1,0,0:0:0:0:
191,185,179056,1,0,0:0:0:0:
151,190,179135,1,10,0:1:0:0:
131,177,179214,1,0,0:0:0:0:
111,165,179294,1,0,0:0:0:0:
91,152,179373,1,0,0:0:0:0:
98,112,179453,6,0,L|63:87,6,26.6666666666667,2|0|0|0|0|0|6,0:1|0:0|0:0|0:0|0:0|0:0|0:3,0:0:0:0:
216,28,179929,1,0,0:3:0:0:
342,80,180088,1,2,0:3:0:0:
394,206,180246,1,6,0:3:0:0:
342,332,180405,1,8,0:3:0:0:
216,384,180564,6,0,P|137:358|45:361,1,160,6|0,0:1|0:0,0:0:0:0:
109,200,181040,2,0,P|78:228|58:270,1,80,2|0,1:0|0:0,0:0:0:0:
252,298,181358,2,0,P|250:260|234:222,1,80,2|0,0:0|0:0,0:0:0:0:
181,138,181675,1,2,1:0:0:0:
181,138,181834,2,0,P|213:47|261:-1,1,160,6|0,0:1|0:0,0:0:0:0:
344,187,182310,6,0,P|296:194|263:184,1,80,0|0,1:0|0:0,0:0:0:0:
333,36,182628,2,0,P|360:52|388:92,1,80,2|0,0:0|0:0,0:0:0:0:
236,73,182945,1,2,1:0:0:0:
169,153,183104,2,0,P|100:189|19:200,1,160,6|0,0:1|0:0,0:0:0:0:
323,37,183580,5,2,1:0:0:0:
244,249,183739,2,0,P|202:314|138:365,1,160,2|0,0:1|0:0,0:0:0:0:
413,46,184215,5,2,1:0:0:0:
372,229,184374,2,0,P|368:306|338:382,1,160,2|2,0:1|0:1,0:0:0:0:
370,119,184850,6,0,P|372:80|387:42,1,80,2|0,1:0|0:1,0:0:0:0:
426,175,185168,2,0,P|464:177|502:192,1,80,0|0,1:0|0:0,0:0:0:0:
319,176,185485,1,0,1:0:0:0:
318,177,185644,2,0,P|241:173|165:143,1,160,6|0,0:1|0:0,0:0:0:0:
86,73,186120,6,0,P|67:39|59:0,1,80,0|0,1:0|0:0,0:0:0:0:
0,205,186438,2,0,P|35:189|65:161,1,80,2|0,0:0|0:0,0:0:0:0:
65,161,186755,1,0,1:0:0:0:
195,57,186914,2,0,P|265:26|347:20,1,160,6|0,0:1|0:0,0:0:0:0:
486,131,187390,6,0,P|467:94|440:68,1,80,0|0,1:0|0:0,0:0:0:0:
488,235,187708,2,0,P|460:275|431:292,1,80,2|0,0:0|0:0,0:0:0:0:
364,368,188025,1,2,1:0:0:0:
291,292,188184,2,0,P|213:299|139:334,1,160,6|0,0:1|0:0,0:0:0:0:
370,178,188660,5,2,1:0:0:0:
237,129,188819,2,0,P|173:174|127:241,1,160,2|0,0:1|0:0,0:0:0:0:
148,0,189295,5,2,1:0:0:0:
24,118,189454,2,0,P|7:153|4:194,1,80,2|4,0:1|0:3,0:0:0:0:
3,206,189692,1,4,0:3:0:0:
3,217,189772,1,4,0:3:0:0:
3,229,189851,1,4,0:3:0:0:
4,240,189930,1,8,0:3:0:0:
274,238,190089,1,0,0:0:0:0:
5,250,190248,1,8,0:3:0:0:
275,251,190407,1,4,0:0:0:0:
5,261,190565,1,8,0:3:0:0:
275,263,190724,6,0,P|186:278|100:275,1,160,6|0,0:0|3:0,0:0:0:0:
347,246,191200,2,0,P|391:238|434:240,1,80,10|0,0:0|0:0,0:0:0:0:
510,300,191518,1,2,0:0:0:0:
271,174,191677,2,0,P|227:166|184:168,1,80,0|10,0:0|0:0,0:0:0:0:
90,265,191994,2,0,P|101:184|81:91,1,160,2|2,0:0|0:0,0:0:0:0:
75,4,192470,1,8,0:0:0:0:
321,78,192629,2,0,P|250:79|162:63,1,160,2|2,0:0|0:0,0:0:0:0:
75,4,193106,1,8,0:0:0:0:
170,146,193264,6,0,P|215:211|316:247,1,160,2|0,0:0|0:0,0:0:0:0:
298,245,193661,1,0,0:0:0:0:
309,246,193741,1,10,0:1:0:0:
321,247,193820,1,0,0:0:0:0:
332,248,193899,1,0,0:0:0:0:
344,249,193979,1,0,0:0:0:0:
355,250,194058,1,2,0:1:0:0:
366,251,194137,1,0,0:0:0:0:
378,252,194217,1,0,0:0:0:0:
389,253,194296,1,0,0:0:0:0:
400,254,194376,1,10,0:1:0:0:
411,255,194455,1,0,0:0:0:0:
422,256,194534,2,0,P|421:322|428:344,1,80,0|2,0:0|0:1,0:0:0:0:
424,336,194852,1,0,0:0:0:0:
401,172,195011,1,8,0:0:0:0:
401,172,195169,2,0,P|403:40|389:-4,1,160,2|0,0:1|0:0,0:0:0:0:
259,193,195646,1,8,0:0:0:0:
116,369,195804,6,0,P|109:344|111:212,1,160,6|0,0:0|0:0,0:0:0:0:
28,147,196281,2,0,L|124:120,1,80,10|0,0:0|0:0,0:0:0:0:
207,104,196598,1,2,0:0:0:0:
46,48,196757,2,0,L|142:21,1,80,0|10,0:0|0:0,0:0:0:0:
225,5,197074,2,0,P|293:47|383:53,1,160,6|2,0:0|0:0,0:0:0:0:
476,91,197551,1,8,0:0:0:0:
200,230,197709,2,0,P|278:222|346:180,1,160,2|2,0:0|0:0,0:0:0:0:
486,79,198186,1,8,0:0:0:0:
370,378,198344,2,0,P|424:321|450:245,1,160,6|0,0:0|0:0,0:0:0:0:
493,67,198821,5,10,0:1:0:0:
377,10,198979,1,0,0:0:0:0:
289,102,199138,1,2,0:1:0:0:
349,215,199297,1,0,0:0:0:0:
475,193,199456,1,10,0:1:0:0:
493,67,199614,5,2,0:1:0:0:
493,67,199694,1,0,0:0:0:0:
493,67,199773,1,2,0:1:0:0:
394,114,199932,1,4,0:0:0:0:
279,10,200091,5,10,0:1:0:0:
418,102,200249,1,4,0:0:0:0:
211,212,200408,5,10,0:1:0:0:
442,91,200567,1,4,0:0:0:0:
447,379,200726,5,10,0:1:0:0:
472,78,200885,1,6,0:1:0:0:
35,259,201202,5,0,3:0:0:0:
53,370,201361,1,10,0:0:0:0:
143,303,201520,2,0,P|188:293|240:296,1,80,0|2,0:0|0:0,0:0:0:0:
333,296,201837,1,0,0:0:0:0:
333,296,201996,1,10,0:0:0:0:
287,193,202155,2,0,P|215:129|136:109,1,160,2|2,0:0|0:0,0:0:0:0:
299,4,202631,1,8,0:0:0:0:
299,4,202790,2,0,P|342:49|373:141,1,160,2|2,0:0|0:0,0:0:0:0:
227,295,203266,5,8,0:0:0:0:
227,295,203425,2,0,P|196:300|149:287,1,80,2|0,0:0|0:0,0:0:0:0:
141,278,203663,1,2,0:1:0:0:
132,269,203742,1,0,0:1:0:0:
123,260,203821,1,2,0:1:0:0:
114,251,203901,1,0,0:1:0:0:
105,242,203980,1,2,0:1:0:0:
96,233,204060,1,0,0:1:0:0:
87,224,204139,1,2,0:1:0:0:
78,215,204218,1,0,0:1:0:0:
70,206,204298,1,2,0:1:0:0:
62,196,204377,2,0,P|68:149|60:103,1,80,8|8,0:0|0:0,0:0:0:0:
248,88,204695,6,0,P|236:182|252:274,1,160,6|8,0:1|0:0,0:0:0:0:
267,351,205171,1,8,0:0:0:0:
2,355,205330,2,0,P|96:343|188:359,1,160,6|0,0:1|0:0,0:0:0:0:
267,351,205806,1,8,0:0:0:0:
370,366,205965,2,0,P|403:370|450:364,1,80,0|8,0:0|0:3,0:0:0:0:
454,352,206203,1,8,0:3:0:0:
459,340,206282,1,8,0:3:0:0:
464,328,206362,1,8,0:3:0:0:
469,316,206441,1,8,0:3:0:0:
474,304,206520,1,8,0:3:0:0:
479,292,206600,1,8,0:3:0:0:
484,280,206679,1,8,0:3:0:0:
489,269,206758,1,8,0:3:0:0:
494,257,206838,1,8,0:3:0:0:
499,245,206917,1,8,0:3:0:0:
256,248,207076,1,8,0:0:0:0:
13,245,207235,1,6,0:1:0:0:
256,192,207393,12,10,208346,0:0:0:0:
300,111,208505,5,0,0:0:0:0:
217,48,208664,2,0,L|49:37,2,160,6|10|2,0:0|0:0|0:0,0:0:0:0:
328,2,209457,1,2,0:0:0:0:
167,177,209616,2,0,L|83:171,1,80,8|0,0:0|0:0,0:0:0:0:
251,258,209934,2,0,P|325:280|400:344,1,160,2|8,0:0|0:0,0:0:0:0:
483,256,210410,1,0,0:0:0:0:
483,135,210569,1,0,0:0:0:0:
406,43,210727,1,0,0:0:0:0:
288,66,210886,1,8,0:0:0:0:
210,158,211045,6,0,L|230:259,1,80,2|0,0:0|0:0,0:0:0:0:
172,344,211362,1,2,0:0:0:0:
234,126,211521,2,0,L|254:227,1,80,10|0,0:0|0:0,0:0:0:0:
139,360,211839,1,2,0:0:0:0:
264,90,211997,2,0,L|284:191,1,80,2|8,0:0|0:0,0:0:0:0:
106,378,212315,1,2,0:0:0:0:
288,66,212474,2,0,L|326:259,2,160,2|8|0,0:0|0:0|0:0,0:0:0:0:
467,132,213267,1,0,0:0:0:0:
418,352,213426,1,10,0:0:0:0:
418,352,213585,1,8,0:0:0:0:
316,288,213744,6,0,P|232:296|162:338,2,160,6|10|2,0:0|0:0|0:0,0:0:0:0:
360,193,214537,2,0,L|449:235,1,80,2|8,0:0|0:0,0:0:0:0:
291,119,214855,2,0,P|316:40|409:-4,1,160,2|0,0:0|0:0,0:0:0:0:
244,230,215331,1,10,0:0:0:0:
136,281,215490,1,0,0:0:0:0:
28,226,215649,1,2,0:0:0:0:
8,107,215808,1,2,0:0:0:0:
85,15,215966,1,8,0:0:0:0:
204,8,216125,6,0,P|247:80|329:113,1,160,6|0,0:0|0:0,0:0:0:0:
416,174,216601,1,8,0:0:0:0:
225,268,216760,2,0,P|266:267|301:240,1,80,0|0,0:0|0:0,0:0:0:0:
438,152,217078,1,0,0:0:0:0:
407,376,217236,2,0,P|427:339|421:295,1,80,8|0,0:0|0:0,0:0:0:0:
464,125,217554,1,4,0:0:0:0:
489,104,217713,1,8,0:0:0:0:
161,65,218030,5,0,0:0:0:0:
61,149,218189,1,8,0:0:0:0:
185,195,218348,1,0,0:0:0:0:
273,105,218506,1,10,0:0:0:0:
59,30,218665,1,8,0:0:0:0:
99,254,218824,2,0,P|64:337|-15:390,2,160,6|14|2,0:0|0:0|0:0,0:0:0:0:
207,257,219618,1,2,0:0:0:0:
172,141,219776,1,8,0:0:0:0:
138,26,219935,2,0,P|223:21|306:-6,1,160,2|0,0:0|0:0,0:0:0:0:
294,0,220411,1,8,0:0:0:0:
256,182,220570,1,0,0:0:0:0:
68,124,220729,1,0,0:0:0:0:
68,124,220888,2,0,L|28:50,1,80,0|8,0:0|0:0,0:0:0:0:
151,171,221205,6,0,P|165:259|218:330,1,160,2|2,0:0|0:0,0:0:0:0:
334,194,221681,1,8,0:0:0:0:
253,257,221840,2,0,P|233:228|226:184,1,80,2|2,0:0|0:0,0:0:0:0:
334,194,222158,1,0,0:0:0:0:
334,194,222316,1,10,0:0:0:0:
512,217,222475,2,0,P|498:129|445:58,1,160,2|0,0:0|0:0,0:0:0:0:
334,194,222952,1,8,0:0:0:0:
413,131,223110,2,0,P|432:159|439:203,1,80,0|0,0:0|0:0,0:0:0:0:
334,194,223428,1,0,0:0:0:0:
334,194,223587,1,10,0:0:0:0:
106,92,223745,1,8,0:0:0:0:
106,92,223904,5,6,0:0:0:0:
106,92,224222,1,14,0:0:0:0:
106,92,224539,1,2,0:0:0:0:
207,28,224698,2,0,L|297:15,1,80,2|8,0:0|0:0,0:0:0:0:
401,49,225015,1,2,0:0:0:0:
178,129,225174,2,0,L|358:103,1,160,6|10,0:0|0:0,0:0:0:0:
101,141,225650,2,0,L|88:51,1,80,0|2,0:0|0:0,0:0:0:0:
109,221,225968,2,0,L|19:234,1,80,2|8,0:0|0:0,0:0:0:0:
191,210,226285,5,2,0:0:0:0:
191,210,226365,1,0,0:0:0:0:
191,210,226444,2,0,L|204:300,1,80,6|0,0:0|0:0,0:0:0:0:
303,355,226762,2,0,P|358:295|454:270,2,160,8|0|8,0:0|0:0|0:0,0:0:0:0:
186,381,227555,1,0,0:0:0:0:
118,281,227714,6,0,L|33:274,1,80,4|0,0:0|0:0,0:0:0:0:
276,299,228032,2,0,L|446:313,2,160,4|6|10,0:0|0:0|0:0,0:0:0:0:
367,169,228825,1,8,0:0:0:0:
475,28,228984,6,0,P|375:44|267:-20,2,200,2|10|2,0:0|0:0|0:0,0:0:0:0:
510,215,229778,1,2,0:0:0:0:
367,168,229937,1,8,0:0:0:0:
224,120,230096,1,2,0:0:0:0:
87,60,230254,2,0,P|35:40|0:12,1,100,2|0,0:0|0:0,0:0:0:0:
93,217,230572,2,0,P|49:252|7:268,1,100,8|0,0:0|0:0,0:0:0:0:
222,267,230889,2,0,P|230:322|223:366,1,100,0|0,0:0|0:0,0:0:0:0:
224,365,231207,1,8,0:0:0:0:
429,265,231366,6,0,P|393:236|341:216,1,100,2|0,0:0|0:0,0:0:0:0:
175,169,231683,1,2,0:0:0:0:
495,129,231842,2,0,P|450:122|395:130,1,100,10|0,0:0|0:0,0:0:0:0:
93,217,232159,1,2,0:0:0:0:
420,0,232318,2,0,P|378:16|334:51,1,100,2|8,0:0|0:0,0:0:0:0:
175,267,232636,1,2,0:0:0:0:
175,267,232794,2,2,L|229:353,1,100,2|2,0:0|0:0,0:0:0:0:
271,207,233112,2,0,L|360:254,1,100,8|0,0:0|0:0,0:0:0:0:
262,84,233429,2,0,L|363:80,1,100,0|0,0:0|0:0,0:0:0:0:
58,93,233747,1,10,0:0:0:0:
58,93,233906,1,8,0:0:0:0:
213,273,234064,6,0,P|280:219|289:111,2,200,2|10|2,0:0|0:0|0:0,0:0:0:0:
481,303,234858,2,0,L|432:189,1,100,2|8,0:0|0:0,0:0:0:0:
507,76,235176,2,0,P|433:20|328:9,1,200,2|2,0:0|0:0,0:0:0:0:
328,8,235652,5,8,0:0:0:0:
201,88,235811,1,2,0:0:0:0:
74,168,235969,1,2,0:0:0:0:
390,113,236128,1,0,0:0:0:0:
262,192,236287,1,10,0:0:0:0:
135,272,236446,1,0,0:0:0:0:
451,222,236604,5,6,0:0:0:0:
451,222,236763,1,0,0:0:0:0:
328,8,236922,1,8,0:0:0:0:
370,272,237081,5,6,0:0:0:0:
370,272,237239,1,0,0:0:0:0:
248,59,237398,1,8,0:0:0:0:
281,333,237557,5,6,0:0:0:0:
281,333,237716,1,0,0:0:0:0:
158,119,237875,1,8,0:0:0:0:
196,381,238033,5,6,0:0:0:0:
196,381,238192,1,0,0:0:0:0:
74,168,238351,1,8,0:0:0:0:
451,222,238510,5,6,0:0:0:0:
248,59,238668,1,4,0:3:0:0:
281,333,238827,1,6,0:3:0:0:
74,168,238986,1,8,0:3:0:0:
74,168,239145,5,6,0:0:0:0:
74,168,239462,1,14,0:0:0:0:
74,168,239780,1,2,0:0:0:0:
156,293,239938,1,2,0:0:0:0:
279,207,240097,1,8,0:0:0:0:
192,84,240256,1,2,0:0:0:0:
192,84,240415,2,0,L|74:54,1,100,2|0,0:0|0:0,0:0:0:0:
275,26,240732,2,0,L|393:56,1,100,8|0,0:0|0:0,0:0:0:0:
512,167,241050,2,0,L|394:137,1,100,0|0,0:0|0:0,0:0:0:0:
236,180,241367,2,0,L|354:210,1,100,10|0,0:0|0:0,0:0:0:0:
371,215,241605,1,0,0:0:0:0:
412,223,241685,5,0,0:0:0:0:
114,147,241843,1,2,0:0:0:0:
360,337,242002,2,0,L|478:367,1,100,10|0,0:0|0:0,0:0:0:0:
155,278,242320,1,2,0:0:0:0:
412,106,242478,2,0,L|530:136,1,100,2|8,0:0|0:0,0:0:0:0:
207,47,242796,1,2,0:0:0:0:
18,123,242955,2,0,L|136:153,1,100,2|0,0:0|0:0,0:0:0:0:
300,382,243272,2,0,L|266:264,1,100,8|0,0:0|0:0,0:0:0:0:
389,23,243590,2,0,L|304:110,1,100,0|0,0:0|0:0,0:0:0:0:
152,372,243907,1,10,0:0:0:0:
152,372,244066,1,8,0:0:0:0:
35,277,244225,6,0,P|37:178|104:104,2,200,2|10|2,0:0|0:0|0:0,0:0:0:0:
0,45,245019,1,2,0:0:0:0:
149,0,245177,1,8,0:0:0:0:
265,95,245336,2,0,P|310:125|377:141,1,100,2|0,0:0|0:0,0:0:0:0:
491,201,245654,1,2,0:0:0:0:
249,242,245812,2,0,P|302:245|368:225,1,100,10|0,0:0|0:0,0:0:0:0:
493,195,246130,1,2,0:0:0:0:
311,384,246289,2,0,P|359:360|406:310,1,100,2|8,0:0|0:0,0:0:0:0:
496,189,246606,1,2,0:0:0:0:
393,86,246765,5,2,0:0:0:0:
250,134,246924,1,2,0:0:0:0:
201,306,247082,1,8,0:0:0:0:
380,287,247241,1,0,0:0:0:0:
242,170,247400,1,0,0:0:0:0:
193,342,247559,1,0,0:0:0:0:
372,323,247717,1,8,0:0:0:0:
231,209,247876,2,0,P|167:195|116:171,1,100,2|2,0:0|0:0,0:0:0:0:
129,173,248114,1,0,0:0:0:0:
122,165,248194,1,2,0:0:0:0:
115,157,248273,1,0,0:0:0:0:
108,149,248352,1,2,0:0:0:0:
101,141,248432,1,0,0:0:0:0:
94,133,248511,1,2,0:0:0:0:
87,125,248591,1,0,0:0:0:0:
80,117,248670,2,0,P|68:69|70:8,1,100,2|2,0:0|0:0,0:0:0:0:
129,173,248987,5,10,0:0:0:0:
129,173,249146,2,2,P|152:248|144:344,1,160,6|2,0:0|0:0,0:0:0:0:
260,369,249622,1,10,0:0:0:0:
367,298,249781,2,0,L|481:310,1,80,8|2,0:0|0:0,0:0:0:0:
497,196,250099,2,0,P|415:200|322:160,2,160,0|2|2,0:0|0:0|0:0,0:0:0:0:
264,263,250892,5,10,0:0:0:0:
333,161,251051,1,8,0:0:0:0:
333,161,251210,1,2,0:0:0:0:
232,81,251369,2,0,L|54:88,2,160,0|2|2,0:0|0:0|0:0,0:0:0:0:
6,212,252162,5,10,0:0:0:0:
132,232,252321,1,8,0:0:0:0:
258,253,252480,1,2,0:0:0:0:
384,271,252639,2,0,P|396:180|435:118,2,160,0|2|2,0:0|0:0|0:0,0:0:0:0:
275,56,253433,2,0,P|319:34|356:37,1,80,10|8,0:0|0:0,0:0:0:0:
194,162,253750,2,0,P|150:184|113:181,1,80,2|0,0:0|0:0,0:0:0:0:
364,41,254068,1,8,0:0:0:0:
453,188,254226,5,2,0:0:0:0:
453,188,254385,1,0,0:0:0:0:
453,188,254544,1,2,0:0:0:0:
319,271,254703,2,0,L|311:350,1,80
101,327,255020,1,2,0:0:0:0:
132,138,255179,2,0,P|39:98|-3:36,2,160,0|2|2,0:0|0:0|0:0,0:0:0:0:
100,327,255973,5,10,0:0:0:0:
145,132,256131,2,0,L|128:235,1,80,0|2,0:0|0:0,0:0:0:0:
242,277,256449,2,0,L|270:93,2,160,0|2|2,0:0|0:0|0:0,0:0:0:0:
409,364,257243,5,10,0:0:0:0:
384,246,257401,1,8,0:0:0:0:
358,128,257560,1,2,0:0:0:0:
328,11,257719,2,0,P|255:40|152:40,1,160,0|6,0:0|0:1,0:0:0:0:
427,70,258354,5,6,0:3:0:0:
470,192,258513,1,2,0:3:0:0:
430,320,258671,1,4,0:3:0:0:
92,306,258830,5,10,0:3:0:0:
44,178,258989,1,4,0:3:0:0:
106,57,259148,1,10,0:3:0:0:
253,370,259306,5,6,0:0:0:0:
