osu file format v12

[General]
AudioFilename: 03 Xanandra.mp3
AudioLeadIn: 2000
PreviewTime: 58274
Countdown: 0
SampleSet: Normal
StackLeniency: 0.5
Mode: 0
LetterboxInBreaks: 0
WidescreenStoryboard: 1

[Editor]
Bookmarks: 251656
DistanceSpacing: 1.3
BeatDivisor: 2
GridSize: 8

[Metadata]
Title:Xanandra
TitleUnicode:Xanandra
Artist:Mago de Oz
ArtistUnicode:Mago de Oz
Creator:Xanandra
Version:Easy
Source:
Tags:Sieg -Anhedonia- kazukisinx mancusojuanmattos mancuso_JM_
BeatmapID:244704
BeatmapSetID:74313

[Difficulty]
HPDrainRate:2
CircleSize:2
OverallDifficulty:2
ApproachRate:3
SliderMultiplier:0.6
SliderTickRate:1

[Events]
//Background and Video events
0,0,"clip (2013-01-20 at 09.10.37).jpg",0,0
//Break Periods
2,79160,88157
2,137582,144991
//Storyboard Layer 0 (Background)
//Storyboard Layer 1 (Fail)
//Storyboard Layer 2 (Pass)
//Storyboard Layer 3 (Foreground)
//Storyboard Sound Samples
//Background Colour Transformations
3,100,0,0,0

[TimingPoints]
377,317.510715986665,4,2,1,100,1,0
9267,-100,4,2,1,40,0,0
9346,-100,4,2,1,55,0,0
9426,-100,4,2,1,70,0,0
9506,-100,4,2,1,85,0,0
9584,-100,4,2,1,100,0,0
57528,-100,4,1,1,100,0,0
58798,-100,4,1,1,100,0,1
76579,-100,4,1,1,100,0,0
89280,-100,4,2,1,100,0,0
115950,-100,4,1,1,100,0,0
117220,-100,4,1,1,100,0,1
135001,-100,4,1,1,100,0,0
146352,-100,4,2,1,100,0,0
206123,-100,4,2,1,50,0,0
206282,-100,4,2,1,60,0,0
206441,-100,4,2,1,70,0,0
206600,-100,4,2,1,80,0,0
206758,-100,4,2,1,90,0,0
206917,-100,4,2,1,100,0,0
207393,-100,4,1,1,100,0,0
208664,-100,4,1,1,100,0,1
226444,-100,4,1,1,100,0,0
228984,-80,4,1,1,100,0,1
246765,-80,4,1,1,100,0,0
248035,-80,4,1,1,100,0,1
248987,-80,4,1,1,100,0,0
249146,-100,4,1,1,100,0,0
250178,-100,4,2,5,100,0,0
250337,-100,4,1,1,100,0,0
251475,-100,4,2,5,100,0,0
251607,-100,4,1,1,100,0,0
252718,-100,4,2,5,100,0,0
252877,-100,4,1,1,100,0,0
255258,-100,4,2,5,100,0,0
255417,-100,4,1,1,100,0,0
256528,-100,4,2,5,100,0,0
256687,-100,4,1,1,100,0,0

[Colours]
Combo1 : 225,175,125
Combo2 : 75,150,75
Combo3 : 225,225,150
Combo4 : 0,150,150

[HitObjects]
241,134,218,2,0,P|208:85|205:34,1,90,4|8,0:0|0:0,0:0:0:0:
367,159,1488,2,0,P|416:126|467:123,1,90,2|8,0:0|0:0,0:0:0:0:
346,289,2758,2,0,P|379:338|382:389,1,90,2|8,0:0|0:0,0:0:0:0:
220,264,4028,2,0,P|171:297|120:300,1,90,2|8,0:0|0:0,0:0:0:0:
63,296,4822,1,4,0:0:0:0:
123,196,5298,6,0,L|138:104,1,90,2|8,0:0|0:0,0:0:0:0:
324,50,6568,2,0,L|232:35,1,90,2|8,0:0|0:0,0:0:0:0:
386,158,7838,2,0,L|371:250,1,90,2|8,0:0|0:0,0:0:0:0:
185,304,9108,2,0,L|277:319,1,90,2|8,0:0|0:0,0:0:0:0:
344,288,9902,2,0,P|356:334|385:372,1,90,4|2,0:0|0:0,0:0:0:0:
497,351,10854,6,0,P|478:280|431:220,1,150,8|2,0:0|0:0,0:0:0:0:
499,124,12124,2,0,P|428:104|353:115,1,150,8|2,0:0|0:0,0:0:0:0:
278,25,13394,2,0,P|226:76|197:146,1,150,8|6,0:0|0:0,0:0:0:0:
190,263,14664,2,0,P|120:284|44:276,1,150,8|6,0:0|0:0,0:0:0:0:
90,167,15935,6,0,L|57:15,1,150,8|2,0:0|0:0,0:0:0:0:
172,45,17205,2,0,L|205:197,1,150,8|4,0:0|0:0,0:0:0:0:
316,224,18475,6,0,L|283:72,1,150,8|4,0:0|0:0,0:0:0:0:
355,45,19586,2,0,P|415:120|513:160,1,180,8|4,0:0|0:0,0:0:0:0:
466,270,21015,5,8,0:0:0:0:
345,368,21650,1,8,0:0:0:0:
194,328,22285,2,0,P|160:256|104:232,1,120,8|8,0:0|0:0,0:0:0:0:
22,121,23555,5,8,0:0:0:0:
143,22,24190,1,8,0:0:0:0:
231,151,24825,2,8,P|283:181|348:183,1,120,8|8,0:0|0:0,0:0:0:0:
415,321,26095,5,8,0:0:0:0:
493,187,26730,1,8,0:0:0:0:
351,120,27365,2,8,P|320:69|317:4,1,120
159,7,28635,5,8,0:0:0:0:
32,98,29270,2,0,P|43:184|132:251,1,180,8|2,0:0|0:0,0:0:0:0:
205,176,30699,1,4,0:0:0:0:
269,273,31175,6,0,P|329:232|392:232,2,120,8|8|8,0:0|0:0|0:0,0:0:0:0:
389,371,33080,1,8,0:0:0:0:
498,260,33715,2,0,P|485:190|438:141,2,120,8|8|8,0:0|0:0|0:0,0:0:0:0:
343,269,35620,1,8,0:0:0:0:
187,257,36255,6,0,P|201:334|233:373,2,120,8|8|8,0:0|0:0|0:0,0:0:0:0:
48,186,38160,1,8,0:0:0:0:
190,123,38795,6,0,L|200:42,1,60,8|2,0:0|0:0,0:0:0:0:
342,120,39748,2,0,L|336:182,2,60,2|8|2,0:0|0:0|0:0,0:0:0:0:
409,23,40859,5,4,0:0:0:0:
294,45,41335,2,0,P|220:44|163:26,1,120,4|8,0:0|0:0,0:0:0:0:
24,69,42605,1,8,0:0:0:0:
21,225,43240,6,0,L|4:303,2,60,8|2|8,0:0|0:0|0:0,0:0:0:0:
160,296,44510,2,0,P|226:280|269:240,1,120,2|8,0:0|0:0,0:0:0:0:
459,255,45939,6,0,L|421:160,1,90,4|8,0:0|0:0,0:0:0:0:
360,32,47051,2,0,P|294:24|233:49,2,120,8|8|8,0:0|0:0|0:0,0:0:0:0:
328,184,48956,6,0,P|327:261|293:328,2,150,8|2|8,0:0|0:0|0:0,0:0:0:0:
422,256,51019,6,0,L|536:252,1,90,4|8,0:0|0:0,0:0:0:0:
438,115,52131,2,0,P|334:161|331:166,1,120,8|8,0:0|0:0,0:0:0:0:
179,43,53560,6,0,L|190:159,1,90,4|8,0:0|0:0,0:0:0:0:
194,327,54830,2,4,L|327:299,1,120,4|4,0:0|0:0,0:0:0:0:
398,223,55941,6,0,L|384:161,2,60,8|8|8,0:0|0:3|0:0,0:0:0:0:
463,265,56893,2,0,L|484:358,1,90,8|4,0:0|0:0,0:0:0:0:
22,227,58481,5,0,0:0:0:0:
22,227,58798,2,0,L|82:221,1,60,6|8,0:0|0:0,0:0:0:0:
169,92,59751,2,0,P|217:124|297:136,1,120,0|8,0:0|0:0,0:0:0:0:
343,278,61021,6,0,L|313:345,2,60,0|2|8,0:0|0:0|0:0,0:0:0:0:
498,265,62291,2,0,P|473:210|468:132,1,120,0|8,0:0|0:0,0:0:0:0:
360,37,63561,6,0,L|430:15,2,60,0|2|8,0:0|0:0|0:0,0:0:0:0:
212,89,64831,2,0,P|158:130|137:186,1,120,0|8,0:0|0:0,0:0:0:0:
20,280,66101,6,0,L|39:352,2,60,8|2|8,0:0|0:0|0:0,0:0:0:0:
151,197,67371,2,0,L|132:269,2,60,0|6|8,0:0|0:0|0:0,0:0:0:0:
20,112,68641,6,0,L|39:184,2,60,0|6|8,0:0|0:0|0:0,0:0:0:0:
175,98,69911,2,0,P|241:53|267:-3,1,120,0|8,0:0|0:0,0:0:0:0:
382,116,71181,6,0,L|446:118,2,60,0|2|8,0:0|0:0|0:0,0:0:0:0:
319,259,72451,2,0,P|282:203|225:181,1,120,0|8,0:0|0:0,0:0:0:0:
142,308,73721,6,0,L|153:376,2,60,0|2|8,0:0|0:0|0:0,0:0:0:0:
17,215,74992,2,0,P|61:173|82:97,1,120,0|8,0:0|0:0,0:0:0:0:
196,14,76262,6,0,L|264:34,2,60,0|2|8,0:0|0:0|0:0,0:0:0:0:
114,147,77532,1,8,0:0:0:0:
261,197,78167,2,0,P|346:184|410:190,1,150,8|4,0:0|0:0,0:0:0:0:
246,65,89597,6,0,P|204:125|145:147,2,120,8|8|8,0:0|0:0|0:0,0:0:0:0:
98,13,91502,1,8,0:0:0:0:
22,149,92137,6,0,P|35:219|82:268,2,120,8|8|8,0:0|0:0|0:0,0:0:0:0:
183,151,94042,1,8,0:0:0:0:
338,165,94677,6,0,P|325:95|278:46,2,120,8|8|8,0:0|0:0|0:0,0:0:0:0:
405,305,96582,1,8,0:0:0:0:
262,240,97217,6,0,L|200:234,1,60,8|2,0:0|0:0,0:0:0:0:
84,131,98170,2,0,L|22:125,2,60,8|2|8,0:0|0:0|0:0,0:0:0:0:
114,20,99281,6,0,L|207:29,1,90,4|4,0:0|0:0,0:0:0:0:
317,137,100392,2,0,P|380:118|435:66,1,120,8|8,0:0|0:0,0:0:0:0:
491,225,101662,6,0,L|508:303,2,60,8|2|8,0:0|0:0|0:0,0:0:0:0:
352,296,102932,2,0,P|286:280|243:240,1,120,2|8,0:0|0:0,0:0:0:0:
52,249,104361,6,0,L|112:153,1,90,4|8,0:0|0:0,0:0:0:0:
126,18,105473,2,0,P|188:14|253:35,1,120,8|8,0:0|0:0,0:0:0:0:
398,20,106743,5,8,0:0:0:0:
447,168,107378,2,0,P|487:230|503:311,2,150,8|2|8,0:0|0:0|0:0,0:0:0:0:
349,232,109441,6,0,L|242:249,1,90,4|8,0:0|0:0,0:0:0:0:
151,132,110553,2,0,P|255:86|258:81,1,120,8|8,0:0|0:0,0:0:0:0:
395,158,111823,6,0,L|348:29,1,120,8|8,0:0|0:0,0:0:0:0:
179,132,113252,2,0,L|41:108,1,120,4|4,0:0|0:0,0:0:0:0:
33,225,114363,6,0,L|18:304,2,60,8|8|8,0:0|0:3|0:0,0:0:0:0:
110,220,115315,2,0,L|225:237,1,90,8|4,0:0|0:0,0:0:0:0:
456,246,116903,5,0,0:0:0:0:
456,246,117220,2,0,L|397:240,1,60,6|8,0:0|0:0,0:0:0:0:
343,92,118173,2,0,P|295:124|215:136,1,120,0|8,0:0|0:0,0:0:0:0:
169,278,119443,6,0,L|199:345,2,60,0|2|8,0:0|0:0|0:0,0:0:0:0:
14,265,120713,2,0,P|39:210|44:132,1,120,0|8,0:0|0:0,0:0:0:0:
152,37,121983,6,0,L|82:15,2,60,0|2|8,0:0|0:0|0:0,0:0:0:0:
300,89,123253,2,0,P|354:130|375:186,1,120,0|8,0:0|0:0,0:0:0:0:
492,280,124523,6,0,L|473:352,2,60,8|2|8,0:0|0:0|0:0,0:0:0:0:
361,197,125793,2,0,L|380:269,2,60,0|6|8,0:0|0:0|0:0,0:0:0:0:
492,112,127063,6,0,L|473:184,2,60,0|6|8,0:0|0:0|0:0,0:0:0:0:
337,98,128333,2,0,P|271:53|245:-3,1,120,0|8,0:0|0:0,0:0:0:0:
130,116,129603,6,0,L|66:118,2,60,0|2|8,0:0|0:0|0:0,0:0:0:0:
193,259,130873,2,0,P|230:203|287:181,1,120,0|8,0:0|0:0,0:0:0:0:
370,308,132143,6,0,L|359:376,2,60,0|2|8,0:0|0:0|0:0,0:0:0:0:
495,215,133413,2,0,P|451:173|430:97,1,120,0|8,0:0|0:0,0:0:0:0:
316,14,134684,6,0,L|248:34,2,60,0|2|8,0:0|0:0|0:0,0:0:0:0:
418,131,135954,1,8,0:0:0:0:
306,240,136589,2,0,L|151:215,1,150,8|4,0:0|0:0,0:0:0:0:
125,305,146431,6,0,P|74:323|19:326,4,90,4|4|4|4|4,0:0|0:0|0:0|0:0|0:0,0:0:0:0:
180,159,148972,6,0,L|155:75,1,60,4|8,0:0|0:0,0:0:0:0:
321,76,149924,2,0,P|354:65|393:36,2,60,8|2|8,0:0|0:0|0:0,0:0:0:0:
444,171,151194,5,8,0:0:0:0:
363,304,151829,1,8,0:0:0:0:
230,222,152464,1,8,0:0:0:0:
313,90,153099,1,8,0:0:0:0:
158,72,153734,6,0,P|123:54|98:24,1,60,12|4,0:0|0:0,0:0:0:0:
35,68,154369,2,0,P|10:137|13:215,1,150,8|2,0:0|0:0,0:0:0:0:
54,322,155639,2,0,P|123:347|201:344,1,150,8|2,0:0|0:0,0:0:0:0:
295,278,156909,2,0,P|315:222|312:160,1,120,8|8,0:0|0:0,0:0:0:0:
364,103,157862,6,0,P|410:115|457:160,4,90,4|4|4|4|4,0:0|0:0|0:0|0:0|0:0,0:0:0:0:
275,232,160402,5,4,0:0:0:0:
201,207,160719,2,0,P|143:231|105:284,2,120,8|8|8,0:0|0:0|0:0,0:0:0:0:
61,137,162624,6,0,L|12:89,2,60,8|2|8,0:0|0:0|0:0,0:0:0:0:
202,72,163895,2,0,L|250:119,2,60,8|2|8,0:0|0:0|0:0,0:0:0:0:
357,76,165165,6,0,L|349:201,2,120,8|8|8,0:0|0:0|0:0,0:0:0:0:
473,179,167070,2,0,L|465:304,1,120,8|8,0:0|0:1,0:0:0:0:
328,373,168340,6,0,P|227:305|99:291,1,240,2|2,0:1|0:1,0:0:0:0:
73,221,169927,2,0,P|83:172|116:121,1,90,2|6,0:1|0:0,0:0:0:0:
93,20,170880,6,0,L|219:66,1,120,8|8,0:0|0:0,0:0:0:0:
351,115,172150,2,0,L|305:241,1,120,8|8,0:0|0:0,0:0:0:0:
252,372,173420,6,0,L|126:326,1,120,8|8,0:0|0:0,0:0:0:0:
45,206,174690,2,0,P|61:123|112:64,2,150,8|6|8,0:0|0:1|0:0,0:0:0:0:
200,196,176912,5,2,0:1:0:0:
296,73,177547,2,0,L|233:41,2,60,2|8|2,0:1|0:0|0:1,0:0:0:0:
446,29,178818,1,2,0:1:0:0:
380,170,179453,6,0,P|345:263|360:378,1,210,2|6,0:1|0:0,0:0:0:0:
246,334,181040,2,0,L|90:343,1,150,8|2,0:0|0:0,0:0:0:0:
27,248,182310,2,0,L|183:239,1,150,8|2,0:0|0:0,0:0:0:0:
269,167,183580,6,0,L|261:42,1,120,8|8,0:0|0:0,0:0:0:0:
416,27,184850,2,4,L|425:183,1,150,8|6,0:0|0:0,0:0:0:0:
372,281,186120,6,0,P|290:273|228:226,1,150,8|2,0:0|0:0,0:0:0:0:
272,123,187390,2,0,P|354:131|416:178,1,150,8|2,0:0|0:0,0:0:0:0:
501,240,188660,5,8,0:0:0:0:
403,361,189295,2,0,P|303:291|152:276,1,270,6|4,0:0|0:0,0:0:0:0:
79,187,191200,6,0,P|98:124|150:69,1,120,8|8,0:0|0:0,0:0:0:0:
264,164,192470,1,8,0:0:0:0:
366,46,193106,6,0,L|432:60,2,60,8|2|8,0:0|0:0|0:0,0:0:0:0:
455,173,194376,2,0,P|439:239|399:282,1,120,2|8,0:0|0:0,0:0:0:0:
243,169,195804,6,0,L|263:286,1,90,4|8,0:0|0:0,0:0:0:0:
110,323,196916,2,0,P|53:316|6:266,1,120,8|8,0:0|0:0,0:0:0:0:
99,146,198186,5,8,0:0:0:0:
254,130,198821,2,0,P|310:150|376:140,1,120,8|2,0:0|0:0,0:0:0:0:
438,178,199773,2,0,L|484:242,2,60,8|2|8,0:0|0:0|0:0,0:0:0:0:
360,265,200885,2,0,L|351:380,1,90,4|8,0:0|0:0,0:0:0:0:
197,369,201996,2,0,P|93:323|90:318,1,120,8|8,0:0|0:0,0:0:0:0:
101,167,203266,6,0,L|66:39,1,120,8|8,0:0|0:0,0:0:0:0:
259,5,204695,2,0,P|312:44|375:60,1,120,4|4,0:0|0:0,0:0:0:0:
325,169,205806,6,0,P|387:290|510:365,1,270,8|4,0:0|0:0,0:0:0:0:
223,355,208346,5,0,0:0:0:0:
223,355,208664,2,0,L|151:347,1,60,6|8,0:0|0:0,0:0:0:0:
86,212,209616,2,0,P|134:180|214:168,1,120,0|8,0:0|0:0,0:0:0:0:
348,191,210886,6,0,L|378:258,2,60,0|2|8,0:0|0:0|0:0,0:0:0:0:
220,101,212156,2,0,P|181:54|113:15,1,120,0|8,0:0|0:0,0:0:0:0:
62,162,213426,6,0,L|-5:191,2,60,0|2|8,0:0|0:0|0:0,0:0:0:0:
188,253,214696,2,0,P|207:299|261:340,1,120,0|8,0:0|0:0,0:0:0:0:
408,286,215966,6,0,L|476:284,2,60,8|2|8,0:0|0:0|0:0,0:0:0:0:
311,163,217236,2,0,L|379:161,2,60,8|2|8,0:0|0:0|0:0,0:0:0:0:
402,36,218506,6,0,L|470:34,2,60,8|2|8,0:0|0:0|0:0,0:0:0:0:
246,29,219776,2,0,P|169:42|112:81,1,120,0|8,0:0|0:0,0:0:0:0:
38,186,221046,6,0,L|31:265,2,60,0|2|8,0:0|0:0|0:0,0:0:0:0:
163,278,222316,2,0,P|197:318|275:339,1,120,0|8,0:0|0:0,0:0:0:0:
406,286,223587,6,0,L|426:222,2,60,0|2|8,0:0|0:0|0:0,0:0:0:0:
345,142,224857,2,0,P|294:100|275:41,1,120,0|8,0:0|0:0,0:0:0:0:
428,15,226127,6,0,L|496:12,2,60,0|2|8,0:0|0:0|0:0,0:0:0:0:
467,165,227397,2,0,P|472:225|444:291,1,120,8|8,0:0|0:0,0:0:0:0:
310,347,228667,6,0,L|238:339,1,60,0|6,0:0|0:0,0:0:0:0:
194,290,229302,2,0,P|187:203|148:133,1,150,0|8,0:0|0:0,0:0:0:0:
305,113,230572,2,0,P|312:200|351:270,1,150,8|0,0:0|0:0,0:0:0:0:
401,297,231524,6,0,L|478:310,1,75,2|8,0:0|0:0,0:0:0:0:
455,160,232477,1,8,0:0:0:0:
348,53,233112,2,0,L|178:65,1,150,8|8,0:0|0:0,0:0:0:0:
133,100,234064,6,0,P|110:153|101:186,1,75,2|8,0:0|0:0,0:0:0:0:
253,190,235017,2,0,L|423:178,1,150,0|0,0:0|0:0,0:0:0:0:
504,289,236287,6,0,P|499:305|476:358,2,75,8|2|0,0:0|0:0|0:0,0:0:0:0:
355,309,237557,2,0,P|332:362|327:378,2,75,8|2|0,0:0|0:0|0:0,0:0:0:0:
225,233,238827,6,0,P|229:216|252:163,1,75,0|2,0:0|0:0,0:0:0:0:
293,100,239462,2,0,P|346:46|416:19,1,150,8|8,0:0|0:0,0:0:0:0:
475,156,240732,1,8,0:0:0:0:
408,290,241367,6,0,P|374:255|332:233,1,75,8|2,0:0|0:0,0:0:0:0:
287,202,242002,2,0,P|208:184|125:190,1,150,8|8,0:0|0:0,0:0:0:0:
43,71,243272,1,8,0:0:0:0:
14,218,243907,6,0,L|4:302,1,75,12|2,0:0|0:0,0:0:0:0:
50,352,244542,2,0,P|121:326|201:324,1,150,8|8,0:0|0:0,0:0:0:0:
310,227,245812,1,8,0:0:0:0:
164,188,246447,6,0,L|90:173,2,75,8|2|8,0:0|0:0|0:0,0:0:0:0:
241,59,247717,2,0,L|184:9,2,75,8|2|8,0:0|0:0|0:0,0:0:0:0:
426,128,249146,6,0,P|417:170|423:221,1,90,4|8,0:0|0:0,0:0:0:0:
445,290,249940,1,0,0:0:0:0:
350,358,250416,2,0,P|300:333|274:302,1,90,2|8,0:0|0:0,0:0:0:0:
225,251,251210,1,0,0:0:0:0:
231,133,251686,6,0,L|117:139,1,90,2|8,0:0|0:0,0:0:0:0:
63,142,252480,1,0,0:0:0:0:
109,35,252956,2,0,L|271:26,1,150,2|8,0:0|0:0,0:0:0:0:
375,35,254226,6,0,P|406:81|412:121,1,90,2|8,0:0|0:0,0:0:0:0:
430,190,255020,1,0,0:0:0:0:
314,208,255496,2,0,P|338:257|369:283,1,90,2|8,0:0|0:0,0:0:0:0:
421,334,256290,1,0,0:0:0:0:
306,361,256766,6,0,P|250:357|213:371,1,90,2|8,0:0|0:0,0:0:0:0:
140,369,257560,1,0,0:0:0:0:
256,192,258036,12,4,259306,0:0:0:0:
