osu file format v7

[General]
AudioFilename: FWWT.mp3
AudioLeadIn: 0
PreviewTime: 84106
Countdown: 0
SampleSet: Soft
StackLeniency: 0.7
Mode: 0
LetterboxInBreaks: 1

[Editor]
Bookmarks: 37021,121952,186568
DistanceSpacing: 1.20000004768372
BeatDivisor: 2
GridSize: 8

[Metadata]
Title:Suenos Dormidos
Artist:Mago de Oz
Creator:ErufenRito
Version:Hard
Source:
Tags:Atlantia Gaia III Spanish

[Difficulty]
HPDrainRate:4
CircleSize:4
OverallDifficulty:4
SliderMultiplier:0.8
SliderTickRate:1

[Events]
//Background and Video events
0,0,"atlantia.jpg"
//Break Periods
2,116600,120618
//Storyboard Layer 0 (Background)
//Storyboard Layer 1 (Fail)
//Storyboard Layer 2 (Pass)
//Storyboard Layer 3 (Foreground)
//Storyboard Sound Samples
Sample,97015,3,"soft-hitclap.wav",100
Sample,97938,3,"soft-hitclap.wav",100
Sample,167169,3,"soft-hitclap.wav",100
Sample,168092,3,"soft-hitclap.wav",100
//Background Colour Transformations
3,100,0,0,0

[TimingPoints]
3785,307.692307692308,3,2,1,100,1,0
68392,-200,3,2,1,100,0,0
83161,-100,3,2,1,100,0,0
85007,-100,3,2,1,100,0,1
98554,-100,3,2,1,100,0,0
99785,-100,3,2,1,100,0,1
115015,-100,3,2,1,71,0,1
115477,-100,3,2,1,28,0,1
115938,-100,3,2,1,0,0,1
116400,-100,3,2,1,0,0,0
121785,-100,3,2,1,100,0,0
138554,-200,3,2,1,100,0,0
154246,-100,3,2,1,100,0,0
155169,-100,3,2,1,100,0,1
168708,-100,3,2,1,100,0,0
169938,-100,3,2,1,100,0,1
185169,-100,3,2,1,71,0,1
185631,-100,3,2,1,30,0,1
186092,-100,3,2,1,0,0,1
186554,-100,3,2,1,0,0,0

[Colours]
Combo1 : 128,255,134
Combo2 : 255,255,128
Combo3 : 255,128,128
SliderBorder : 192,192,192

[HitObjects]
400,222,37015,1,8
376,179,37169,2,0,B|347:145|277:166,1,80
172,207,37938,2,0,B|164:244|178:292,3,80,8|0|0|8
141,319,39015,2,0,B|82:336|40:299,2,80
188,329,39784,2,0,B|231:313|272:339,3,80,8|0|0|8
312,333,40861,6,0,B|362:341|410:277,1,80
364,162,41631,1,8
375,208,41785,2,0,B|400:250|444:250,1,80
498,118,42554,1,8
464,80,42708,2,0,B|360:80,1,80
256,144,43477,5,8
256,240,43785,1,2
256,336,44092,1,2
160,352,44400,5,8
112,361,44554,2,0,B|68:351|52:305,1,80
165,218,45323,2,0,B|173:181|159:133,3,80,8|0|0|8
116,118,46400,2,0,B|99:59|136:17,2,80
162,106,47169,2,0,B|205:90|246:116,3,80,8|0|0|8
274,143,48246,6,0,B|282:193|218:241,1,80
390,226,49015,1,8
358,262,49169,2,0,B|383:304|427:304,1,80
288,352,49938,1,8
256,312,50092,2,0,B|152:312,1,80
96,192,50861,5,8
192,192,51169,1,2
288,192,51477,1,2
384,192,51785,6,0,B|416:168|472:160,1,80,2|0
474,117,52246,2,0,B|490:93|490:61,2,40,2|0|0
429,98,52708,2,0,B|397:74|341:66,1,80,2|0
307,151,53323,1,2
273,60,53631,6,0,B|216:63|185:28,1,80,2|0
161,71,54092,2,0,B|145:95|145:127,2,40,2|0|0
121,43,54554,2,0,B|89:67|33:75,1,80,2|0
75,164,55169,1,2
110,253,55477,6,0,B|76:300,3,40,2|0|0|2
227,315,56400,2,0,B|262:383,3,40,2|0|0|2
324,230,57323,6,0,B|363:232|411:262,1,80,2|0
422,296,57784,2,0,B|438:320|438:352,2,40,2|0|0
444,253,58246,2,0,B|468:221|476:165,1,80,2|0
389,133,58861,1,2
293,140,59169,6,0,B|241:173,5,40,2|0|0|2|0|0
228,198,60092,2,0,B|272:252,5,40,2|0|0|2|0|0
273,272,61015,6,0,B|336:281,5,40,2|0|0|2|0|0
327,231,61938,2,0,B|392:234,5,40,2|0|0|2|0|0
414,231,62861,5,4
447,197,63015,1,4
480,163,63169,1,4
98,231,63785,5,4
65,197,63938,1,4
32,163,64092,1,4
256,136,64708,5,4
256,192,65169,12,2,68092
128,288,68400,6,0,B|104:312|80:304,2,40,4|0|2
130,240,69323,2,0,B|166:219|219:224,1,80,4|2
206,271,70246,2,0,B|256:285|296:246,1,80,4|2
320,286,71169,1,4
299,135,72092,6,0,B|328:121|348:119,2,40,4|0|2
263,167,73015,2,0,B|234:181|214:183,2,40,4|0|2
256,120,73938,1,4
256,263,74861,1,4
368,197,75477,6,0,B|392:221|416:213,3,40,2|4|0|2
449,202,76708,2,0,B|470:238|465:291,1,80,4|2
418,271,77631,2,0,B|368:257|328:296,1,80,4|2
304,254,78554,1,4
177,184,79477,5,4
200,142,79785,1,8
242,119,80092,1,2
289,120,80400,1,4
334,104,80708,1,8
366,68,81015,1,2
374,20,81323,1,4
160,192,82246,5,4
352,192,83169,1,4
424,272,84092,5,2
328,288,84400,1,0
232,304,84708,1,2
136,320,85015,6,0,B|64:280|16:200,1,160,8|0
22,113,85938,2,0,B|94:153|142:233,1,160,8|0
217,273,86861,2,0,B|295:241|391:256,1,160,8|0
472,224,87785,1,8
416,152,88092,1,0
352,80,88400,1,2
288,8,88708,6,0,B|191:12|112:48,1,160,8|0
199,107,89631,1,8
131,174,89938,1,0
63,241,90246,1,2
130,308,90554,1,8
197,240,90861,1,0
264,172,91169,1,2
331,239,91477,1,8
263,306,91785,1,2
195,371,92092,1,2
127,303,92400,6,0,B|75:261|37:147,1,160,8|0
116,105,93323,2,0,B|170:175|272:195,1,160,8|0
284,100,94246,1,8
371,60,94554,1,0
454,107,94861,1,2
478,199,95169,1,8
415,271,95477,1,0
318,269,95785,1,2
257,194,96092,1,8
256,192,96246,12,0,98554
144,104,98861,5,8
232,136,99169,1,0
320,168,99477,1,2
408,200,99785,6,0,B|368:272|288:320,1,160,8|0
266,223,100708,2,0,B|202:151|112:137,1,160,8|0
74,63,101631,2,0,B|147:13|232:17,1,160,8|0
296,80,102554,1,8
208,128,102861,1,0
120,168,103169,1,2
32,208,103477,6,0,B|36:305|72:384,1,160,8|0
141,308,104400,2,0,B|229:260|277:172,1,160,8|0
320,128,105323,2,0,B|400:144|472:216,1,160,8|0
363,217,106246,1,8
363,217,106554,1,0
363,217,106861,1,2
349,312,107169,6,0,B|297:270|259:156,1,160,8|0
219,93,108092,2,0,B|165:163|63:183,1,160,8|0
111,270,109015,1,8
178,337,109323,1,0
178,241,109631,1,2
245,308,109938,1,8
245,211,110246,1,2
312,278,110554,1,2
312,182,110861,5,8
424,120,111169,1,0
304,72,111477,1,2
192,136,111785,1,8
112,40,112092,1,2
64,160,112400,1,2
112,280,112708,5,8
232,240,113015,1,0
280,360,113323,1,2
368,264,113631,1,8
448,160,113938,1,2
320,160,114246,1,2
216,80,114554,1,8
256,192,114708,12,2,116400
172,309,121938,6,0,B|196:277|204:221,1,80,2|0
170,199,122399,2,0,B|186:175|186:143,2,40,2|0|0
130,226,122861,2,0,B|90:221|43:189,1,80,2|0
106,115,123476,1,2
92,19,123784,6,0,B|132:16|180:51,1,80,2|0
200,77,124245,2,0,B|184:101|161:121,2,40,2|0|0
241,102,124707,2,0,B|273:126|329:134,1,80,2|0
372,54,125322,1,2
410,141,125630,6,0,B|476:123,3,40,2|0|0|2
347,233,126553,2,0,B|332:282,3,40,2|0|0|2
191,264,127476,6,0,B|193:225|223:177,1,80,2|0
263,182,127937,2,0,B|279:206|279:238,2,40,2|0|0
241,138,128399,2,0,B|209:114|153:106,1,80,2|0
110,31,129014,1,2
42,98,129322,6,0,B|-10:131,5,40,2|0|0|2|0|0
14,167,130245,2,0,B|30:229,5,40,2|0|0|2|0|0
9,251,131168,6,0,B|-1:323,5,40,2|0|0|2|0|0
50,299,132091,2,0,B|117:264,5,40,2|0|0|2|0|0
97,230,133015,5,4
97,181,133169,1,4
97,132,133323,1,4
415,230,133938,5,4
415,181,134092,1,4
415,132,134246,1,4
256,336,134861,5,4
256,192,135323,12,2,138246
175,159,138554,6,0,B|199:183|223:175,2,40,4|0|2
176,111,139477,2,0,B|212:90|265:95,1,80,4|2
283,131,140400,2,0,B|297:181|258:221,1,80,4|2
305,238,141323,1,4
185,318,142246,6,0,B|214:304|234:302,2,40,4|0|2
142,294,143169,2,0,B|113:308|93:310,2,40,4|0|2
183,269,144092,1,4
97,153,145015,1,4
168,89,145631,5,2
207,115,145938,2,0,B|243:136|296:131,1,80,4|2
330,121,146861,2,0,B|351:157|346:210,1,80,4|2
381,231,147785,2,0,B|431:245|471:206,1,80,4|2
435,175,148708,1,4
373,44,149631,5,4
329,24,149938,1,8
285,45,150246,1,2
257,84,150554,1,4
216,110,150861,1,8
175,84,151169,1,2
144,47,151477,1,4
256,136,152400,5,4
256,280,153323,1,4
376,208,154246,5,2
464,176,154554,1,0
390,113,154861,1,2
300,146,155169,6,0,B|209:169|180:266,1,160,8|0
281,253,156092,2,0,B|356:276|402:374,1,160,8|0
298,355,157015,2,0,B|208:336|177:234,1,160,8|0
94,283,157938,1,8
52,196,158246,1,0
12,108,158554,1,2
107,117,158861,6,0,B|204:113|283:77,1,160,8|0
360,64,159785,1,8
448,96,160092,1,0
360,128,160400,1,2
448,160,160708,1,8
360,192,161015,1,0
448,224,161323,1,2
360,256,161631,1,8
448,288,161938,1,2
360,320,162246,1,2
272,288,162554,6,0,B|168:288|122:187,1,160,8|0
224,176,163477,2,0,B|312:144|314:20,1,160,8|0
216,40,164400,1,8
152,112,164708,1,0
88,184,165015,1,2
152,256,165323,1,8
216,328,165631,1,0
280,256,165938,1,2
344,192,166246,1,8
256,192,166400,12,0,168708
112,320,169015,5,8
200,288,169323,1,0
288,256,169631,1,2
212,197,169938,6,0,B|172:125|92:77,1,160,8|0
186,37,170861,2,0,B|274:19|359:55,1,160,8|0
276,117,171785,2,0,B|349:167|434:163,1,160,8|0
493,232,172708,1,8
453,319,173015,1,0
397,240,173323,1,2
327,306,173631,6,0,B|231:321|151:266,1,160,8|0
76,266,174554,2,0,B|96:179|199:131,1,160,8|0
225,224,175477,2,0,B|302:179|396:189,1,160,8|0
445,256,176400,1,8
508,183,176708,1,0
426,133,177015,1,2
332,111,177323,6,0,B|285:35|176:21,1,160,8|0
228,117,178246,2,0,B|174:187|72:207,1,160,8|0
38,278,179169,1,8
125,317,179477,1,0
171,233,179785,1,2
259,271,180092,1,8
318,195,180400,1,2
410,167,180708,1,2
367,81,181015,5,8
240,115,181323,1,0
133,44,181631,1,2
58,147,181938,1,8
130,252,182246,1,0
243,311,182554,1,2
309,201,182861,5,8
436,215,183169,1,0
492,100,183477,1,2
364,87,183785,1,8
257,16,184092,1,2
151,88,184400,1,2
189,210,184708,1,8
256,192,184861,12,2,186554
