osu file format v7

[General]
AudioFilename: 01 - Mis Demonios (Atrevete a Vivir).mp3
AudioLeadIn: 2500
PreviewTime: 59588
Countdown: 0
SampleSet: Soft
StackLeniency: 0.8
Mode: 0
LetterboxInBreaks: 0
StoryFireInFront: 0

[Editor]
DistanceSpacing: 2
BeatDivisor: 4
GridSize: 8

[Metadata]
Title:Mis Demonios (Atrevete a Vivir)
Artist:Mago de Oz
Creator:ErufenRito
Version:Insane
Source:
Tags:Atlantia Gaia III

[Difficulty]
HPDrainRate:8
CircleSize:4
OverallDifficulty:8
SliderMultiplier:2
SliderTickRate:2

[Events]
//Background and Video events
0,0,"atlantia.jpg"
//Break Periods
2,30238,42211
2,135468,141441
//Storyboard Layer 0 (Background)
//Storyboard Layer 1 (Fail)
//Storyboard Layer 2 (Pass)
//Storyboard Layer 3 (Foreground)
//Storyboard Sound Samples
//Background Colour Transformations
3,100,163,162,255

[TimingPoints]
39,923.076923076923,4,2,0,51,1,0
15269,461.538461538462,4,1,0,61,1,0
58999,-100,4,2,0,0,0,0
59345,-100,4,1,0,61,0,0
59576,-100,4,1,0,61,0,1
74115,-100,4,2,0,61,0,1
74345,923.076923076923,4,2,0,61,1,0
88999,-100,4,1,0,61,0,0
89115,461.538461538462,4,1,0,61,1,0
99961,-100,4,2,0,61,0,0
103826,-100,4,1,0,61,0,0
118653,-100,4,1,0,61,0,1
135269,-100,4,1,0,61,0,0
141961,-200,4,2,0,61,0,0
147845,-100,4,1,0,61,0,0
160884,-100,4,2,0,61,0,0
164749,-100,4,1,0,61,0,0
185115,-100,4,1,0,61,0,1
199653,-100,4,1,0,61,0,0
199884,-100,4,1,1,61,0,1
214653,-100,4,1,0,61,0,0

[Colours]
Combo1 : 128,128,192
Combo2 : 128,255,128
Combo3 : 128,255,255

[HitObjects]
512,24,38,2,0,B|411:50|385:173,1,200,0|2
96,232,1885,2,0,B|122:333|245:359,1,200,0|2
144,72,3731,2,0,B|118:173|-5:199,1,200,0|2
296,152,5577,2,0,B|397:178|423:301,1,200,0|2
96,152,6962,5,2
96,152,7192,1,0
96,152,7423,2,2,B|56:273|158:348,1,200
416,232,9269,2,2,B|455:110|353:35,1,200,2|0
256,368,11115,2,0,B|208:272|312:240|240:144,1,200,2|2
256,24,12500,1,2
224,168,12962,2,0,B|82:230|168:416|345:404|421:232|276:166,1,500,2|0
253,250,15499,5,0
253,250,15730,1,8
253,250,15961,1,0
186,174,16192,2,0,B|186:94|322:94|322:174,2,200,0|8|0
253,250,17345,5,0
336,312,17576,1,8
424,264,17807,1,0
384,168,18038,2,0,B|344:40|184:80,2,200,0|8|0
288,152,19192,5,0
240,240,19422,1,8
144,224,19653,1,0
128,128,19884,2,0,B|16:168|0:312,2,200,0|8|0
216,80,21038,5,0
288,152,21269,1,8
384,120,21499,1,0
376,216,21730,2,0,B|384:328|512:360,2,200,0|8|0
176,300,22884,5,0
178,170,23115,1,0
288,240,23345,2,0,B|370:327|471:312,1,200,0|0
472,112,24038,6,0,B|412:9,1,100,2|0
400,120,24499,2,0,B|280:119,1,100,2|0
376,184,24961,2,0,B|316:287,1,100,2|0
424,240,25422,2,0,B|484:343,1,100,2|0
352,368,25884,6,0,B|240:376|152:280,1,200
103,222,26576,1,0
80,128,26807,1,0
96,32,27038,2,0,B|208:24|296:120,1,200
344,176,27730,1,0
376,272,27961,1,0
352,368,28192,2,0,B|240:376|152:280,1,200
64,48,28884,5,2
192,48,29115,1,0
320,48,29345,1,2
448,48,29576,1,0
256,368,30038,5,4
208,304,42961,5,0
208,304,43192,2,0,B|304:248|424:248,1,200
464,136,43884,2,0,B|280:136|168:184|56:272,1,400
129,125,45038,6,0,B|217:77|337:61,1,200
383,176,45730,2,0,B|383:224|327:296,2,100
72,128,46422,2,0,B|95:237|178:306,1,200
200,168,47115,1,0
152,48,47345,2,0,B|261:71|330:154,1,200
368,328,48038,1,0
368,328,48499,5,0
304,328,49422,1,2
240,328,50345,1,0
176,328,51269,1,2
296,16,52192,6,0,B|288:152|232:232,1,200
156,114,52884,1,0
126,240,53115,2,0,B|60:246|25:218,2,100
375,344,53807,2,0,B|275:385|157:360,1,200
253,256,54499,1,0
146,176,54730,2,0,B|244:96|445:99,1,300
112,344,55884,5,0
240,312,56115,2,0,B|296:216|312:104,1,200
200,192,56807,2,0,B|104:256|-24:256,1,200
368,112,57730,5,0
248,160,57961,2,0,B|201:70|92:9,1,200
440,216,58653,2,0,B|393:305|284:366,1,200
472,56,59576,5,8
320,56,59807,1,0
448,136,60038,1,8
344,248,60269,1,0
472,320,60499,1,8
320,320,60730,1,0
448,248,60961,1,8
342,135,61192,2,2,B|230:206|6:214,1,300,2|2
196,261,62115,2,0,B|324:285|428:261,2,200,2|2|2
72,328,63269,5,8
224,328,63499,1,0
96,248,63730,1,8
200,136,63961,1,0
72,64,64192,1,8
224,64,64422,1,0
96,136,64653,1,8
200,248,64884,2,0,B|344:264|504:344,1,300,2|2
336,352,65807,2,0,B|152:336|8:280,1,300,2|2
100,143,66730,5,0
211,32,66961,1,8
365,73,67192,1,0
407,226,67422,1,8
294,340,67653,1,0
139,298,67884,1,8
256,184,68115,1,0
100,143,68345,1,8
212,33,68576,2,2,B|371:56|467:196,1,300,2|2
307,136,69499,2,0,B|222:90|90:93,2,200,2|2|2
455,239,70653,5,8
295,319,70884,1,0
455,239,71115,1,8
295,319,71345,1,0
455,239,71576,1,8
295,319,71807,1,0
455,239,72038,1,8
296,320,72269,2,0,B|181:195|147:56,1,300,2|2
488,176,73422,2,0,B|403:130|268:133,1,200,2|2
48,208,74345,6,2,B|144:207|262:273,1,200
496,208,76191,2,2,B|497:112|431:-6,1,200
296,232,78037,2,2,B|233:305|106:350,1,200
40,96,79883,2,2,B|125:140|198:253,1,200
296,64,81268,5,2
341,110,81498,1,0
330,174,81729,1,2
385,208,81960,1,0
415,265,82191,1,2
411,329,82421,1,0
454,377,82652,1,2
31,124,83575,5,2
83,85,83806,1,0
145,102,84037,1,2
209,97,84268,1,0
243,42,84498,1,2
256,168,85421,6,2,B|288:256|200:288|256:360,1,200
256,360,86806,1,2
56,208,87268,5,2
110,242,87498,1,0
170,219,87729,1,2
234,208,87960,1,0
296,227,88191,1,2
345,184,88421,1,0
409,177,88652,1,2
458,135,88883,1,0
433,74,89115,5,0
433,74,89345,1,0
240,120,89807,1,0
240,120,90038,1,8
88,80,90961,5,0
88,80,91191,1,0
168,304,91653,1,0
168,304,91884,1,8
336,104,92807,5,0
336,104,93038,1,0
72,208,93499,1,0
72,208,93730,1,8
432,336,94653,5,0
432,336,94884,1,0
320,32,95345,1,0
320,32,95576,1,8
40,280,96499,5,0
40,280,96730,1,0
392,224,97191,1,0
392,224,97422,1,8
72,32,98345,5,0
72,32,98576,1,0
296,360,99038,1,0
296,360,99268,1,8
440,32,100191,5,2
400,0,100307,1,0
352,16,100422,1,0
352,64,100538,1,0
392,96,100653,1,2
384,144,100768,1,0
368,192,100884,1,0
344,240,100999,1,0
296,264,101114,1,2
248,264,101230,1,0
208,240,101345,1,0
184,192,101461,1,0
208,144,101576,1,2
168,112,101691,1,0
120,88,101807,1,0
80,64,101922,1,0
40,88,102038,5,2
16,136,102153,1,0
16,184,102268,1,0
40,232,102384,1,0
80,256,102499,1,2
56,304,102614,1,0
96,328,102730,1,0
144,352,102845,1,0
192,368,102961,1,2
240,368,103076,1,0
288,360,103191,1,0
336,352,103307,1,0
376,328,103422,1,2
408,288,103538,1,0
432,240,103653,1,0
440,192,103768,1,0
432,144,103884,5,0
152,40,104230,1,0
168,336,104576,1,0
168,336,104807,1,8
376,320,105730,5,0
326,25,106076,1,0
77,187,106422,1,0
77,187,106653,1,8
416,16,107576,6,0,B|264:168|592:208|408:384,3,400
256,192,110807,1,0
80,96,111268,6,0,B|32:184|40:280,2,150
296,304,112191,2,0,B|344:352|424:352,2,100,0|0|0
240,192,112884,2,0,B|352:240|472:232,1,200
352,128,113576,1,0
472,80,113807,2,0,B|344:8|136:24,1,300
72,360,114961,6,0,B|160:312|256:320,2,150
289,319,115884,1,8
352,56,116807,6,0,B|252:68|179:131,2,150
151,147,117730,1,8
248,88,118653,5,8
104,48,118884,1,0
168,184,119114,1,8
240,320,119345,1,0
96,288,119576,1,8
24,152,119807,1,0
168,184,120038,1,8
312,224,120268,2,2,B|256:95|65:-5,1,300,2|2
263,16,121191,2,0,B|384:18|491:75,2,200,2|2|2
408,120,122345,5,8
408,272,122576,1,0
256,120,122807,1,8
256,272,123038,1,0
104,120,123268,1,8
104,272,123499,1,0
256,376,123730,1,8
392,320,123961,2,0,B|473:200|518:27,1,300,2|2
384,152,124884,2,0,B|200:136|56:80,1,300,2|2
64,248,125807,5,0
176,360,126038,1,8
336,360,126268,1,0
448,248,126499,1,8
336,360,126730,1,0
176,360,126961,1,8
64,248,127191,1,0
64,88,127422,1,8
208,24,127653,2,2,B|376:24|502:95,1,300,2|2
336,104,128576,2,0,B|382:189|379:321,2,200,2|2|2
168,40,129730,5,8
336,104,129961,1,0
168,168,130191,1,8
336,232,130422,1,0
168,296,130653,1,8
336,360,130884,1,0
168,296,131114,1,8
80,136,131345,2,0,B|244:93|383:128,1,300,2|2
56,280,132499,2,0,B|152:287|263:363,2,200,2|2|6
96,249,133538,5,0
140,225,133653,1,0
187,209,133768,1,0
235,197,133884,1,0
284,189,133999,1,0
333,181,134114,1,0
382,175,134230,1,0
431,175,134345,1,0
189,353,134691,1,0
273,65,135038,5,0
189,353,135268,1,4
279,46,142191,5,2
223,79,142422,1,0
281,108,142653,2,2,B|371:169|491:182,1,200
226,278,144499,2,2,B|136:339|16:352,1,200
143,110,146345,2,2,B|191:50|273:17,2,150
82,135,147961,5,0
35,180,148191,1,0
97,198,148422,1,8
251,268,148884,5,0
168,289,149114,1,0
231,345,149345,1,8
381,197,149807,5,0
473,247,150038,1,0
475,141,150268,1,8
245,42,150730,5,0
146,119,150961,1,0
261,166,151191,1,8
24,332,151653,5,0
126,228,151884,1,0
171,365,152114,1,8
358,93,152576,5,0
464,219,152807,1,0
301,246,153038,1,8
97,79,153499,5,0
209,144,153730,2,0,B|106:183,1,100,2|0
241,214,154191,2,0,B|138:253,1,100
273,281,154653,2,0,B|170:320,1,100,2|0
306,346,155114,2,0,B|203:385,1,100
402,50,155576,6,0,B|505:89,1,100,2|0
370,120,156038,2,0,B|473:159,1,100
338,187,156499,2,0,B|441:226,1,100,2|0
305,252,156961,2,0,B|408:291,1,100
111,341,157422,6,0,B|29:245|16:142,1,200,0|8
199,187,158115,1,0
248,14,158345,2,0,B|349:25|463:88,1,200,0|8
449,255,159038,1,0
293,345,159268,6,0,B|269:242|295:125,1,200,0|8
132,60,159961,1,0
12,194,160191,2,0,B|105:244|233:216,2,200,0|8|2
19,144,161230,5,0
49,104,161345,1,0
92,78,161461,1,0
140,68,161576,1,2
189,72,161691,1,0
176,120,161807,1,0
157,166,161922,1,0
199,192,162038,1,2
237,223,162153,1,0
259,267,162268,1,0
278,313,162384,1,0
319,284,162499,1,2
358,254,162615,1,0
396,222,162730,1,0
387,172,162845,1,0
355,132,162961,5,2
311,107,163076,1,0
261,104,163191,1,0
211,111,163307,1,0
164,129,163422,1,2
131,166,163538,1,0
118,214,163653,1,0
131,262,163768,1,0
84,280,163884,1,2
39,302,163999,1,0
26,253,164115,1,0
27,202,164230,1,0
37,153,164345,1,2
70,116,164461,1,0
106,81,164576,1,0
147,52,164691,1,0
192,40,164807,6,0,B|312:40,1,100
192,120,165268,2,0,B|278:225,1,100
384,168,165730,2,0,B|470:273,2,100
256,200,166422,2,0,B|96:328,1,200
192,144,167115,6,0,B|87:230,1,100
264,80,167576,2,0,B|360:184,2,100
352,256,168268,2,0,B|128:256,1,200
304,128,168961,6,0,B|440:128,1,100
200,128,169422,2,0,B|88:128,2,100
392,72,170115,2,0,B|456:152|472:264,1,200,0|8
304,144,170807,1,0
424,304,171038,6,0,B|320:248|200:256,1,200,0|8
56,344,171730,1,0
24,144,171961,2,0,B|88:64|192:24,1,200,0|8
176,224,172653,1,0
304,72,172884,2,0,B|392:136|512:144,1,200,0|8
336,272,173576,1,0
144,336,173807,1,0
64,152,174038,5,8
256,88,174268,1,0
336,272,174499,1,0
144,336,174961,5,8
96,248,175191,1,0
64,152,175422,1,0
40,56,175653,2,0,B|112:88|248:88,1,200
236,87,176345,1,0
470,209,176807,5,8
433,301,177038,1,0
336,299,177268,1,0
366,203,177499,2,0,B|266:150|173:142,1,200
177,142,178191,1,0
432,64,178653,5,8
328,64,178884,1,0
264,144,179115,1,0
368,144,179345,2,0,B|414:239|504:309,1,200
491,299,180038,1,0
491,299,180268,2,0,B|366:311|283:339,1,200
296,336,180961,1,2
232,264,181191,1,0
160,336,181422,1,2
88,264,181653,1,0
16,336,181884,5,2
88,168,182115,1,0
160,336,182345,1,2
232,168,182576,1,0
296,336,182807,1,2
368,168,183038,1,0
32,32,183268,5,0
32,32,183499,1,0
480,352,183961,1,0
480,352,184191,1,0
352,88,185115,5,8
352,88,185345,1,0
152,88,185576,1,8
152,88,185807,1,0
352,288,186038,1,8
352,288,186268,1,0
152,288,186499,1,8
152,288,186730,1,0
152,288,186961,5,8
72,232,187191,1,0
152,288,187422,1,8
176,160,187653,1,0
152,288,187884,1,8
304,232,188115,1,0
152,288,188345,1,8
338,358,188576,1,0
415,294,188807,5,8
443,198,189038,1,0
419,100,189268,1,8
349,28,189499,1,0
250,9,189730,1,8
151,27,189961,1,0
83,98,190191,1,8
65,196,190422,1,0
144,335,190653,5,8
304,360,190884,1,0
429,265,191115,1,8
423,105,191345,1,0
293,8,191576,1,8
135,34,191807,1,0
62,176,192038,1,8
119,324,192268,1,0
273,369,192499,5,8
273,369,192730,1,0
384,304,192961,1,8
384,304,193191,1,0
272,240,193422,1,8
272,240,193653,1,0
384,176,193884,1,8
384,176,194115,1,0
272,112,194345,5,8
203,223,194576,1,0
98,145,194807,1,8
166,34,195038,1,0
272,112,195268,1,8
203,223,195499,1,0
98,145,195730,1,8
166,34,195961,1,0
272,112,196191,5,8
80,64,196422,1,0
24,256,196653,1,8
216,304,196884,1,0
272,112,197115,1,8
80,64,197345,1,0
24,256,197576,1,8
216,304,197807,1,0
398,222,198038,5,8
398,222,198268,1,0
251,190,198499,1,8
251,190,198730,1,0
339,68,198961,1,8
339,68,199191,1,0
195,25,199422,1,8
195,25,199653,1,0
64,176,199884,5,8
256,240,200115,1,0
448,176,200345,1,8
256,112,200576,1,0
64,64,200807,6,0,B|120:80|175:150,2,100,8|0|8
473,129,201499,2,2,B|326:204|289:399,1,300,2|2
288,32,202422,2,0,B|260:131|134:196,2,200,2|2|2
464,128,203576,1,8
272,184,203807,1,0
464,232,204038,1,8
272,288,204268,1,0
464,344,204499,6,0,B|402:381|331:363,2,100,8|0|8
208,16,205191,2,0,B|376:0|504:96,1,300,2|2
40,160,206115,2,0,B|194:227|260:373,1,300,2|2
56,312,207038,1,0
152,136,207268,1,8
352,136,207499,1,0
456,312,207730,1,8
256,312,207961,1,0
80,216,208191,6,0,B|112:272|184:288,2,100,8|0|8
440,144,208884,2,2,B|328:26|162:17,1,300,2|2
272,360,209807,2,0,B|144:360|96:272,2,200,2|2|2
435,244,210961,1,8
356,59,211191,1,0
165,118,211422,1,8
245,301,211653,1,0
384,157,211884,6,0,B|440:149|496:93,2,100,8|0|8
165,356,212576,2,0,B|133:188|-3:84,1,300,2|2
500,114,213499,2,0,B|324:98|188:218,1,300,2|2
218,193,214653,1,4
256,192,214884,12,4,216499
