osu file format v7

[General]
AudioFilename: 01 - Mis Demonios (Atrevete a Vivir).mp3
AudioLeadIn: 2500
PreviewTime: 59588
Countdown: 0
SampleSet: Normal
StackLeniency: 0.8
Mode: 0
LetterboxInBreaks: 0
StoryFireInFront: 0

[Editor]
DistanceSpacing: 1
BeatDivisor: 4
GridSize: 8

[Metadata]
Title:Mis Demonios (Atrevete a Vivir)
Artist:Mago de Oz
Creator:ErufenRito
Version:Hard
Source:
Tags:Atlantia Gaia III

[Difficulty]
HPDrainRate:5
CircleSize:4
OverallDifficulty:6
SliderMultiplier:1.4
SliderTickRate:2

[Events]
//Background and Video events
0,0,"atlantia.jpg"
//Break Periods
2,30238,41911
2,135468,141141
//Storyboard Layer 0 (Background)
//Storyboard Layer 1 (Fail)
//Storyboard Layer 2 (Pass)
//Storyboard Layer 3 (Foreground)
//Storyboard Sound Samples
//Background Colour Transformations
3,100,163,162,255

[TimingPoints]
39,923.076923076923,4,2,0,51,1,0
15269,461.538461538462,4,1,0,61,1,0
58884,-100,4,1,0,0,0,0
59345,-100,4,1,0,61,0,0
59576,-100,4,1,0,61,0,1
74115,-100,4,2,0,61,0,1
74345,923.076923076923,4,2,0,61,1,0
88999,-100,4,1,0,61,0,0
89115,461.538461538462,4,1,0,61,1,0
99961,-100,4,2,0,61,0,0
103826,-100,4,1,0,61,0,0
118653,-100,4,1,0,61,0,1
135269,-100,4,1,0,61,0,0
141961,-200,4,2,0,61,0,0
147845,-100,4,1,0,61,0,0
160884,-100,4,2,0,61,0,0
164749,-100,4,1,0,61,0,0
185115,-100,4,1,0,61,0,1
199653,-100,4,1,0,61,0,0
199884,-100,4,1,1,61,0,1
214653,-100,4,1,0,61,0,0

[Colours]
Combo1 : 128,128,192
Combo2 : 128,255,128
Combo3 : 128,255,255

[HitObjects]
316,58,38,2,0,B|244:66|188:138,1,140,0|2
60,162,1885,2,0,B|82:230|164:270,1,140,0|2
260,170,3731,2,0,B|323:134|346:46,1,140,0|2
380,194,5577,2,0,B|476:210|500:306,1,140,0|2
488,272,6962,5,2
488,272,7192,1,0
488,272,7423,2,2,B|413:315|335:271,1,140
353,280,9269,2,2,B|378:201|326:142,1,140,2|0
331,147,11115,2,2,B|395:117|418:30,1,140
415,40,12500,1,2
415,40,12962,2,0,B|227:7|36:55,1,350,2|0
30,107,15499,5,0
46,174,15730,1,8
112,196,15961,1,0
178,174,16192,2,0,B|275:182|258:294,2,140,0|8|0
135,118,17345,5,0
166,55,17576,1,8
236,57,17807,1,0
276,113,18038,2,0,B|377:126|386:36,2,140,0|8|0
205,119,19192,5,0
168,178,19422,1,8
185,245,19653,1,0
246,276,19884,2,0,B|212:353|125:360,2,140,0|8|0
253,206,21038,5,0
304,159,21269,1,8
373,164,21499,1,0
412,222,21730,2,0,B|427:294|351:342,2,140,0|8|0
346,245,22884,5,0
282,215,23115,1,0
257,149,23345,2,0,B|175:56|39:95,1,210,0|8
127,214,24499,6,0,B|92:304,3,70
112,348,25422,2,0,B|188:366|263:318,1,140,0|8
185,201,26345,5,0
228,145,26576,1,0
293,119,26807,1,0
362,126,27038,2,0,B|370:238|321:349,1,210,0|8
328,331,28192,6,0,B|216:339|120:240,1,210
137,257,29115,1,0
137,257,29345,1,0
137,257,29576,1,0
256,184,30038,5,4
106,262,42961,5,0
106,262,43192,2,0,B|166:276|232:336,1,140
289,302,43884,2,0,B|208:182|72:94,1,280,0|0
132,48,45038,6,0,B|192:18|291:20,1,140,0|0
287,87,45730,2,0,B|287:135|263:164,2,70,0|0|0
337,38,46422,2,0,B|408:97|424:167,1,140
430,218,47115,1,0
360,215,47345,2,0,B|288:215|218:155,1,140
231,166,48038,1,0
160,288,48499,5,0
224,288,49422,1,2
288,288,50345,1,0
352,288,51269,1,2
287,343,52192,6,0,B|225:238|231:119,1,210,0|0
186,90,53115,2,0,B|162:122|106:122,2,70
254,76,53807,2,0,B|350:28|483:43,1,210
436,107,54730,2,0,B|340:155|209:151,1,210
135,40,55884,6,0,B|-74:319|444:273,1,560
436,273,57961,1,0
436,133,58422,1,0
436,133,58653,1,0
161,76,59576,6,0,B|122:92|89:126,3,70,8|0|8|0
45,154,60499,2,0,B|29:115|-5:82,2,70,8|0|8
109,182,61192,2,0,B|214:192|332:257,1,210,2|2
371,213,62115,2,0,B|411:272|432:370,2,140,2|2|2
410,155,63269,6,0,B|449:171|482:205,3,70,8|0|8|0
489,259,64192,2,0,B|484:300|460:341,2,70,8|0|8
419,247,64884,2,0,B|314:257|196:322,1,210,2|2
153,287,65807,2,0,B|163:182|228:64,1,210,2|2
280,113,66730,1,0
332,159,66961,6,0,B|316:198|282:231,3,70,8|0|8|0
349,261,67884,2,0,B|388:245|421:211,2,70,8|0|8
284,289,68576,2,0,B|179:299|61:364,1,210,2|2
14,356,69499,2,0,B|21:285|68:196,2,140,2|2|2
82,368,70653,6,0,B|121:352|154:318,3,70,8|0|8|0
135,260,71576,2,0,B|119:221|85:188,3,70,8|0|8|0
151,156,72499,2,0,B|167:117|201:84,3,70,8|0|8|0
236,148,73422,2,0,B|273:128|303:91,3,70,8|0|8|0
357,82,74345,6,2,B|379:147|362:232,1,140
234,168,76191,2,2,B|186:110|107:90,1,140
103,232,78037,2,2,B|108:300|154:371,1,140
242,258,79883,2,2,B|318:231|363:170,1,140
363,109,81268,6,0,B|329:82,6,35,2|0|2|0|2|0|2
437,227,83575,6,0,B|464:261,4,35,2|0|2|0|2
305,178,85421,6,2,B|224:176|162:214,1,140
208,248,86806,1,2
208,248,87268,5,2
208,248,87498,1,0
208,248,87729,1,2
208,248,87960,1,0
208,248,88191,1,2
208,248,88421,1,0
208,248,88652,1,2
208,248,88883,1,0
208,248,89115,5,0
208,248,89345,2,0,B|131:238|78:174,1,140
86,184,90038,1,8
327,150,90961,5,0
327,150,91191,2,0,B|317:73|253:20,1,140
263,28,91884,1,8
58,219,92807,6,0,B|96:298|164:345|304:345,3,280
99,139,96499,5,0
99,139,96730,2,0,B|146:77|228:63,1,140
215,67,97422,1,8
465,191,98345,5,0
465,191,98576,2,0,B|455:268|391:321,1,140
401,313,99268,1,8
184,135,100191,6,0,B|150:142|119:124,3,35,2|0|0|0
125,160,100653,2,0,B|117:196|89:206,3,35,2|0|0|0
120,224,101114,2,0,B|143:236|184:221,3,35,2|0|0|0
162,262,101576,2,0,B|136:283|110:297,3,35,2|0|0|0
108,307,102038,2,0,B|74:300|72:265,3,35,2|0|0|0
59,259,102499,2,0,B|25:266|-6:248,3,35,2|0|0|0
33,225,102961,2,0,B|8:206|23:169,3,35,2|0|0|0
41,169,103422,2,0,B|74:162|73:130,3,35,2|0|0|0
92,124,103884,6,0,B|75:77|32:24,2,105
159,144,104807,1,8
250,256,105730,6,0,B|297:239|350:196,2,105
230,323,106653,1,8
339,65,107576,6,0,B|423:149|449:335,3,280
320,257,110807,1,0
199,186,111268,6,0,B|141:197|99:246,2,105
251,139,112191,2,0,B|305:145|334:103,2,70,0|0|0
185,113,112884,2,0,B|146:75|40:81,1,140
21,143,113576,1,0
90,151,113807,2,0,B|138:238|137:371,1,210
217,238,114961,6,0,B|234:285|277:338,2,105
285,224,115884,1,8
225,41,116807,6,0,B|178:58|125:101,2,105
278,86,117730,1,8
460,298,118653,6,0,B|444:337|410:370,3,70,8|0|8|0
380,301,119576,2,0,B|341:285|308:251,2,70,8|0|8
416,240,120268,2,2,B|426:135|491:17,1,210,2|2
413,23,121191,2,0,B|354:63|256:84,2,140,2|2|2
449,82,122345,6,0,B|454:123|441:169,3,70,8|0|8|0
386,189,123268,2,0,B|391:230|415:271,2,70,8|0|8
321,216,123961,2,0,B|220:247|86:234,1,210,2|2
44,223,124884,2,0,B|54:118|119:0,1,210,2|2
164,63,125807,1,0
232,75,126038,6,0,B|248:36|282:3,3,70,8|0|8|0
328,54,126961,2,0,B|367:70|400:104,2,70,8|0|8
294,115,127653,2,0,B|284:220|219:338,1,210,2|2
163,297,128576,2,0,B|170:226|217:137,2,140,2|2|2
229,318,129730,6,0,B|268:302|301:268,3,70,8|0|8|0
296,211,130653,2,0,B|280:172|246:139,3,70,8|0|8|0
320,119,131576,2,0,B|336:80|370:47,3,70,8|0|8|0
426,74,132499,2,0,B|463:54|493:17,3,70,8|0|8|0
480,32,133422,1,4
256,192,133653,12,4,135268
384,56,142191,5,2
413,119,142422,1,0
342,116,142653,2,2,B|303:176|223:192,1,140
103,127,144499,2,2,B|142:67|222:51,1,140
273,180,146345,2,2,B|274:234|239:285,2,105
320,128,147961,6,0,B|342:83|374:64,2,70,0|0|8
342,266,148884,2,0,B|387:288|406:320,2,70
245,164,149807,6,0,B|200:186|181:218,2,70,0|0|8
174,284,150730,2,0,B|196:329|228:348,2,70
238,159,151653,6,0,B|283:137|302:105,2,70,0|0|8
356,233,152576,2,0,B|401:255|420:287,2,70
432,115,153499,5,0
372,78,153730,2,0,B|291:32,1,70,8|0
277,105,154191,2,0,B|321:168,1,70,0|0
260,203,154653,2,0,B|187:223,1,70,8|0
156,160,155114,2,0,B|250:137,1,70,0|0
213,74,155576,6,0,B|151:26,1,70,8|0
88,41,156038,2,0,B|39:126,1,70
42,170,156499,2,0,B|94:236,1,70,8|0
144,186,156961,2,0,B|92:120,1,70
153,85,157422,6,0,B|205:36|296:10,1,140,0|8
336,49,158115,1,0
304,111,158345,2,0,B|371:140|459:124,1,140,0|2
484,182,159038,1,0
498,250,159268,6,0,B|492:328|412:371,1,140,0|8
386,304,159961,1,0
317,317,160191,2,0,B|304:239|232:204,1,140,0|2
216,345,161115,6,0,B|182:352|176:377,3,35,2|0|0|0
153,344,161576,2,0,B|121:328|97:336,3,35,2|0|0|0
94,308,162038,2,0,B|94:276|118:260,3,35,2|0|0|0
79,249,162499,2,0,B|39:241|31:273,3,35,2|0|0|0
34,218,162961,2,0,B|27:184|-8:182,3,35,2|0|0|0
27,156,163422,2,0,B|61:163|92:145,3,35,2|0|0|0
75,123,163884,2,0,B|50:104|65:67,3,35,2|0|0|0
47,60,164345,2,0,B|80:53|79:21,3,35,2|0|0|0
111,32,164807,6,0,B|191:32,1,70,8|0
183,102,165268,2,0,B|247:182,1,70
166,192,165730,2,0,B|112:118,2,70,8|0|0
208,247,166422,2,0,B|346:162,1,140
371,228,167115,6,0,B|289:279,1,70,8|0
253,304,167576,2,0,B|228:386,2,70
182,306,168268,2,0,B|29:306,1,140,8|0
50,236,168961,6,0,B|144:236,1,70
190,235,169422,2,0,B|271:281,2,70,8|0|0
224,173,170115,2,0,B|283:133|305:51,1,140,8|0
368,84,170807,5,0
417,34,171038,2,0,B|476:90|468:178,1,140,2|0
475,229,171730,1,0
414,193,171961,2,0,B|329:166|254:190,1,140,8|0
237,242,172653,5,0
199,301,172884,2,0,B|127:267|99:175,1,140,2|0
100,129,173576,2,0,B|161:80,1,70
216,52,174038,5,8
285,55,174268,1,0
335,103,174499,1,0
394,230,174961,5,8
338,187,175191,1,0
268,191,175422,1,0
220,242,175653,2,0,B|170:176|221:132|257:121,1,140
268,191,176345,1,0
193,72,176807,5,8
146,123,177038,1,0
76,115,177268,1,0
25,66,177499,2,0,B|-15:104|9:178|68:186,1,140
75,115,178191,1,0
186,199,178653,5,8
255,205,178884,1,0
280,269,179115,1,0
350,270,179345,2,0,B|349:331|284:355|244:331,1,140
280,271,180038,1,0
209,270,180268,2,0,B|210:209|275:185|315:209,1,140
281,270,180961,1,2
281,270,181191,1,0
281,270,181422,1,2
281,270,181653,1,0
216,240,181884,6,0,B|208:184|240:160,1,70,2|0
296,152,182345,2,0,B|304:96|272:72,1,70,2|0
216,96,182807,2,0,B|160:104|136:72,1,70,2|0
88,48,183268,5,0
88,48,183499,1,0
88,192,183961,1,0
88,192,184191,1,0
352,96,185115,6,0,B|392:112|432:112,3,70,8|0|8|0
440,176,186038,2,0,B|424:216|424:256,3,70,8|0|8|0
464,304,186961,2,8,B|424:320|384:320,3,70,8|0|8|0
328,344,187884,2,0,B|312:304|312:264,3,70,8|0|8|0
244,256,188807,5,8
244,256,189038,1,0
191,209,189268,1,8
191,209,189499,1,0
121,220,189730,1,8
121,220,189961,1,0
90,157,190191,1,8
90,157,190422,1,0
119,93,190653,5,8
119,93,190884,1,0
184,116,191115,1,8
184,116,191345,1,0
244,80,191576,1,8
244,80,191807,1,0
304,116,192038,1,8
304,116,192268,1,0
330,180,192499,6,0,B|314:220|314:260,3,70,8|0|8|0
248,223,193422,2,0,B|208:207|168:207,3,70,8|0|8|0
143,266,194345,2,0,B|103:282|63:282,3,70,8|0|8|0
82,211,195268,2,0,B|66:171|66:131,3,70,8|0|8|0
85,75,196191,5,8
85,75,196422,1,0
143,36,196653,1,8
143,36,196884,1,0
207,64,197115,1,8
207,64,197345,1,0
257,112,197576,1,8
257,112,197807,1,0
326,108,198038,5,8
326,108,198268,1,0
368,163,198499,1,8
368,163,198730,1,0
437,168,198961,1,8
437,168,199191,1,0
470,230,199422,1,8
470,230,199653,1,0
434,314,199884,5,8
350,349,200115,1,0
266,313,200345,1,8
242,224,200576,1,0
300,154,200807,6,0,B|338:157|364:219,2,70,8|0|8
212,129,201499,2,2,B|261:30|382:15,1,210,2|2
392,105,202422,2,0,B|450:184|422:266,2,140,2|2|2
330,172,203576,1,8
269,240,203807,1,0
179,222,204038,1,8
161,132,204268,1,0
220,63,204499,6,0,B|259:85|304:70,2,70,8|0|8
143,12,205191,2,0,B|54:82|20:197,1,210,2|2
47,270,206115,2,0,B|135:199|169:84,1,210,2|2
223,29,207038,1,0
312,14,207268,1,8
376,77,207499,1,0
370,167,207730,1,8
291,213,207961,1,0
211,168,208191,6,0,B|224:121|273:120,2,70,8|0|8
203,258,208884,2,2,B|125:338|0:335,1,210,2|2
27,245,209807,2,0,B|67:178|147:156,2,140,2|2|2
117,258,210961,1,8
199,219,211191,1,0
236,136,211422,1,8
182,62,211653,1,0
271,44,211884,6,0,B|309:34|357:73,2,70,8|0|8
305,128,212576,2,0,B|392:183|427:297,1,210,2|2
335,288,213499,2,0,B|232:297|135:227,1,210,2|2
138,229,214653,1,4
256,192,214884,12,4,216499
