osu file format v7

[General]
AudioFilename: 01 - Mis Demonios (Atrevete a Vivir).mp3
AudioLeadIn: 2500
PreviewTime: 59588
Countdown: 0
SampleSet: Normal
StackLeniency: 0.8
Mode: 0
LetterboxInBreaks: 0
StoryFireInFront: 0

[Editor]
DistanceSpacing: 1.20000004768372
BeatDivisor: 4
GridSize: 8

[Metadata]
Title:Mis Demonios (Atrevete a Vivir)
Artist:Mago de Oz
Creator:ErufenRito
Version:Easy
Source:
Tags:Atlantia Gaia III

[Difficulty]
HPDrainRate:0
CircleSize:3
OverallDifficulty:0
SliderMultiplier:0.7
SliderTickRate:2

[Events]
//Background and Video events
0,0,"atlantia.jpg"
//Break Periods
2,30238,41161
2,135468,140391
//Storyboard Layer 0 (Background)
//Storyboard Layer 1 (Fail)
//Storyboard Layer 2 (Pass)
//Storyboard Layer 3 (Foreground)
//Storyboard Sound Samples
//Background Colour Transformations
3,100,163,162,255

[TimingPoints]
39,923.076923076923,4,2,0,51,1,0
15269,461.538461538462,4,1,0,61,1,0
58884,-100,4,1,0,0,0,0
59345,-100,4,1,0,61,0,0
59576,-100,4,1,0,61,0,1
74115,-100,4,2,0,61,0,1
74345,923.076923076923,4,2,0,61,1,0
88999,-100,4,1,0,61,0,0
89115,461.538461538462,4,1,0,61,1,0
99961,-100,4,2,0,61,0,0
103768,-100,4,1,0,61,0,0
118653,-100,4,1,0,61,0,1
135269,-100,4,1,0,61,0,0
141961,-200,4,2,0,61,0,0
149922,-100,4,1,0,61,0,0
185115,-100,4,1,0,61,0,1
199653,-100,4,1,0,61,0,0
199884,-100,4,1,0,61,0,1
214653,-100,4,1,0,61,0,0

[Colours]
Combo1 : 128,128,192
Combo2 : 128,255,128
Combo3 : 128,255,255

[HitObjects]
184,96,38,2,0,B|127:140|132:210,1,140,2|2
213,285,2808,1,2
317,291,3731,2,0,B|374:247|369:177,1,140,2|2
256,192,6962,5,2
256,192,7423,2,2,B|313:241,1,70
388,306,9269,1,2
320,40,11115,5,2
216,40,12038,1,2
160,40,12500,1,2
104,40,12962,1,2
256,192,13423,12,0,15269
120,192,16192,5,0
192,72,17115,1,0
256,192,18038,1,0
320,72,18961,1,0
392,192,19884,1,0
320,312,20807,1,0
192,312,21730,1,0
48,184,22653,6,0,B|48:328,1,140
184,320,24499,2,0,B|328:320,1,140
328,184,26345,2,0,B|328:40,1,140
192,48,28192,1,0
56,48,29115,2,0,B|56:128,2,70,0|0|4
51,103,42961,6,0,B|91:39|179:47,1,140
83,189,44807,6,0,B|139:253,1,70
195,190,45730,2,0,B|274:220,1,70
295,138,46653,2,0,B|379:127,1,70
332,51,47576,2,0,B|401:1,1,70
458,58,48499,6,0,B|493:110|502:197,3,140
336,225,52192,6,0,B|335:139,1,70
261,194,53115,2,0,B|220:119,1,70
178,200,54038,2,0,B|107:152,1,70
108,244,54961,2,0,B|23:235,1,70
48,320,55884,6,0,B|192:344|336:320,1,280
408,88,59576,6,0,B|256:56|128:120,1,280,0|0
283,194,62345,2,0,B|286:233|308:266,2,70
406,80,64192,6,0,B|445:144|449:234,1,140
321,323,66038,2,0,B|277:348|230:334,2,70
153,310,67884,6,0,B|95:259|69:189,1,140
240,198,69730,2,0,B|265:233|312:245,2,70
394,263,71576,5,0
394,95,72499,1,0
224,96,73422,1,0
136,96,73884,1,0
48,96,74345,6,2,B|26:161|43:246,1,140
122,212,77114,1,2
122,295,78037,2,2,B|187:317|272:300,1,140
272,176,81268,6,0,B|238:149,3,35,2|0|2|0
168,119,83575,6,0,B|135:157,2,35,2|0|2
219,52,85421,6,2,B|300:54|362:16,1,140
390,40,87729,1,0
414,74,88191,1,2
429,112,88652,1,0
437,153,89115,6,0,B|355:151|306:205,1,140
179,306,90961,2,0,B|180:228|139:167,1,140
240,36,92807,6,0,B|318:35|379:76,3,140
266,201,96499,6,0,B|267:279|226:340,1,140
184,172,98345,2,0,B|106:171|45:212,1,140
186,307,100191,6,0,B|232:369|322:363,2,140,2|2|2
80,175,102961,1,2
122,12,103884,6,0,B|174:53|261:52,1,140
140,174,105730,2,0,B|130:245|81:300,1,140
243,254,107576,6,0,B|296:310|368:326,3,140
430,276,110807,1,0
426,191,111268,6,0,B|374:150|287:151,1,140
140,217,113114,2,0,B|192:258|279:257,1,140
241,91,114961,6,0,B|179:49|101:60,1,140
157,190,116807,2,0,B|192:250|188:327,1,140
328,319,118653,6,0,B|360:167|296:39,1,280,0|0
237,171,121422,2,0,B|234:222|212:243,2,70
192,38,123268,6,0,B|129:98|131:176,1,140
187,288,125114,2,0,B|231:313|278:299,2,70
276,180,126961,6,0,B|353:178|418:141,1,140
363,277,128807,2,0,B|388:312|435:324,2,70
223,277,130653,5,0
83,277,131576,1,0
83,137,132499,1,0
153,137,132961,1,0
222,137,133422,1,4
256,192,133653,12,4,135268
334,280,142191,5,2
334,280,142653,2,2,B|366:256|406:272,1,70
446,217,144499,2,2,B|470:185|454:145,1,70
432,84,146345,2,2,B|418:59|387:53,2,52.5
461,147,148191,1,2
432,284,149114,1,2
312,352,150038,5,0
176,352,150961,1,0
176,216,151884,1,0
176,80,152807,1,0
329,67,153730,6,0,B|385:43|393:152|450:114,1,140,0|0
441,259,155576,2,0,B|385:235|376:344|319:306,1,140,0|0
185,307,157422,2,0,B|129:331|120:221|63:259,1,140,0|0
73,115,159268,2,0,B|129:139|137:29|194:67,1,140,0|0
256,64,160653,1,0
328,64,161115,6,0,B|432:64|360:200|488:184,1,210
485,254,162961,2,0,B|424:303,4,70,0|0|0|0|8
488,184,165268,5,0
417,184,165730,1,0
312,184,166422,1,2
386,109,167115,5,8
316,109,167576,1,0
211,109,168268,1,2
285,183,168961,5,8
215,183,169422,1,0
109,183,170115,1,2
120,320,171038,5,2
256,320,171961,1,2
392,320,172884,1,2
224,280,174038,6,0,B|143:249,1,70,0|2
185,188,174961,6,0,B|77:147,2,105,0|2|2
213,125,176807,6,0,B|105:84,2,105,0|2|2
238,60,178653,6,0,B|130:19,1,105,0|2
120,160,180268,5,2
256,160,181191,1,2
400,160,182115,1,2
199,62,185115,6,0,B|154:82|151:118,3,70,0|8|0|8
207,153,186961,2,0,B|199:191|159:209,3,70,0|8|0|8
107,165,188807,2,0,B|76:202|105:239,3,70,0|8|0|8
154,272,190653,2,0,B|179:293|226:283,3,70,0|8|0|8
224,214,192499,6,0,B|265:202|307:226,3,70,0|8|0|8
361,210,194345,2,0,B|376:174|355:136,3,70,0|8|0|8
290,159,196191,2,0,B|251:171|212:150,3,70,0|8|0|8
260,95,198038,2,0,B|290:63|291:26,3,70,0|8|0|8
220,37,199884,6,0,L|139:57,1,70,0|8
161,123,200807,2,0,L|80:143,1,70,0|8
104,208,201730,2,0,L|23:228,1,70,0|8
47,293,202653,2,0,L|-3:306,2,35,0|0|8
115,279,203576,6,0,L|196:296,1,70,0|8
206,227,204499,2,0,L|287:244,1,70,0|8
295,176,205422,2,0,L|376:193,1,70,0|8
383,125,206345,2,0,L|433:135,2,35,0|0|8
330,79,207268,6,0,B|319:44|276:24,1,70,0|8
260,93,208191,2,0,B|224:85|185:112,1,70,0|8
238,160,209115,2,0,B|249:194|292:214,1,70,0|8
308,145,210038,2,0,L|359:142,2,35,0|0|8
285,211,210961,6,0,B|276:295|195:330,1,140,0|8
154,280,212345,1,0
156,209,212807,2,0,B|72:200|37:119,1,140,0|8
64,67,214191,1,0
125,33,214653,1,4
256,192,214884,12,4,216499
