osu file format v5

[General]
AudioFilename: El mago de oz - Fiesta pagana.mp3
AudioLeadIn: 0
PreviewTime: -1
Countdown: 1
SampleSet: Normal
StackLeniency: 0.7
Mode: 0
LetterboxInBreaks: 1

[Metadata]
Title:Fiesta Pagana
Artist:Mago de Oz
Creator:XxTheRyuxX
Version:Insane
Source:
Tags:mago oz fiesta pagana cuerpo wizard rock

[Difficulty]
HPDrainRate:5
CircleSize:5
OverallDifficulty:5
SliderMultiplier:1.4
SliderTickRate:0.5

[Events]
//Background and Video events
0,0,"Mago_De_Oz-Mago_De_Oz-Frontal.jpg"
//Break Periods
2,65346,79947
2,95691,108826
2,116983,123998
2,140762,141593
2,150006,155937
2,164094,170217
2,185577,229887
//Storyboard Layer 0 (Background)
//Storyboard Layer 1 (Failing)
//Storyboard Layer 2 (Passing)
//Storyboard Layer 3 (Foreground)
//Storyboard Sound Samples
//Background Colour Transformations
3,100,0,0,0

[TimingPoints]
12680,510,4,1,0,100,1

[HitObjects]
64,288,3308,1,0
128,256,3627,1,0
64,224,3946,1,0
128,192,4265,1,0
64,160,4583,1,0
128,128,4902,1,0
64,96,5221,2,0,B|416:96,1,332.5
448,288,7006,5,0
384,256,7325,1,0
448,224,7643,1,0
384,192,7962,1,0
448,160,8281,1,0
384,128,8600,1,0
480,96,8918,2,0,B|128:96,1,332.5
288,192,10703,5,0
288,160,11022,1,0
288,128,11341,1,0
224,192,11660,1,0
224,160,11978,1,0
224,128,12297,1,0
256,64,12616,2,0,B|128:192|128:192|256:320,1,350
288,192,14273,5,0
288,160,14592,1,0
288,128,14911,1,0
224,192,15230,1,0
224,160,15548,1,0
224,128,15867,1,0
256,192,16250,12,0,17461
256,192,17907,5,0
256,256,18226,1,0
320,192,18545,1,0
256,128,18864,1,0
192,192,19182,1,0
256,192,19501,1,0
256,192,19756,12,0,20967
256,192,21605,5,0
320,192,21924,1,0
256,128,22243,1,0
192,192,22562,1,0
256,256,22880,1,0
256,192,23199,1,0
256,192,23454,12,0,24665
352,128,25302,5,0
256,192,25621,1,0
160,128,25940,1,0
160,256,26259,1,0
256,192,26577,1,0
352,256,26896,1,0
256,192,27151,12,0,28362
256,192,28745,5,0
352,128,29063,1,0
352,224,29382,1,0
256,288,29701,1,0
160,224,30020,1,0
160,128,30338,1,0
256,96,30976,1,0
256,96,31231,1,0
256,192,31677,1,0
416,256,32060,5,0
480,192,32315,1,0
416,128,32570,1,0
416,192,32825,1,0
352,160,33080,1,0
352,224,33335,1,0
288,192,33908,1,0
288,192,34163,1,0
288,192,34610,1,0
192,160,34865,5,0
192,224,35056,1,0
128,224,35247,1,0
128,160,35438,1,0
64,224,35630,1,0
64,160,35821,1,0
32,192,36140,1,0
96,96,36522,1,0
160,96,36777,1,0
256,192,37160,1,0
320,160,37415,5,0
320,224,37606,1,0
384,224,37797,1,0
384,160,37988,1,0
448,224,38180,1,0
448,160,38371,1,0
480,192,38562,1,0
448,288,38945,1,0
384,288,39136,1,0
320,320,39455,1,0
256,256,39646,5,0
192,224,39837,1,0
192,160,40028,1,0
256,128,40220,1,0
320,160,40411,1,0
320,224,40602,1,0
384,192,40793,1,0
256,192,41112,1,0
256,192,41303,1,0
128,192,41558,1,0
128,256,41813,5,0
192,256,41941,2,0,B|256:256,1,52.5
288,256,42260,1,0
352,256,42451,2,0,B|416:256,1,52.5
480,256,42770,1,0
416,256,43088,1,0
416,256,43280,1,0
352,256,43535,1,0
288,256,43726,5,0
224,256,43917,2,0,B|174:256,1,35
128,256,44236,1,0
64,256,44427,2,0,B|21:256,1,35
32,192,44682,1,0
96,128,45001,1,0
128,128,45192,1,0
192,128,45511,1,0
256,128,45702,5,0
256,192,45893,2,0,B|256:238,1,35
256,288,46148,1,0
256,227,46340,2,0,B|255:180,1,35
256,128,46595,1,0
256,64,46913,1,0
256,64,47105,1,0
192,192,47423,5,0
256,192,47615,2,0,B|302:193,1,35
320,192,47933,1,0
352,160,48061,1,0
384,192,48188,1,0
416,160,48316,1,0
448,192,48443,1,0
256,192,48635,12,0,48826
256,192,48953,5,0
256,192,49081,12,0,49208
192,288,49464,5,0
192,256,49592,1,0
192,224,49719,1,0
192,192,49847,1,0
192,160,49974,1,0
192,128,50102,1,0
192,96,50229,1,0
256,192,50420,12,0,50611
256,192,50738,5,0
256,192,50866,12,0,50993
320,288,51248,5,0
320,256,51376,1,0
320,224,51503,1,0
320,192,51631,1,0
320,160,51758,1,0
320,128,51886,1,0
320,96,52013,1,0
256,192,52204,12,0,52395
256,192,52522,5,0
256,192,52650,12,0,52777
160,128,53033,5,0
192,128,53161,1,0
224,128,53288,1,0
256,128,53416,1,0
288,128,53543,1,0
320,128,53671,1,0
352,128,53798,1,0
256,192,53989,12,0,54180
256,192,54307,5,0
256,192,54435,12,0,54562
352,256,54818,5,0
320,256,54946,1,0
288,256,55073,1,0
256,256,55201,1,0
224,256,55328,1,0
192,256,55456,1,0
160,256,55583,1,0
256,192,55774,12,0,55965
256,192,56092,5,0
256,192,56220,12,0,56347
160,96,56603,5,0
192,128,56731,1,0
224,160,56858,1,0
256,192,56986,1,0
288,224,57113,1,0
320,256,57241,1,0
352,288,57368,1,0
256,192,57559,12,0,57750
256,192,57877,5,0
256,192,58005,12,0,58132
352,96,58388,5,0
320,128,58516,1,0
288,160,58643,1,0
256,192,58771,1,0
224,224,58898,1,0
192,256,59026,1,0
160,288,59153,1,0
256,192,59344,12,0,59535
256,192,59662,5,0
256,192,59790,12,0,59917
288,224,60173,5,0
288,192,60301,1,0
288,160,60428,1,0
224,160,60556,1,0
224,192,60683,1,0
224,224,60811,1,0
256,192,60938,1,0
256,192,61129,12,0,61320
256,192,61447,5,0
256,192,61575,12,0,61702
352,224,61958,5,0
320,256,62086,1,0
288,224,62213,1,0
256,256,62341,1,0
224,224,62468,1,0
192,256,62596,1,0
160,224,62723,1,0
128,256,62850,1,0
96,224,62978,1,0
128,192,63105,1,0
96,160,63233,1,0
128,128,63360,1,0
160,160,63488,1,0
192,128,63615,1,0
224,160,63743,1,0
256,128,63870,1,0
288,160,63998,1,0
320,128,64125,1,0
352,160,64253,1,0
320,192,64380,1,0
352,224,64508,1,0
256,192,65082,5,4
224,128,81147,6,0,B|288:128,1,52.5
288,192,81593,2,0,B|224:192,1,52.5
224,256,82040,2,0,B|288:256,1,52.5
256,192,82486,1,0
96,128,82932,1,0
160,128,83187,1,0
224,128,83378,2,0,B|269:128,1,35
288,128,83633,1,0
352,128,83761,1,0
416,128,83888,1,0
480,128,84016,2,0,B|478:203,1,70
224,128,84781,6,0,B|288:128,1,52.5
288,192,85227,2,0,B|224:192,1,52.5
224,256,85674,2,0,B|288:256,1,52.5
256,192,86120,1,0
96,256,86566,1,0
160,256,86821,1,0
224,256,87012,2,0,B|269:256,1,35
288,256,87267,1,0
352,256,87395,1,0
416,256,87522,1,0
480,256,87650,2,0,B|478:175,1,70
224,128,88351,6,0,B|288:128,1,52.5
288,192,88797,2,0,B|224:192,1,52.5
224,256,89244,2,0,B|288:256,1,52.5
256,192,89690,1,0
96,128,90136,1,0
160,128,90391,1,0
224,128,90582,2,0,B|269:128,1,35
288,128,90837,1,0
352,128,90965,1,0
416,128,91092,1,0
480,128,91220,2,0,B|480:210,1,70
224,128,91921,6,0,B|288:128,1,52.5
288,192,92367,2,0,B|224:192,1,52.5
224,256,92814,2,0,B|288:256,1,52.5
256,192,93260,1,0
96,256,93706,1,0
160,256,93961,1,0
224,256,94152,2,0,B|269:256,1,35
288,256,94407,1,0
352,256,94535,1,0
416,256,94662,1,0
480,256,94853,2,0,B|480:170,1,70
256,192,95236,12,0,95491
256,192,110026,12,0,110982
256,192,111365,12,0,111938
256,192,112321,12,0,112767
256,192,113405,12,0,115445
256,192,115891,5,0
256,192,116337,1,0
256,192,116783,1,0
192,288,125198,5,0
192,256,125326,1,0
192,224,125453,1,0
192,192,125581,1,0
192,160,125708,1,0
192,128,125836,1,0
192,96,125963,1,0
256,192,126154,12,0,126345
256,192,126472,5,0
256,192,126600,12,0,126727
320,288,126920,5,0
320,256,127048,1,0
320,224,127175,1,0
320,192,127303,1,0
320,160,127430,1,0
320,128,127558,1,0
320,96,127685,1,0
256,192,127876,12,0,128067
256,192,128194,5,0
256,192,128322,12,0,128449
160,128,128641,5,0
192,128,128769,1,0
224,128,128896,1,0
256,128,129024,1,0
288,128,129151,1,0
320,128,129279,1,0
352,128,129406,1,0
256,192,129597,12,0,129788
256,192,129915,5,0
256,192,130043,12,0,130170
352,256,130426,5,0
320,256,130554,1,0
288,256,130681,1,0
256,256,130809,1,0
224,256,130936,1,0
192,256,131064,1,0
160,256,131191,1,0
256,192,131382,12,0,131573
256,192,131700,5,0
256,192,131828,12,0,131955
160,96,132210,5,0
192,128,132338,1,0
224,160,132465,1,0
256,192,132593,1,0
288,224,132720,1,0
320,256,132848,1,0
352,288,132975,1,0
256,192,133166,12,0,133357
256,192,133484,5,0
256,192,133612,12,0,133739
352,96,133995,5,0
320,128,134123,1,0
288,160,134250,1,0
256,192,134378,1,0
224,224,134505,1,0
192,256,134633,1,0
160,288,134760,1,0
256,192,134951,12,0,135142
256,192,135269,5,0
256,192,135397,12,0,135524
288,224,135781,5,0
288,192,135909,1,0
288,160,136036,1,0
224,160,136164,1,0
224,192,136291,1,0
224,224,136419,1,0
256,192,136546,1,0
256,192,136737,12,0,136928
256,192,137055,5,0
256,192,137183,12,0,137310
352,224,137566,5,0
320,256,137694,1,0
288,224,137821,1,0
256,256,137949,1,0
224,224,138076,1,0
192,256,138204,1,0
160,224,138331,1,0
128,256,138458,1,0
96,224,138586,1,0
128,192,138713,1,0
96,160,138841,1,0
128,128,138968,1,0
160,160,139096,1,0
192,128,139223,1,0
224,160,139351,1,0
256,128,139478,1,0
288,160,139606,1,0
320,128,139733,1,0
352,160,139861,1,0
320,192,139988,1,0
352,224,140116,1,0
256,192,140562,5,4
256,192,142793,12,0,143112
256,192,144578,12,0,144960
256,192,146363,12,0,146746
256,192,148658,12,0,149232
256,192,149487,12,0,149806
256,192,157137,12,0,158093
256,192,158476,12,0,159049
256,192,159432,12,0,159878
256,192,160516,12,0,162556
256,192,163002,5,0
256,192,163448,1,0
256,192,163894,1,0
224,128,171417,6,0,B|288:128,1,52.5
288,192,171863,2,0,B|224:192,1,52.5
224,256,172310,2,0,B|288:256,1,52.5
256,192,172756,1,0
96,128,173202,1,0
160,128,173457,1,0
224,128,173648,2,0,B|269:128,1,35
288,128,173903,1,0
352,128,174031,1,0
416,128,174158,1,0
480,128,174286,2,0,B|478:203,1,70
224,128,175051,6,0,B|288:128,1,52.5
288,192,175497,2,0,B|224:192,1,52.5
224,256,175944,2,0,B|288:256,1,52.5
256,192,176390,1,0
96,256,176836,1,0
160,256,177091,1,0
224,256,177282,2,0,B|269:256,1,35
288,256,177537,1,0
352,256,177665,1,0
416,256,177792,1,0
480,256,177920,2,0,B|478:175,1,70
224,128,178621,6,0,B|288:128,1,52.5
288,192,179067,2,0,B|224:192,1,52.5
224,256,179514,2,0,B|288:256,1,52.5
256,192,179960,1,0
96,128,180406,1,0
160,128,180661,1,0
224,128,180852,2,0,B|269:128,1,35
288,128,181107,1,0
352,128,181235,1,0
416,128,181362,1,0
480,128,181490,2,0,B|480:210,1,70
224,128,182191,6,0,B|288:128,1,52.5
288,192,182637,2,0,B|224:192,1,52.5
224,256,183084,2,0,B|288:256,1,52.5
256,192,183530,1,0
96,256,183976,1,0
160,256,184231,1,0
224,256,184422,2,0,B|269:256,1,35
288,256,184677,1,0
352,256,184805,1,0
416,256,184932,1,0
480,256,185123,2,0,B|480:170,1,70
256,192,231087,5,0
256,192,231470,1,0
256,192,231852,1,0
256,192,232362,12,0,232681
256,192,233191,12,0,233701
256,192,234466,12,0,236442
256,192,236825,5,0
256,192,237207,1,0
256,192,237590,1,0
96,128,238163,5,0
96,192,238610,1,0
64,256,239056,1,0
96,256,239247,1,0
128,256,239438,1,0
256,256,239885,5,0
256,192,240331,1,0
224,128,240777,1,0
256,128,240968,1,0
288,128,241160,1,0
416,128,241606,5,0
416,192,242052,1,0
384,256,242498,1,0
416,256,242690,1,0
448,256,242881,1,0
352,128,243391,5,0
160,288,243837,1,0
160,128,244283,1,0
352,288,244730,1,0
256,192,245176,1,0
96,256,245622,5,0
96,192,246069,1,0
64,128,246515,1,0
96,128,246706,1,0
128,128,246897,1,0
256,128,247343,5,0
256,192,247790,1,0
224,256,248236,1,0
256,256,248427,1,0
288,256,248619,1,0
416,256,249065,5,0
416,192,249511,1,0
384,128,249957,1,0
416,128,250149,1,0
448,128,250340,1,0
160,256,250786,5,0
320,128,251232,1,0
320,256,251678,1,0
160,128,252125,1,0
256,192,252571,1,0
256,352,253017,5,0
256,32,253463,1,0
32,192,253910,1,0
480,192,254356,1,0
32,352,254802,5,0
480,32,255248,1,0
32,32,255695,1,0
480,352,256141,1,0
32,192,256587,5,0
128,192,257033,1,0
448,192,257480,1,0
352,192,257926,1,0
256,256,258372,1,0
256,128,258818,1,0
256,192,259265,1,0
128,32,259902,2,0,B|96:64|96:64|64:64|32:96|32:128|32:160|64:192|96:192|128:192|160:160|160:128|160:96|128:64,1,350
224,128,261432,2,0,B|384:128|384:128|288:160|256:192|192:224|192:224|288:192|352:192|384:192|416:224|416:256|416:288|384:320|352:352|320:352|256:352|128:288|32:288|32:288|32:320,1,1032.5
256,192,266405,12,0,280238
