osu file format v8

[General]
AudioFilename: principe de la dulce pena iv.mp3
AudioLeadIn: 0
PreviewTime: 36497
Countdown: 0
SampleSet: Soft
StackLeniency: 0.7
Mode: 0
LetterboxInBreaks: 1
EpilepsyWarning: 1

[Editor]
DistanceSpacing: 1.6
BeatDivisor: 4
GridSize: 8

[Metadata]
Title:El Principe de la Dulce Pena (Parte IV)
Artist:Mago de Oz
Creator:ErufenRito
Version:Insane
Source:
Tags:Gaia III Atlantia Krisom Spanish

[Difficulty]
HPDrainRate:8
CircleSize:4
OverallDifficulty:8
ApproachRate:8
SliderMultiplier:2
SliderTickRate:2

[Events]
//Background and Video events
0,0,"Blood_on_the_Moon_by_mindlesspuppettoy.jpg"
//Break Periods
2,22137,32096
2,154863,160277
//Storyboard Layer 0 (Background)
//Storyboard Layer 1 (Fail)
//Storyboard Layer 2 (Pass)
//Storyboard Layer 3 (Foreground)
//Storyboard Sound Samples
//Background Colour Transformations
3,100,163,162,255

[TimingPoints]
7392,454.545454545455,4,1,0,70,1,0
32732,-100,4,2,1,71,0,0
35232,-100,4,1,0,71,0,0
49096,-100,4,1,1,71,0,0
49323,-100,4,1,0,71,0,0
50005,-100,4,1,0,41,0,0
51027,-100,4,1,0,71,0,0
65630,-100,4,2,0,71,0,0
65743,-100,4,1,0,71,0,0
65857,-100,4,2,0,71,0,0
65971,-100,4,1,0,71,0,0
95118,-100,4,2,1,71,0,0
108868,-100,4,1,0,71,0,0
122732,-100,4,1,1,71,0,0
122959,-100,4,1,0,71,0,0
123641,-100,4,1,0,40,0,0
124664,-100,4,1,0,70,0,0
139266,-100,4,2,0,70,0,0
139380,-100,4,1,0,70,0,0
139493,-100,4,2,0,70,0,0
139607,-100,4,1,0,70,0,0
176709,-200,4,2,1,70,0,0
177392,-200,4,2,1,70,0,0
191709,-100,4,1,0,70,0,0
191936,-100,4,1,0,70,0,1
217391,-100,4,1,0,70,0,0
224437,-100,4,1,0,70,0,1
224664,-100,4,1,0,70,0,0

[Colours]
Combo1 : 192,192,192
Combo2 : 255,0,0

[HitObjects]
486,312,7164,2,0,B|416:233|284:180,1,200,0|8
320,297,7846,1,0
223,321,8073,1,8
165,238,8301,2,0,B|223:110|317:54,1,200,0|8
47,82,8982,6,0,B|132:17|247:16,1,200,0|8
332,26,9664,1,0
341,125,9892,1,8
439,110,10119,2,0,B|477:208|470:315,1,200,0|8
186,310,10801,6,0,B|292:326|397:287,1,200,0|8
313,220,11482,1,0
230,163,11710,1,8
168,83,11937,2,0,B|272:55|392:90,1,200,0|8
502,290,12619,6,0,B|454:198|354:156,1,200,0|8
380,255,13301,1,0
290,299,13528,1,8
215,233,13755,2,0,B|235:93|310:14,1,200,0|8
200,305,14437,6,0,B|94:321|-11:282,1,200,2|0
109,212,15119,1,2
214,135,15346,1,0
126,39,15573,2,0,B|23:10,2,100,2|0|2
449,34,16255,6,0,B|353:58|268:165,1,200,2|0
403,199,16937,2,0,B|473:293,1,100,2|0
332,271,17392,2,0,B|198:278|153:140,1,200,2|0
0,349,18073,6,0,B|116:376|208:305,1,200,2|0
314,360,18755,1,2
441,332,18982,1,0
490,212,19210,2,0,B|407:115,2,100,2|0|2
175,78,19892,6,0,B|234:182|357:156,1,200,2|2
428,60,20573,1,0
343,158,20801,2,0,B|319:282|216:318,1,200,2|2
140,218,21482,1,2
140,218,21937,5,4
167,234,32846,6,0,B|354:153,1,200,8|2
226,118,33528,2,0,B|13:95,1,200,8|0
99,204,34210,2,0,B|65:325,1,100,8|0
201,288,34664,2,0,B|414:265,1,200,8|0
471,157,35346,5,2
438,119,35460,1,0
394,93,35573,1,0
344,86,35687,1,0
293,87,35801,1,2
244,101,35914,1,0
199,123,36028,1,0
162,157,36141,1,0
138,201,36255,1,0
126,250,36369,1,0
129,299,36482,2,0,B|340:337,1,200,2|8
443,277,37164,6,0,B|536:181,1,100,0|8
382,199,37619,2,0,B|415:93,1,100,0|8
118,160,38073,2,0,B|162:60|269:18,1,200,2|8
314,140,38755,1,0
210,217,38982,2,0,B|310:243|334:368,1,200,2|8
202,368,39664,1,0
97,289,39891,2,0,B|217:1,1,300,2|8
104,85,40801,6,0,B|48:132|-16:126,1,100,0|8
12,256,41255,2,0,B|39:363,1,100,0|8
270,210,41710,2,0,B|355:222|454:316,1,200,2|8
443,174,42391,1,0
335,101,42619,2,0,B|228:86|123:140,1,200,2|8
31,58,43301,1,0
24,187,43528,2,0,B|176:225|271:367,1,300,2|8
337,248,44437,6,0,B|449:293,1,100,0|8
364,172,44891,2,0,B|476:217,1,100,0|8
230,118,45346,2,0,B|25:36,1,200,2|8
15,170,46028,1,0
141,198,46255,2,0,B|379:171,1,200,2|8
247,267,46937,1,0
135,333,47164,2,0,B|473:371,1,300,2|8
341,274,48073,6,0,B|388:227|445:229,1,100,0|8
490,114,48528,2,0,B|430:97|398:37,1,100,0|8
171,157,48982,2,0,B|265:126|390:149,1,200,2|0
394,344,49664,5,0
300,20,49891,1,0
60,258,50119,1,0
40,357,51482,6,0,B|146:355|254:317,1,200,0|4
381,256,52164,2,0,B|518:299,1,100,0|8
359,175,52618,2,0,B|496:218,1,100,8|4
336,95,53073,2,0,B|473:138,2,100,0|8|0
119,124,53755,6,0,B|116:234|15:329,1,200,4|8
194,257,54436,1,8
76,372,54664,2,0,B|311:339,2,200,4|8|4
0,241,55800,1,0
145,178,56027,1,8
104,22,56255,1,0
260,52,56482,2,0,B|344:128|393:215,2,200,4|8|4
119,127,57618,5,0
60,275,57846,1,8
215,234,58073,1,0
343,328,58300,1,4
418,186,58527,1,0
230,319,58755,6,0,B|175:298|99:308,2,100,8|0|4
308,179,59436,2,0,B|171:136,1,100,0|8
359,212,59891,2,0,B|402:75,2,100,8|4|0
381,53,60573,2,0,B|518:96,1,100,8|0
319,248,61027,6,0,B|253:335|115:326,1,200,4|8
186,172,61709,1,0
48,96,61936,2,8,B|114:9|252:18,2,200,4|8|4
78,253,63073,1,0
235,228,63300,1,8
351,336,63527,1,8
352,176,63755,2,0,B|428:92|515:43,2,200,4|8|4
280,319,64891,5,0
283,159,65118,1,8
437,200,65346,1,0
79,326,65573,5,4
129,331,65686,1,0
179,337,65800,1,0
230,341,65914,1,0
280,344,66027,2,2,B|339:359|407:341,1,100
306,194,66482,2,0,B|324:90|409:17,2,200,4|8|4
307,194,67618,1,0
332,70,68073,6,0,B|227:46,1,100,0|4
116,156,68527,2,0,B|9:173,2,100,0|8|8
254,235,69209,1,4
134,341,69436,2,0,B|21:321,2,100,0|8|0
466,178,70118,6,0,B|255:226,2,200,4|8|4
385,316,71255,2,0,B|270:293,1,100,0|8
213,155,71709,2,4,B|268:65|362:160|397:46,2,200
37,247,73073,5,0
37,247,73300,2,4,B|65:168|161:90,1,200,4|12
305,159,73982,2,2,B|407:173|512:132,1,200
501,135,74664,1,0
174,237,75118,5,8
361,306,75573,1,4
361,306,76027,1,8
256,80,76482,1,4
256,80,76709,1,0
256,80,77391,6,0,B|152:144,1,100,4|0
299,154,77846,2,8,B|195:218,1,100
271,323,78300,2,0,B|336:229|454:214,1,200,4|8
499,104,78982,6,0,B|414:39|299:38,1,200
203,108,79664,1,8
242,231,79891,1,8
113,216,80118,5,4
158,194,80232,1,0
204,176,80346,1,0
300,150,80573,1,8
399,150,80800,1,0
448,155,80914,1,0
496,167,81027,1,4
461,292,81255,5,0
337,250,81482,1,8
257,352,81709,1,8
147,282,81937,1,4
21,315,82164,1,0
36,185,82391,1,8
89,66,82618,1,0
176,161,82846,5,4
254,57,83073,1,0
343,151,83300,1,8
261,252,83527,1,8
373,316,83755,1,4
482,246,83982,1,0
464,116,84209,1,8
349,54,84437,1,0
254,143,84664,5,4
179,249,84891,1,0
124,131,85118,1,8
179,13,85346,1,8
50,28,85573,1,4
10,152,85800,1,0
100,244,86027,1,8
39,358,86255,1,0
87,344,86368,1,0
137,343,86482,6,0,C|237:366|362:340,1,200,4|8
447,286,87164,1,0
417,245,87277,1,0
387,205,87391,1,4
358,163,87505,1,0
326,124,87618,1,0
219,197,87846,1,8
171,76,88073,1,0
121,82,88187,1,0
71,89,88300,2,8,C|22:29,2,50,8|0|0
29,212,88755,5,8
120,304,88982,1,0
249,300,89209,2,0,C|282:364,2,50,4|0|0
364,239,89664,1,8
423,124,89891,1,0
304,68,90118,6,0,C|336:-9,2,50,4|0|0
176,91,90573,1,8
209,217,90800,1,0
79,211,91027,2,0,C|18:182,2,50,4|0|0
108,338,91482,2,0,C|42:327,2,50,8|0|0
228,288,91937,6,0,C|293:271,2,50,4|0|0
305,184,92391,1,8
225,80,92618,1,0
107,24,92846,2,0,C|34:30,2,50,4|0|0
63,146,93300,2,0,C|24:182,2,50,8|0|0
108,268,93755,5,8
148,296,93868,1,0
198,297,93982,2,0,C|288:337|404:334,1,200
418,291,94550,2,0,C|407:225,1,50,0|4
409,242,95573,5,8
409,242,96255,1,0
378,115,96482,2,0,B|244:164,1,100,8|0
181,68,96937,2,0,B|131:189,1,100,8|0
221,263,97391,2,0,B|198:362|48:353,1,200,8|8
109,231,98073,2,0,B|73:134|-12:55,1,200,2|8
129,61,98755,6,0,B|249:37,1,100,8|0
180,162,99209,2,0,B|502:203,1,300,8|2
377,283,100118,1,8
258,338,100346,2,0,B|207:369|144:351,2,100,0|8|0
205,219,101027,2,0,B|262:126|376:129,1,200,8|8
265,54,101709,2,0,B|39:99,1,200,2|8
131,207,102391,5,8
56,313,102618,1,0
185,327,102846,2,0,B|288:320|383:368,1,200,8|8
350,239,103527,1,0
279,129,103755,2,0,B|400:95,1,100,8|0
263,35,104209,2,0,B|145:18,1,100,8|0
167,151,104664,2,0,B|131:259|37:296,1,200,8|8
167,316,105346,2,0,B|271:193|455:219,1,300,2|8
327,144,106255,1,0
454,117,106482,6,0,B|348:92|285:4,1,200,8|8
245,133,107164,2,0,B|155:68|35:66,1,200,2|0
109,187,107846,2,0,B|70:309,1,100,8|0
207,270,108300,2,0,B|317:295|394:204,1,200,8|8
171,89,108982,5,2
213,61,109096,1,0
260,42,109209,1,0
311,41,109323,1,0
361,49,109437,1,2
405,73,109550,1,0
442,107,109664,1,0
469,149,109777,1,0
475,199,109891,1,0
470,248,110005,1,0
451,293,110118,6,0,B|532:394,1,100,10|0
387,342,110573,2,0,B|306:241,1,100,8|0
197,243,111027,2,0,B|278:344,1,100,8|0
130,313,111482,1,2
83,327,111596,1,0
36,340,111709,1,0
94,223,111937,1,2
47,237,112050,1,0
0,250,112164,1,0
42,126,112391,1,8
131,30,112618,6,0,B|165:126|283:155,1,200,2|0
392,91,113300,1,2
424,130,113414,1,0
459,165,113527,1,0
358,246,113755,1,2
390,285,113868,1,0
425,320,113982,1,0
296,330,114209,6,0,B|172:357,1,100,8|0
96,270,114664,2,0,B|220:243,1,100,8|0
274,146,115118,1,2
293,99,115232,1,0
312,52,115346,1,0
190,93,115573,1,2
171,140,115687,1,0
152,187,115800,1,0
264,253,116027,1,8
377,186,116255,6,0,B|414:288|527:339,1,200,2|0
381,353,116937,1,8
321,238,117164,2,0,B|221:369|50:358,1,300,2|8
148,262,118073,6,8,B|45:204,1,100,0|0
41,80,118527,2,0,B|144:138,1,100,0|8
284,216,118982,2,0,B|181:158,1,100,0|0
330,149,119437,2,0,B|433:207,1,100,0|8
168,59,119891,2,0,B|271:117,1,100,0|0
383,94,120346,2,0,B|280:36,1,100,0|8
383,290,120800,2,0,B|280:348,1,100
76,338,121255,2,0,B|179:280,1,100,0|8
252,100,121709,6,0,B|384:81,1,100
432,187,122164,2,0,B|415:247|355:279,1,100,0|8
115,262,122618,2,0,B|201:200|307:187,1,200,2|0
72,106,123300,5,0
309,350,123527,1,0
419,30,123755,1,0
404,182,125118,6,0,B|298:184|190:222,1,200,0|4
347,296,125800,2,0,B|443:354,2,100,0|8|8
237,179,126482,1,4
98,257,126709,2,0,B|-3:302,2,100,0|8|0
408,288,127391,6,0,B|321:354|204:355,1,200,4|8
297,211,128073,1,8
152,148,128300,2,0,B|239:82|356:81,2,200,4|8|4
24,52,129436,5,0
183,42,129663,1,8
272,176,129891,1,0
208,323,130118,2,0,B|136:332|98:247|9:273,2,200,4|8|4
141,178,131254,5,0
247,59,131482,1,8
312,205,131709,1,0
470,233,131936,1,4
409,84,132163,1,0
200,321,132391,5,8
55,253,132618,2,0,B|101:213|98:139,2,100,0|4|0
206,204,133300,2,0,B|172:167|163:67,2,100,8|8|4
97,85,133982,2,0,B|52:132|-40:128,2,100,0|8|0
89,245,134663,6,0,B|264:369,1,200,4|8
293,206,135345,1,0
444,154,135572,2,0,B|342:82,3,100,4|0|8|0
218,25,136482,5,4
108,142,136709,1,0
260,192,136936,1,8
140,298,137163,1,8
296,335,137391,2,0,B|366:368|430:314|500:375,2,200,4|8|4
399,215,138527,5,0
391,56,138754,1,8
231,63,138982,1,0
72,342,139209,5,4
121,334,139322,1,0
169,351,139436,1,0
219,345,139550,1,0
269,350,139663,2,2,B|284:291|266:223,1,100
175,124,140118,6,0,B|99:198|86:309,2,200,4|8|4
310,38,141254,1,0
310,38,141482,1,8
407,165,141709,6,0,B|444:269,2,100,0|4|0
255,216,142391,2,0,B|243:322,2,100,8|8|4
107,154,143072,2,0,B|98:274,2,100,0|8|0
438,64,143754,6,0,B|324:51|227:112,2,200,4|8|4
368,209,144891,2,0,B|395:316,1,100,0|8
251,231,145345,2,4,B|102:236|67:122,2,200
279,348,146709,5,0
279,348,146936,2,0,B|307:269|403:191,1,200,4|12
244,229,147618,2,2,B|142:243|37:202,1,200,2|2
107,355,148300,1,0
133,123,148754,5,8
427,248,149209,1,4
109,279,149663,1,8
339,88,150118,1,4
339,88,150345,1,0
344,345,151027,6,0,B|291:352|229:297,1,100,4|0
167,178,151482,1,8
322,139,151709,1,8
396,280,151936,2,0,B|490:215|505:97,1,200,4|8
352,57,152618,6,0,B|247:78|143:28,1,200
219,182,153300,1,8
82,265,153527,1,8
235,310,153754,5,4
283,322,153868,1,0
331,335,153982,1,0
315,206,154209,1,8
301,76,154436,1,0
349,88,154550,1,0
397,101,154663,1,4
188,69,161027,5,0
193,118,161141,1,0
210,164,161254,1,0
236,206,161368,1,0
269,243,161482,1,0
312,267,161595,1,0
357,286,161709,1,0
406,294,161822,1,0
455,299,161936,1,2
494,42,162391,6,0,B|369:56,1,100
351,27,162732,1,0
349,77,162845,2,0,B|362:144|289:168,2,100,2|0|2
220,55,163527,1,0
212,185,163754,6,0,B|101:173,1,100,2|2
62,168,164095,1,0
54,217,164209,1,2
44,266,164322,1,0
36,315,164436,1,2
213,288,164663,1,0
381,350,164891,1,2
57,65,165232,5,0
97,94,165345,2,0,B|217:66,1,100,2|2
209,119,165686,1,0
257,108,165800,1,2
306,98,165913,1,0
354,86,166027,1,2
286,338,166482,6,0,B|318:237,1,100,2|2
333,195,166822,1,0
383,191,166936,1,0
433,188,167050,1,0
432,138,167163,1,2
455,93,167277,1,0
499,69,167391,1,0
472,27,167504,1,0
422,16,167618,1,2
372,22,167732,1,0
330,49,167845,1,0
297,87,167959,1,0
255,59,168072,1,2
213,31,168186,1,0
179,68,168300,2,2,B|142:105,2,50,0|2|2
367,336,169209,6,0,B|509:319,1,100,0|2
174,174,169663,2,0,B|316:157,1,100,0|2
404,43,170118,2,0,B|546:26,1,100,0|2
227,243,170572,2,0,B|85:260,1,100,0|2
77,259,170913,1,0
27,266,171027,1,2
342,150,171254,5,2
293,155,171368,1,0
243,159,171482,1,2
194,165,171595,1,0
144,170,171709,1,2
94,177,171822,1,0
44,181,171936,1,2
405,301,172845,5,0
363,328,172959,1,0
315,343,173072,1,0
265,343,173186,1,0
218,323,173300,1,0
191,280,173413,1,0
143,295,173527,1,0
94,306,173641,1,0
46,319,173754,1,0
27,272,173868,1,0
32,222,173982,1,0
54,177,174095,1,0
100,157,174209,5,0
149,161,174322,1,0
184,195,174436,1,0
226,168,174550,1,0
246,122,174663,1,0
239,72,174777,1,0
288,65,174891,1,0
337,58,175004,1,0
386,50,175118,1,0
435,43,175232,1,0
432,92,175345,1,0
430,142,175459,1,0
426,191,175572,5,2
69,354,176936,6,0,B|93:234,1,100,0|2
206,147,177846,2,0,B|191:27,1,100,0|2
343,105,178755,2,0,B|336:226,1,100,0|2
458,309,179664,2,0,B|475:190,1,100,0|2
86,139,180573,6,0,B|46:46,1,100,0|2
421,39,181482,2,0,B|328:79,1,100,0|2
91,345,182391,2,0,B|184:305,1,100,0|2
427,152,183301,2,0,B|467:245,1,100,0|2
348,249,184210,6,0,B|228:273,1,100,0|2
317,61,185119,2,0,B|341:181,1,100,0|2
127,98,186028,2,0,B|247:74,1,100,0|2
164,291,186937,2,0,B|140:171,1,100,0|2
290,317,187846,5,0
149,95,188301,1,2
79,340,188755,1,0
347,66,189210,1,2
462,329,189664,1,0
117,128,190119,1,2
117,128,190232,1,0
117,128,190346,1,0
117,128,190460,1,0
117,128,190573,1,2
117,128,190687,1,0
117,128,190801,1,0
117,128,190914,1,0
117,128,191028,1,2
95,236,191482,5,8
179,306,191937,2,0,C|72:339,1,100,8|0
281,249,192391,2,0,C|185:217,1,100,0|0
364,342,192846,2,0,C|232:331,1,100,8|0
458,244,193301,2,0,C|335:272,1,100
270,87,193755,6,0,L|43:118,1,200,8|0
253,198,194437,1,8
411,321,194664,2,0,L|184:290,1,200,0|8
212,293,195573,5,2
385,194,195801,1,0
190,148,196028,1,2
339,15,196255,1,0
150,82,196482,2,0,B|80:40|-14:55,1,150,2|0
47,143,196937,6,0,B|88:232|55:357,1,200,2|0
203,199,197619,1,2
321,38,197846,1,0
477,163,198073,1,2
407,350,198301,2,0,B|320:373|238:323,1,150,4|0
347,284,198755,6,0,B|258:243|133:276,1,200,8|8
101,279,199323,1,0
62,247,199437,1,0
42,200,199551,1,0
56,152,199664,1,8
96,122,199778,1,0
145,124,199891,1,0
165,78,200005,1,0
187,33,200119,1,8
235,42,200232,1,0
276,69,200346,1,0
294,115,200460,1,0
302,164,200573,1,12
149,359,201028,6,0,B|264:333|299:207,1,200,0|8
96,182,201710,1,0
245,49,201937,2,0,L|108:26,2,100,8|0|8
245,49,202619,1,0
245,49,202846,5,2
427,131,203073,1,0
366,321,203301,1,2
213,191,203528,1,0
28,268,203755,2,0,B|70:198|54:73,1,150,2|0
156,98,204210,6,0,B|245:139|370:106,1,200,2|0
434,293,204891,1,2
237,255,205119,1,0
58,345,205346,1,2
50,144,205573,5,0
88,111,205687,1,0
132,87,205801,1,0
178,65,205914,1,0
227,52,206028,2,2,B|267:84|325:80,1,100
471,212,206482,6,0,B|394:160|292:173,1,150,2|0
275,255,206937,2,0,B|164:257|92:161,1,200,2|2
28,359,207619,1,2
28,359,207846,1,8
226,331,208073,6,0,B|342:376,1,100,0|8
224,192,208528,2,0,B|334:174,1,100,0|8
200,24,208982,2,0,B|320:16,1,100,0|8
200,192,209437,2,0,B|96:184,2,100,0|8|0
360,312,210119,6,0,B|185:328,1,150,2|0
256,236,210573,2,0,B|377:234|445:160,1,200,2|0
280,42,211255,2,0,L|322:144,1,100,2|8
121,96,211710,2,0,L|194:278|326:317,1,300,2|8
227,118,212619,2,0,L|260:205|374:242,1,200,2|0
285,52,213301,6,0,B|377:72|498:-8,1,200,8|0
339,153,213982,2,0,B|359:245|279:366,1,200,2|2
117,247,214664,1,0
154,45,215119,5,8
450,281,215573,1,0
16,362,216028,1,8
492,25,216482,1,0
492,25,216710,1,0
256,192,217391,5,4
256,192,218301,1,4
256,192,218414,12,4,220119
256,192,220573,5,0
257,192,221028,1,4
256,192,221142,12,4,222846
256,192,222960,12,0,223755
256,192,223982,5,0
256,192,224210,1,0
256,192,224437,1,4
