osu file format v14

[General]
AudioFilename: soy negro.mp3
AudioLeadIn: 0
PreviewTime: 48600
Countdown: 0
SampleSet: Normal
StackLeniency: 0.7
Mode: 1
LetterboxInBreaks: 0
WidescreenStoryboard: 0

[Editor]
Bookmarks: 40875
DistanceSpacing: 0.5
BeatDivisor: 4
GridSize: 16
TimelineZoom: 1.2

[Metadata]
Title:El Mercado de las Brujas
TitleUnicode:El Mercado de las Brujas
Artist:Mago de Oz
ArtistUnicode:Mägo de Oz
Creator:zigizigiefe
Version:Muzukashii
Source:
Tags:Hechizos Pócimas y Brujería Javier Domínguez Gregorio Zeta Carlos Prieto Mohamed Txus di Fellatio Jose Manuel Josema Pizarro Spanish Español Folk Metal
BeatmapID:1916027
BeatmapSetID:917488

[Difficulty]
HPDrainRate:7
CircleSize:5
OverallDifficulty:5
ApproachRate:5
SliderMultiplier:1.4
SliderTickRate:1

[Events]
//Background and Video events
0,0,"688469-free-download-sad-wallpapers-2048x1366.jpg",0,0
//Break Periods
//Storyboard Layer 0 (Background)
//Storyboard Layer 1 (Fail)
//Storyboard Layer 2 (Pass)
//Storyboard Layer 3 (Foreground)
//Storyboard Sound Samples

[TimingPoints]
381,303.030303030303,4,1,0,100,1,0
48714,-100,4,1,0,100,0,1
68108,-100,4,1,0,100,0,0

[HitObjects]
181,102,229,5,4,0:0:0:0:
195,73,532,1,0,0:0:0:0:
196,78,684,1,8,0:0:0:0:
161,82,987,1,8,0:0:0:0:
165,76,1138,1,8,0:0:0:0:
165,77,1290,1,0,0:0:0:0:
196,78,1593,1,8,0:0:0:0:
161,82,1896,1,8,0:0:0:0:
165,76,2047,1,8,0:0:0:0:
165,77,2199,1,0,0:0:0:0:
200,113,2502,1,8,0:0:0:0:
225,113,2653,1,4,0:0:0:0:
195,73,2956,1,0,0:0:0:0:
196,78,3108,1,8,0:0:0:0:
161,82,3411,1,8,0:0:0:0:
165,76,3562,1,8,0:0:0:0:
165,77,3714,1,0,0:0:0:0:
168,75,4017,1,0,0:0:0:0:
161,82,4320,1,8,0:0:0:0:
165,76,4471,1,8,0:0:0:0:
168,75,4623,1,8,0:0:0:0:
197,106,4774,1,4,0:0:0:0:
222,80,4926,1,8,0:0:0:0:
225,113,5077,1,4,0:0:0:0:
196,78,5533,1,8,0:0:0:0:
161,82,5836,1,8,0:0:0:0:
165,76,5987,1,8,0:0:0:0:
165,77,6139,1,0,0:0:0:0:
196,78,6442,1,8,0:0:0:0:
161,82,6745,1,8,0:0:0:0:
165,76,6896,1,8,0:0:0:0:
165,77,7048,1,0,0:0:0:0:
200,113,7351,1,8,0:0:0:0:
225,113,7502,1,4,0:0:0:0:
195,73,7805,1,0,0:0:0:0:
196,78,7957,1,8,0:0:0:0:
161,82,8260,1,8,0:0:0:0:
165,76,8411,1,8,0:0:0:0:
165,77,8563,1,0,0:0:0:0:
196,78,8866,1,8,0:0:0:0:
196,78,9017,1,0,0:0:0:0:
161,82,9169,1,8,0:0:0:0:
165,76,9320,1,0,0:0:0:0:
165,77,9472,1,12,0:0:0:0:
177,102,9774,1,0,0:0:0:0:
177,102,9926,1,4,0:0:0:0:
196,78,10381,1,8,0:0:0:0:
161,82,10684,1,0,0:0:0:0:
165,76,10835,1,8,0:0:0:0:
165,77,10987,1,8,0:0:0:0:
196,78,11290,1,8,0:0:0:0:
196,78,11441,1,0,0:0:0:0:
161,82,11593,1,8,0:0:0:0:
165,77,11896,1,8,0:0:0:0:
168,75,12047,1,8,0:0:0:0:
200,113,12199,1,0,0:0:0:0:
225,113,12350,1,4,0:0:0:0:
195,73,12653,1,0,0:0:0:0:
196,78,12805,1,8,0:0:0:0:
196,78,13108,1,0,0:0:0:0:
165,76,13259,1,8,0:0:0:0:
165,77,13411,1,0,0:0:0:0:
196,78,13714,1,8,0:0:0:0:
196,78,13865,1,0,0:0:0:0:
161,82,14017,1,8,0:0:0:0:
165,76,14168,1,8,0:0:0:0:
168,75,14320,1,0,0:0:0:0:
222,80,14623,1,8,0:0:0:0:
225,113,14774,1,0,0:0:0:0:
196,78,15229,1,12,0:0:0:0:
161,82,15532,1,0,0:0:0:0:
165,76,15683,1,8,0:0:0:0:
165,77,15835,1,8,0:0:0:0:
154,124,16138,1,8,0:0:0:0:
196,78,16289,1,0,0:0:0:0:
161,82,16441,1,8,0:0:0:0:
165,77,16744,1,8,0:0:0:0:
168,75,16895,1,8,0:0:0:0:
200,113,17047,1,0,0:0:0:0:
225,113,17198,1,0,0:0:0:0:
195,73,17502,1,0,0:0:0:0:
196,78,17654,1,12,0:0:0:0:
196,78,17957,1,0,0:0:0:0:
165,76,18108,1,8,0:0:0:0:
165,77,18260,1,0,0:0:0:0:
196,78,18563,1,8,0:0:0:0:
161,82,18866,1,0,0:0:0:0:
165,76,19017,1,0,0:0:0:0:
168,75,19169,1,8,0:0:0:0:
177,94,19320,1,8,0:0:0:0:
222,80,19472,1,8,0:0:0:0:
225,113,19623,1,4,0:0:0:0:
192,112,20077,1,8,0:0:0:0:
192,112,20381,1,0,0:0:0:0:
192,112,20532,1,0,0:0:0:0:
192,96,20684,1,8,0:0:0:0:
192,96,20987,1,0,0:0:0:0:
192,112,21290,1,8,0:0:0:0:
192,112,21593,1,0,0:0:0:0:
192,112,21745,1,0,0:0:0:0:
192,96,21897,1,8,0:0:0:0:
192,96,22048,1,8,0:0:0:0:
192,96,22200,1,0,0:0:0:0:
160,32,22502,1,8,0:0:0:0:
160,32,22653,1,0,0:0:0:0:
160,48,22805,1,0,0:0:0:0:
224,32,22956,1,0,0:0:0:0:
208,16,23108,1,8,0:0:0:0:
208,32,23411,1,0,0:0:0:0:
160,32,23714,1,8,0:0:0:0:
160,48,24017,1,0,0:0:0:0:
224,32,24168,1,0,0:0:0:0:
208,16,24320,1,8,0:0:0:0:
208,32,24471,1,8,0:0:0:0:
192,112,24926,1,12,0:0:0:0:
192,112,25230,1,0,0:0:0:0:
192,112,25381,1,0,0:0:0:0:
192,96,25533,1,8,0:0:0:0:
192,96,25836,1,0,0:0:0:0:
192,112,26138,1,8,0:0:0:0:
192,112,26442,1,0,0:0:0:0:
192,112,26593,1,0,0:0:0:0:
192,96,26745,1,8,0:0:0:0:
192,96,26896,1,8,0:0:0:0:
192,96,27048,1,0,0:0:0:0:
160,64,27350,1,8,0:0:0:0:
160,64,27502,1,0,0:0:0:0:
160,80,27653,1,0,0:0:0:0:
160,80,27805,1,0,0:0:0:0:
160,80,27956,1,8,0:0:0:0:
192,64,28259,1,12,0:0:0:0:
208,80,28562,1,0,0:0:0:0:
208,80,28714,1,8,0:0:0:0:
208,80,29017,1,0,0:0:0:0:
208,80,29168,1,8,0:0:0:0:
208,80,29320,1,12,0:0:0:0:
192,112,29774,1,8,0:0:0:0:
192,112,30078,1,0,0:0:0:0:
192,112,30229,1,0,0:0:0:0:
192,96,30381,1,8,0:0:0:0:
192,96,30684,1,8,0:0:0:0:
176,80,30835,1,0,0:0:0:0:
192,112,30987,1,8,0:0:0:0:
192,64,31138,1,0,0:0:0:0:
192,112,31290,1,8,0:0:0:0:
192,96,31594,1,0,0:0:0:0:
192,96,31745,1,8,0:0:0:0:
192,96,32047,1,0,0:0:0:0:
160,32,32199,1,8,0:0:0:0:
160,32,32350,1,8,0:0:0:0:
160,48,32502,1,0,0:0:0:0:
208,16,32805,1,8,0:0:0:0:
208,32,33108,1,0,0:0:0:0:
160,32,33411,1,8,0:0:0:0:
185,58,33562,1,0,0:0:0:0:
160,48,33714,1,0,0:0:0:0:
224,32,33865,1,8,0:0:0:0:
208,16,34017,1,8,0:0:0:0:
208,32,34168,1,12,0:0:0:0:
192,112,34623,1,8,0:0:0:0:
192,112,34927,1,0,0:0:0:0:
192,112,35078,1,0,0:0:0:0:
192,96,35230,1,8,0:0:0:0:
192,96,35533,1,0,0:0:0:0:
192,112,35835,1,8,0:0:0:0:
208,80,35987,1,0,0:0:0:0:
192,112,36139,1,0,0:0:0:0:
192,112,36290,1,0,0:0:0:0:
192,96,36442,1,8,0:0:0:0:
192,96,36593,1,8,0:0:0:0:
192,96,36896,1,0,0:0:0:0:
160,64,37047,1,8,0:0:0:0:
160,80,37350,1,0,0:0:0:0:
160,80,37502,1,0,0:0:0:0:
160,80,37653,1,8,0:0:0:0:
192,64,37956,1,12,0:0:0:0:
192,64,38108,1,8,0:0:0:0:
208,80,38259,1,8,0:0:0:0:
208,80,38411,1,8,0:0:0:0:
208,80,38562,1,0,0:0:0:0:
208,80,38865,1,8,0:0:0:0:
208,80,39017,1,4,0:0:0:0:
184,130,39471,1,12,0:0:0:0:
184,130,39775,1,0,0:0:0:0:
184,130,39926,1,0,0:0:0:0:
184,114,40078,1,8,0:0:0:0:
184,114,40381,1,8,0:0:0:0:
168,98,40532,1,0,0:0:0:0:
184,130,40684,1,8,0:0:0:0:
184,82,40835,1,0,0:0:0:0:
184,130,40987,1,0,0:0:0:0:
184,114,41291,1,8,0:0:0:0:
184,130,41442,1,4,0:0:0:0:
200,162,41744,1,0,0:0:0:0:
152,50,41896,1,8,0:0:0:0:
152,66,42199,1,0,0:0:0:0:
216,50,42350,1,0,0:0:0:0:
200,34,42502,1,8,0:0:0:0:
200,50,42653,1,8,0:0:0:0:
200,50,42805,1,0,0:0:0:0:
152,50,43108,1,8,0:0:0:0:
152,66,43411,1,0,0:0:0:0:
216,50,43562,1,8,0:0:0:0:
200,34,43714,1,8,0:0:0:0:
200,50,43865,1,4,0:0:0:0:
184,130,44320,1,8,0:0:0:0:
184,130,44624,1,0,0:0:0:0:
184,130,44775,1,0,0:0:0:0:
184,114,44927,1,8,0:0:0:0:
184,114,45078,1,8,0:0:0:0:
206,131,45381,1,0,0:0:0:0:
184,130,45532,1,8,0:0:0:0:
184,130,45836,1,0,0:0:0:0:
184,130,45987,1,0,0:0:0:0:
184,114,46139,1,8,0:0:0:0:
184,114,46290,1,8,0:0:0:0:
184,114,46442,1,4,0:0:0:0:
152,82,46744,1,0,0:0:0:0:
152,82,46896,1,8,0:0:0:0:
152,98,47199,1,0,0:0:0:0:
152,98,47350,1,8,0:0:0:0:
184,82,47653,1,8,0:0:0:0:
184,82,47805,1,12,0:0:0:0:
200,98,48108,1,12,0:0:0:0:
200,98,48411,1,12,0:0:0:0:
200,98,48714,1,4,0:0:0:0:
207,80,49168,1,12,0:0:0:0:
204,44,49471,1,0,0:0:0:0:
200,91,49623,1,0,0:0:0:0:
200,91,49774,1,8,0:0:0:0:
200,84,50077,1,0,0:0:0:0:
207,86,50380,1,8,0:0:0:0:
207,86,50532,1,8,0:0:0:0:
207,86,50684,1,0,0:0:0:0:
206,86,50835,1,0,0:0:0:0:
209,82,50987,1,8,0:0:0:0:
207,81,51138,1,0,0:0:0:0:
214,81,51441,1,0,0:0:0:0:
206,37,51593,1,8,0:0:0:0:
163,29,51896,1,0,0:0:0:0:
163,29,52047,1,0,0:0:0:0:
163,20,52199,1,8,0:0:0:0:
228,67,52502,1,0,0:0:0:0:
200,47,52653,1,0,0:0:0:0:
207,80,52805,1,8,0:0:0:0:
200,47,52957,1,0,0:0:0:0:
204,44,53108,1,8,0:0:0:0:
200,91,53411,1,8,0:0:0:0:
225,38,53562,1,8,0:0:0:0:
207,86,54017,1,12,0:0:0:0:
207,86,54321,1,8,0:0:0:0:
206,86,54472,1,0,0:0:0:0:
209,82,54624,1,8,0:0:0:0:
195,52,54926,1,0,0:0:0:0:
206,37,55230,1,8,0:0:0:0:
225,29,55381,1,0,0:0:0:0:
163,29,55533,1,0,0:0:0:0:
163,29,55684,1,0,0:0:0:0:
163,20,55836,1,8,0:0:0:0:
183,67,55987,1,0,0:0:0:0:
188,53,56290,1,0,0:0:0:0:
188,53,56441,1,12,0:0:0:0:
182,60,56744,1,0,0:0:0:0:
186,62,56896,1,0,0:0:0:0:
201,83,57047,1,8,0:0:0:0:
192,97,57350,1,8,0:0:0:0:
192,57,57653,1,0,0:0:0:0:
192,57,57805,1,8,0:0:0:0:
192,57,58108,1,0,0:0:0:0:
192,57,58259,1,8,0:0:0:0:
200,98,58411,1,4,0:0:0:0:
207,80,58865,1,12,0:0:0:0:
200,47,59017,1,0,0:0:0:0:
204,44,59168,1,0,0:0:0:0:
200,91,59320,1,0,0:0:0:0:
200,91,59471,1,8,0:0:0:0:
200,84,59774,1,0,0:0:0:0:
208,86,59926,1,8,0:0:0:0:
207,86,60077,1,8,0:0:0:0:
207,86,60229,1,0,0:0:0:0:
207,86,60381,1,8,0:0:0:0:
209,82,60684,1,8,0:0:0:0:
207,81,60835,1,8,0:0:0:0:
214,81,61138,1,0,0:0:0:0:
206,37,61290,1,8,0:0:0:0:
225,29,61441,1,0,0:0:0:0:
163,29,61593,1,0,0:0:0:0:
163,29,61744,1,0,0:0:0:0:
163,20,61896,1,8,0:0:0:0:
228,67,62199,1,0,0:0:0:0:
200,47,62350,1,0,0:0:0:0:
207,80,62502,1,8,0:0:0:0:
200,47,62654,1,0,0:0:0:0:
204,44,62805,1,8,0:0:0:0:
200,91,63108,1,8,0:0:0:0:
225,38,63259,1,4,0:0:0:0:
207,86,63714,1,12,0:0:0:0:
237,58,63865,1,0,0:0:0:0:
207,86,64018,1,8,0:0:0:0:
206,86,64169,1,0,0:0:0:0:
209,82,64321,1,8,0:0:0:0:
195,52,64623,1,0,0:0:0:0:
206,37,64927,1,8,0:0:0:0:
225,29,65078,1,0,0:0:0:0:
163,29,65230,1,8,0:0:0:0:
163,29,65381,1,0,0:0:0:0:
163,20,65533,1,8,0:0:0:0:
183,67,65684,1,8,0:0:0:0:
188,53,65987,1,0,0:0:0:0:
188,53,66138,1,12,0:0:0:0:
181,60,66290,1,0,0:0:0:0:
182,60,66441,1,0,0:0:0:0:
186,62,66593,1,0,0:0:0:0:
201,83,66744,1,8,0:0:0:0:
192,97,67047,1,12,0:0:0:0:
192,57,67350,1,8,0:0:0:0:
192,57,67502,1,0,0:0:0:0:
203,72,67653,1,0,0:0:0:0:
192,57,67805,1,0,0:0:0:0:
192,57,67956,1,8,0:0:0:0:
192,57,68108,1,8,0:0:0:0:
