osu file format v14

[General]
AudioFilename: soy negro.mp3
AudioLeadIn: 0
PreviewTime: 48600
Countdown: 0
SampleSet: Normal
StackLeniency: 0.7
Mode: 1
LetterboxInBreaks: 0
WidescreenStoryboard: 0

[Editor]
Bookmarks: 40875
DistanceSpacing: 0.5
BeatDivisor: 4
GridSize: 16
TimelineZoom: 1.2

[Metadata]
Title:El Mercado de las Brujas
TitleUnicode:El Mercado de las Brujas
Artist:Mago de Oz
ArtistUnicode:Mägo de Oz
Creator:zigizigiefe
Version:Futsuu
Source:
Tags:Hechizos Pócimas y Brujería Javier Domínguez Gregorio Zeta Carlos Prieto Mohamed Txus di Fellatio Jose Manuel Josema Pizarro Spanish Español Folk Metal
BeatmapID:1916024
BeatmapSetID:917488

[Difficulty]
HPDrainRate:8
CircleSize:5
OverallDifficulty:4
ApproachRate:5
SliderMultiplier:1.4
SliderTickRate:1

[Events]
//Background and Video events
0,0,"688469-free-download-sad-wallpapers-2048x1366.jpg",0,0
//Break Periods
//Storyboard Layer 0 (Background)
//Storyboard Layer 1 (Fail)
//Storyboard Layer 2 (Pass)
//Storyboard Layer 3 (Foreground)
//Storyboard Sound Samples

[TimingPoints]
381,303.030303030303,4,1,0,100,1,0
48714,-100,4,1,0,100,0,1
68108,-100,4,1,0,100,0,0

[HitObjects]
181,102,229,5,4,0:0:0:0:
196,78,684,1,8,0:0:0:0:
161,82,987,1,8,0:0:0:0:
165,77,1290,1,0,0:0:0:0:
196,78,1593,1,8,0:0:0:0:
165,77,2199,1,0,0:0:0:0:
225,113,2653,1,4,0:0:0:0:
196,78,3108,1,8,0:0:0:0:
161,82,3411,1,8,0:0:0:0:
165,77,3714,1,0,0:0:0:0:
161,82,4320,1,8,0:0:0:0:
168,75,4623,1,0,0:0:0:0:
197,106,4774,1,4,0:0:0:0:
225,113,5077,1,4,0:0:0:0:
196,78,5533,1,8,0:0:0:0:
161,82,5836,1,8,0:0:0:0:
165,77,6139,1,0,0:0:0:0:
196,78,6442,1,8,0:0:0:0:
165,77,7048,1,0,0:0:0:0:
225,113,7502,1,4,0:0:0:0:
196,78,7957,1,8,0:0:0:0:
161,82,8260,1,8,0:0:0:0:
165,77,8563,1,0,0:0:0:0:
196,78,8866,1,8,0:0:0:0:
196,78,9017,1,8,0:0:0:0:
161,82,9169,1,8,0:0:0:0:
165,77,9472,1,12,0:0:0:0:
177,102,9926,1,4,0:0:0:0:
196,78,10381,1,8,0:0:0:0:
161,82,10684,1,0,0:0:0:0:
165,77,10987,1,8,0:0:0:0:
196,78,11290,1,8,0:0:0:0:
165,77,11896,1,8,0:0:0:0:
168,75,12047,1,8,0:0:0:0:
225,113,12350,1,4,0:0:0:0:
196,78,12805,1,8,0:0:0:0:
196,78,13108,1,0,0:0:0:0:
165,77,13411,1,0,0:0:0:0:
196,78,13714,1,8,0:0:0:0:
161,82,14017,1,8,0:0:0:0:
168,75,14320,1,0,0:0:0:0:
225,113,14774,1,0,0:0:0:0:
196,78,15229,1,12,0:0:0:0:
161,82,15532,1,0,0:0:0:0:
165,77,15835,1,8,0:0:0:0:
154,124,16138,1,8,0:0:0:0:
165,77,16744,1,8,0:0:0:0:
168,75,16895,1,8,0:0:0:0:
225,113,17198,1,0,0:0:0:0:
196,78,17654,1,12,0:0:0:0:
196,78,17957,1,0,0:0:0:0:
165,77,18260,1,0,0:0:0:0:
196,78,18563,1,8,0:0:0:0:
161,82,18866,1,0,0:0:0:0:
165,76,19017,1,0,0:0:0:0:
168,75,19169,1,0,0:0:0:0:
225,113,19623,1,4,0:0:0:0:
192,112,20077,1,8,0:0:0:0:
192,96,20684,1,8,0:0:0:0:
192,96,20987,1,0,0:0:0:0:
192,112,21593,1,0,0:0:0:0:
192,96,21897,1,8,0:0:0:0:
192,96,22048,1,8,0:0:0:0:
192,96,22200,1,8,0:0:0:0:
160,48,22805,1,0,0:0:0:0:
208,16,23108,1,8,0:0:0:0:
208,32,23411,1,0,0:0:0:0:
160,48,24017,1,0,0:0:0:0:
208,16,24168,1,0,0:0:0:0:
208,32,24471,1,8,0:0:0:0:
192,112,24926,1,12,0:0:0:0:
192,96,25533,1,8,0:0:0:0:
192,96,25836,1,0,0:0:0:0:
192,112,26442,1,0,0:0:0:0:
192,96,26745,1,8,0:0:0:0:
192,96,26896,1,8,0:0:0:0:
192,96,27048,1,8,0:0:0:0:
160,80,27653,1,0,0:0:0:0:
160,80,27956,1,8,0:0:0:0:
192,64,28259,1,12,0:0:0:0:
208,80,28562,1,0,0:0:0:0:
208,80,28714,1,0,0:0:0:0:
208,80,29017,1,0,0:0:0:0:
208,80,29320,1,12,0:0:0:0:
192,112,29774,1,8,0:0:0:0:
192,112,30078,1,0,0:0:0:0:
192,96,30381,1,8,0:0:0:0:
192,96,30684,1,8,0:0:0:0:
192,112,31290,1,8,0:0:0:0:
192,96,31745,1,8,0:0:0:0:
160,32,32199,1,8,0:0:0:0:
160,32,32350,1,8,0:0:0:0:
160,48,32502,1,8,0:0:0:0:
208,16,32805,1,8,0:0:0:0:
208,32,33108,1,0,0:0:0:0:
160,48,33714,1,0,0:0:0:0:
208,16,33865,1,0,0:0:0:0:
208,32,34168,1,12,0:0:0:0:
192,112,34623,1,8,0:0:0:0:
192,112,34927,1,0,0:0:0:0:
192,96,35230,1,8,0:0:0:0:
192,96,35533,1,0,0:0:0:0:
192,112,36139,1,0,0:0:0:0:
192,96,36593,1,8,0:0:0:0:
160,64,37047,1,8,0:0:0:0:
160,80,37350,1,0,0:0:0:0:
160,80,37653,1,8,0:0:0:0:
192,64,37956,1,12,0:0:0:0:
208,80,38259,1,8,0:0:0:0:
208,80,38411,1,8,0:0:0:0:
208,80,38562,1,8,0:0:0:0:
208,80,38865,1,0,0:0:0:0:
208,80,39017,1,4,0:0:0:0:
184,130,39471,1,12,0:0:0:0:
184,130,39775,1,0,0:0:0:0:
184,114,40078,1,8,0:0:0:0:
184,114,40381,1,8,0:0:0:0:
184,130,40987,1,0,0:0:0:0:
184,130,41442,1,4,0:0:0:0:
152,50,41896,1,8,0:0:0:0:
152,66,42199,1,0,0:0:0:0:
200,34,42502,1,8,0:0:0:0:
200,50,42653,1,8,0:0:0:0:
200,50,42805,1,8,0:0:0:0:
152,50,43108,1,8,0:0:0:0:
152,66,43411,1,0,0:0:0:0:
200,34,43562,1,0,0:0:0:0:
200,50,43865,1,4,0:0:0:0:
184,130,44320,1,8,0:0:0:0:
184,130,44624,1,0,0:0:0:0:
184,114,45078,1,8,0:0:0:0:
184,130,45532,1,8,0:0:0:0:
184,130,45836,1,0,0:0:0:0:
184,114,46139,1,8,0:0:0:0:
184,114,46442,1,4,0:0:0:0:
152,82,46896,1,8,0:0:0:0:
184,82,47350,1,8,0:0:0:0:
184,82,47805,1,12,0:0:0:0:
200,98,48108,1,12,0:0:0:0:
200,98,48411,1,12,0:0:0:0:
200,98,48714,1,4,0:0:0:0:
207,80,49168,1,12,0:0:0:0:
200,91,49774,1,8,0:0:0:0:
200,84,50077,1,0,0:0:0:0:
207,86,50684,1,0,0:0:0:0:
206,86,50987,1,0,0:0:0:0:
207,81,51138,1,0,0:0:0:0:
206,37,51593,1,8,0:0:0:0:
163,29,51896,1,0,0:0:0:0:
163,20,52199,1,8,0:0:0:0:
228,67,52502,1,0,0:0:0:0:
204,44,53108,1,8,0:0:0:0:
200,91,53411,1,8,0:0:0:0:
225,38,53562,1,8,0:0:0:0:
207,86,54017,1,12,0:0:0:0:
209,82,54624,1,8,0:0:0:0:
195,52,54926,1,0,0:0:0:0:
163,29,55533,1,0,0:0:0:0:
163,20,55836,1,0,0:0:0:0:
183,67,55987,1,0,0:0:0:0:
188,53,56441,1,12,0:0:0:0:
182,60,56744,1,0,0:0:0:0:
201,83,57047,1,8,0:0:0:0:
192,97,57350,1,8,0:0:0:0:
192,57,57805,1,8,0:0:0:0:
192,57,58259,1,0,0:0:0:0:
200,98,58411,1,4,0:0:0:0:
207,80,58865,1,12,0:0:0:0:
204,44,59168,1,0,0:0:0:0:
200,91,59471,1,8,0:0:0:0:
200,84,59774,1,0,0:0:0:0:
207,86,60381,1,8,0:0:0:0:
209,82,60684,1,8,0:0:0:0:
207,81,60835,1,8,0:0:0:0:
206,37,61290,1,8,0:0:0:0:
163,29,61593,1,0,0:0:0:0:
163,20,61896,1,8,0:0:0:0:
228,67,62199,1,0,0:0:0:0:
204,44,62805,1,8,0:0:0:0:
200,91,63108,1,0,0:0:0:0:
225,38,63259,1,4,0:0:0:0:
207,86,63714,1,12,0:0:0:0:
207,86,64018,1,0,0:0:0:0:
209,82,64321,1,8,0:0:0:0:
195,52,64623,1,0,0:0:0:0:
163,29,65230,1,8,0:0:0:0:
163,20,65533,1,8,0:0:0:0:
183,67,65684,1,8,0:0:0:0:
188,53,66138,1,12,0:0:0:0:
182,60,66441,1,0,0:0:0:0:
201,83,66744,1,8,0:0:0:0:
192,97,67047,1,12,0:0:0:0:
192,57,67350,1,8,0:0:0:0:
203,72,67653,1,0,0:0:0:0:
192,57,67956,1,8,0:0:0:0:
192,57,68108,1,8,0:0:0:0:
