osu file format v14

[General]
AudioFilename: Mgo de Oz - Bajo mi piel (Audio Oficial).mp3
AudioLeadIn: 0
PreviewTime: 45712
Countdown: 0
SampleSet: Normal
StackLeniency: 0.7
Mode: 0
LetterboxInBreaks: 1
WidescreenStoryboard: 0

[Editor]
Bookmarks: 70115,95997
DistanceSpacing: 1.5
BeatDivisor: 4
GridSize: 4
TimelineZoom: 1.9

[Metadata]
Title:Bajo mi piel
TitleUnicode:Bajo mi piel
Artist:Mago de Oz
ArtistUnicode:Mägo de Oz
Creator:zigizigiefe
Version:Entry's Hard
Source:
Tags:Entry Pyrolized ira dei Patricia Tapia Txus di Fellatio Spanish Español Celtic Folk Metal Cut Version
BeatmapID:2072544
BeatmapSetID:989370

[Difficulty]
HPDrainRate:5
CircleSize:3.5
OverallDifficulty:6.5
ApproachRate:7.5
SliderMultiplier:1.5
SliderTickRate:1

[Events]
//Background and Video events
0,0,"Praying-To-God.jpg",0,0
//Break Periods
//Storyboard Layer 0 (Background)
//Storyboard Layer 1 (Fail)
//Storyboard Layer 2 (Pass)
//Storyboard Layer 3 (Foreground)
//Storyboard Sound Samples

[TimingPoints]
-1248,392.156862745098,4,2,1,25,1,0
-72,-142.857142857143,4,2,1,25,0,0
14438,-117.647058823529,4,2,1,25,0,0
45810,-100,4,3,2,55,0,0
52085,-90.9090909090909,4,3,3,55,0,1
52477,-90.9090909090909,4,3,4,55,0,1
52673,-90.9090909090909,4,1,1,55,0,1
52869,-90.9090909090909,4,3,2,55,0,1
53261,-90.9090909090909,4,3,5,55,0,1
53555,-90.9090909090909,4,3,2,55,0,1
54046,-90.9090909090909,4,3,4,55,0,1
54438,-90.9090909090909,4,3,3,55,0,1
54830,-90.9090909090909,4,3,4,55,0,1
55124,-90.9090909090909,4,3,2,55,0,1
55222,-90.9090909090909,4,3,3,55,0,1
55614,-90.9090909090909,4,3,4,55,0,1
55810,-90.9090909090909,4,1,1,55,0,1
56006,-90.9090909090909,4,3,2,55,0,1
56398,-90.9090909090909,4,3,5,55,0,1
56692,-90.9090909090909,4,3,2,55,0,1
56791,-90.9090909090909,4,3,3,55,0,1
57183,-90.9090909090909,4,3,4,55,0,1
57575,-90.9090909090909,4,1,1,55,0,1
58261,-90.9090909090909,4,1,1,55,0,0
58359,-90.9090909090909,4,1,1,55,0,1
70516,-90.9090909090909,4,3,2,55,0,1
70908,-90.9090909090909,4,1,1,55,0,0
83261,-90.9090909090909,4,3,2,55,0,0
83457,-90.9090909090909,4,1,1,55,0,0
95222,-90.9090909090909,4,3,2,55,0,0
96006,-90.9090909090909,4,1,1,55,0,0
106791,-90.9090909090909,4,2,0,5,0,0

[Colours]
Combo1 : 159,80,0
Combo2 : 255,128,0
Combo3 : 202,101,0

[HitObjects]
387,334,320,6,0,B|343:338|343:338|312:350|312:350|277:343|277:343|232:344,1,157.499995193482,2|2,0:0|0:0,0:0:0:0:
125,378,1104,2,0,P|141:330|134:271,1,104.999996795654,0|2,0:0|0:0,0:0:0:0:
51,182,1889,1,2,0:0:0:0:
262,248,2673,1,0,0:0:0:0:
221,27,3457,6,0,B|248:34|276:21|276:21|313:62|369:57,1,157.499995193482,2|2,0:0|0:0,0:0:0:0:
488,40,4242,2,0,P|460:74|448:133,1,104.999996795654,0|2,0:0|0:0,0:0:0:0:
491,250,5026,1,2,0:0:0:0:
369,216,5418,1,2,0:0:0:0:
275,329,5810,1,2,0:0:0:0:
145,240,6202,1,2,0:0:0:0:
236,98,6595,6,0,P|290:94|257:17,1,157.499995193482,2|2,0:0|0:0,0:0:0:0:
128,12,7379,2,0,B|156:60|119:71|145:120,1,104.999996795654,0|2,0:0|0:0,0:0:0:0:
256,197,8163,2,0,B|203:193|203:193|152:208,1,104.999996795654,2|0,0:0|0:0,0:0:0:0:
35,293,8948,2,0,B|88:289|88:289|139:304,1,104.999996795654,2|0,0:0|0:0,0:0:0:0:
237,372,9732,6,0,B|315:335|309:395|397:351,1,157.499995193482,2|2,0:0|0:0,0:0:0:0:
502,281,10516,2,0,P|441:257|385:267,1,104.999996795654,0|2,0:0|0:0,0:0:0:0:
269,283,11301,2,0,B|248:248|248:248|261:167,1,104.999996795654,2|0,0:0|0:0,0:0:0:0:
228,71,12085,2,0,B|193:50|193:50|112:63,1,104.999996795654,2|0,0:0|0:0,0:0:0:0:
21,117,12869,5,2,0:0:0:0:
21,117,14438,6,0,B|47:135|66:164|66:164|94:146|125:145,1,127.50000243187,2|0,0:0|0:0,0:0:0:0:
216,84,15026,1,0,0:0:0:0:
216,84,15222,2,0,P|232:126|232:151,1,63.7500012159348
208,246,15614,2,0,L|139:239,1,63.7500012159348,2|2,0:0|0:0,0:0:0:0:
94,339,16006,6,0,L|229:352,1,127.50000243187,2|2,0:0|0:0,0:0:0:0:
308,290,16595,2,0,P|352:290|397:306,1,63.7500012159348,2|0,0:0|0:0,0:0:0:0:
422,379,16987,2,0,P|453:376|484:367,1,63.7500012159348,2|0,0:0|0:0,0:0:0:0:
507,270,17379,1,2,0:0:0:0:
507,270,17575,6,0,P|479:240|466:202,1,63.7500012159348
456,123,17967,2,0,P|475:73|476:38,2,63.7500012159348
375,186,18555,1,0,0:0:0:0:
375,186,18752,2,0,P|337:171|298:170,1,63.7500012159348,2|2,0:0|0:0,0:0:0:0:
197,168,19144,6,0,B|231:130|231:130|234:28,1,127.50000243187,2|2,0:0|0:0,0:0:0:0:
144,9,19732,1,2,0:0:0:0:
106,103,19928,1,0,0:0:0:0:
106,103,20124,2,0,P|64:87|26:89,2,63.7500012159348,2|0|2,0:0|0:0|0:0,0:0:0:0:
104,202,20712,6,0,P|89:251|89:282,1,63.7500012159348
196,324,21104,2,0,P|191:292|180:262,1,63.7500012159348
201,163,21497,2,0,P|240:179|275:178,1,63.7500012159348
345,128,21889,2,0,P|378:125|416:136,1,63.7500012159348,2|2,0:0|0:0,0:0:0:0:
492,194,22281,6,0,B|449:255|499:262|455:325,1,127.50000243187,2|0,0:0|0:0,0:0:0:0:
382,378,22869,1,0,0:0:0:0:
382,378,23065,2,0,P|364:336|361:302,1,63.7500012159348,2|0,0:0|0:0,0:0:0:0:
312,221,23457,2,0,P|289:261|262:288,1,63.7500012159348,2|0,0:0|0:0,0:0:0:0:
203,372,23850,6,0,P|191:323|131:263,1,127.50000243187,2|2,0:0|0:0,0:0:0:0:
17,216,24634,2,0,B|79:210|79:210|121:160,1,127.50000243187,2|2,0:0|0:0,0:0:0:0:
127,62,25418,6,0,P|166:74|213:68,1,63.7500012159348,2|0,0:0|0:0,0:0:0:0:
289,17,25810,2,0,P|279:52|281:98,1,63.7500012159348,2|0,0:0|0:0,0:0:0:0:
356,159,26202,2,0,P|307:163|281:176,1,63.7500012159348,2|0,0:0|0:0,0:0:0:0:
209,230,26595,2,0,P|205:176|192:150,1,63.7500012159348,2|0,0:0|0:0,0:0:0:0:
71,96,26987,6,0,P|103:146|110:227,1,127.50000243187,2|0,0:0|0:0,0:0:0:0:
29,303,27575,1,0,0:0:0:0:
29,303,27771,2,0,P|64:295|112:316,1,63.7500012159348
163,368,28163,1,2,0:0:0:0:
182,272,28359,1,2,0:0:0:0:
273,339,28555,6,0,P|289:273|296:200,1,127.50000243187,2|2,0:0|0:0,0:0:0:0:
302,113,29144,2,0,P|339:113|376:121,1,63.7500012159348,2|0,0:0|0:0,0:0:0:0:
442,184,29536,2,0,P|436:215|434:263,2,63.7500012159348,2|0|2,0:0|0:0|0:0,0:0:0:0:
512,106,30124,6,0,P|482:98|447:75,1,63.7500012159348
378,9,30516,2,0,P|367:46|344:69,1,63.7500012159348
274,125,30908,2,0,P|258:86|235:62,1,63.7500012159348
156,18,31301,1,2,0:0:0:0:
132,112,31497,1,2,0:0:0:0:
194,192,31693,6,0,P|222:230|224:321,1,127.50000243187,2|2,0:0|0:0,0:0:0:0:
155,373,32281,2,0,P|120:364|81:361,1,63.7500012159348,2|0,0:0|0:0,0:0:0:0:
15,282,32673,2,0,P|46:278|77:270,1,63.7500012159348,2|0,0:0|0:0,0:0:0:0:
154,202,33065,1,2,0:0:0:0:
154,202,33261,6,0,P|97:176|25:118,1,127.50000243187
7,48,33850,1,0,0:0:0:0:
7,48,34046,2,0,P|54:38|85:20,1,63.7500012159348
175,7,34438,2,0,P|161:39|163:85,1,63.7500012159348,2|2,0:0|0:0,0:0:0:0:
183,159,34830,6,0,B|244:185|259:136|317:160,1,127.50000243187,2|0,0:0|0:0,0:0:0:0:
400,203,35418,1,0,0:0:0:0:
400,203,35614,2,0,L|409:124,1,63.7500012159348,2|0,0:0|0:0,0:0:0:0:
501,180,36006,2,0,L|493:243,1,63.7500012159348,2|0,0:0|0:0,0:0:0:0:
494,349,36399,6,0,P|438:325|370:335,1,127.50000243187,2|2,0:0|0:0,0:0:0:0:
282,380,37183,2,0,B|216:372|216:372|167:335,1,127.50000243187,2|2,0:0|0:0,0:0:0:0:
106,258,37967,6,0,P|50:251|19:259,1,63.7500012159348,2|0,0:0|0:0,0:0:0:0:
8,346,38359,2,0,P|38:353|70:352,1,63.7500012159348,2|0,0:0|0:0,0:0:0:0:
167,335,38752,2,0,P|202:357|224:392,1,63.7500012159348,2|0,0:0|0:0,0:0:0:0:
310,375,39144,2,0,P|330:351|358:335,1,63.7500012159348,2|0,0:0|0:0,0:0:0:0:
455,285,39536,5,2,0:0:0:0:
334,191,39928,1,0,0:0:0:0:
387,47,40320,1,0,0:0:0:0:
499,150,40712,1,0,0:0:0:0:
334,191,41104,6,0,P|278:197|191:173,1,127.50000243187,2|0,0:0|0:0,0:0:0:0:
150,95,41693,1,2,0:0:0:0:
150,95,41889,2,0,P|131:133|103:160,1,63.7500012159348
24,190,42281,2,0,P|55:217|75:256,1,63.7500012159348,2|0,0:0|0:0,0:0:0:0:
108,321,42673,6,0,B|135:301|153:275|153:275|176:300|203:314,1,127.50000243187,2|0,0:0|0:0,0:0:0:0:
341,376,43457,2,0,B|299:357|299:357|323:318|311:254,1,127.50000243187
258,147,44242,1,4,0:0:0:0:
258,147,45810,6,0,P|284:201|270:303,1,150,10|4,0:0|0:0,0:0:0:0:
346,370,46399,1,2,0:0:0:0:
444,356,46595,1,8,0:0:0:0:
373,285,46791,1,0,0:0:0:0:
485,199,46987,2,0,L|466:282,1,75,6|0,0:0|0:0,0:0:0:0:
381,192,47379,6,0,P|404:128|417:37,1,150,10|4,0:0|0:0,0:0:0:0:
265,117,48163,1,10,0:0:0:0:
228,25,48359,1,0,0:0:0:0:
327,44,48555,1,4,0:0:0:0:
206,190,48948,6,0,P|133:196|64:230,1,150,10|4,0:0|0:0,0:0:0:0:
15,320,49536,1,2,0:0:0:0:
107,369,49732,1,8,0:0:0:0:
160,282,49928,1,0,0:0:0:0:
230,359,50124,2,0,P|272:348|304:322,1,75,6|0,0:0|0:0,0:0:0:0:
381,264,50516,6,0,P|326:227|263:150,1,150,10|6,0:0|0:0,0:0:0:0:
168,22,51301,1,10,0:0:0:0:
160,120,51497,1,0,0:0:0:0:
249,72,51693,2,0,P|292:61|334:65,1,75,6|0,0:0|0:0,0:0:0:0:
445,18,52085,6,0,B|400:61|410:116|410:116|426:187,1,165.000005035401,14|12,0:0|0:0,0:0:0:0:
478,255,52673,1,2,0:0:0:0:
416,339,52869,1,8,0:0:0:0:
416,339,53065,1,0,0:0:0:0:
347,256,53261,2,0,P|294:263|251:290,1,82.5000025177003,14|0,0:0|0:0,0:0:0:0:
249,293,53555,1,8,0:0:0:0:
249,293,53653,6,0,P|204:249|93:237,1,165.000005035401,10|12,0:0|0:0,0:0:0:0:
136,368,54438,1,10,0:0:0:0:
136,368,54634,1,0,0:0:0:0:
36,316,54830,1,12,0:0:0:0:
106,233,55026,1,0,0:0:0:0:
106,233,55124,1,8,0:0:0:0:
106,233,55222,6,0,B|145:184|145:184|132:74,1,165.000005035401,10|12,0:0|0:0,0:0:0:0:
50,17,55810,1,2,0:0:0:0:
28,120,56006,1,8,0:0:0:0:
28,120,56202,1,0,0:0:0:0:
132,82,56399,2,0,P|175:79|231:92,1,82.5000025177003,14|0,0:0|0:0,0:0:0:0:
237,95,56693,1,8,0:0:0:0:
237,95,56791,6,0,P|238:142|326:232,1,165.000005035401,10|12,0:0|0:0,0:0:0:0:
413,250,57379,1,0,0:0:0:0:
482,173,57575,1,12,0:0:0:0:
383,121,57771,2,0,L|395:182,5,41.2500012588501,8|8|8|8|8|8,0:0|0:0|0:0|0:0|0:0|0:0,0:0:0:0:
379,99,58359,6,0,P|368:51|266:11,1,165.000005035401,6|8,0:0|0:0,0:0:0:0:
169,34,58948,1,2,0:0:0:0:
245,116,59144,1,0,0:0:0:0:
245,116,59340,1,0,0:0:0:0:
139,146,59536,2,0,L|50:170,1,82.5000025177003,10|0,0:0|0:0,0:0:0:0:
16,264,59928,6,0,B|60:273|89:302|89:302|112:265|165:241,1,165.000005035401,2|8,0:0|0:0,0:0:0:0:
312,154,60712,1,2,0:0:0:0:
251,236,60908,1,0,0:0:0:0:
184,157,61104,1,8,0:0:0:0:
251,17,61497,6,0,B|285:39|331:62|330:0|377:22|422:60,1,165.000005035401,2|8,0:0|0:0,0:0:0:0:
482,122,62085,1,2,0:0:0:0:
390,160,62281,1,0,0:0:0:0:
390,160,62477,1,0,0:0:0:0:
437,251,62673,2,0,P|454:296|453:348,1,82.5000025177003,10|0,0:0|0:0,0:0:0:0:
364,376,63065,6,0,P|318:358|264:361,1,82.5000025177003,2|0,0:0|0:0,0:0:0:0:
175,367,63457,2,0,P|191:329|194:288,1,82.5000025177003,14|0,0:0|0:0,0:0:0:0:
240,195,63850,2,0,P|199:192|161:175,1,82.5000025177003,2|0,0:0|0:0,0:0:0:0:
73,106,64242,2,0,P|69:146|53:184,1,82.5000025177003,14|0,0:0|0:0,0:0:0:0:
2,277,64634,6,0,B|67:285|67:285|98:307|98:307|163:316,1,165.000005035401,6|8,0:0|0:0,0:0:0:0:
254,368,65222,1,2,0:0:0:0:
328,296,65418,1,0,0:0:0:0:
328,296,65614,1,0,0:0:0:0:
234,237,65810,2,0,P|194:210|174:163,1,82.5000025177003,10|0,0:0|0:0,0:0:0:0:
77,106,66202,6,0,B|128:95|158:47|158:47|188:64|222:63,1,165.000005035401,2|8,0:0|0:0,0:0:0:0:
428,36,66987,1,2,0:0:0:0:
347,99,67183,1,0,0:0:0:0:
303,5,67379,1,8,0:0:0:0:
485,122,67771,6,0,B|440:165|440:165|459:300,1,165.000005035401,2|8,0:0|0:0,0:0:0:0:
487,362,68359,1,2,0:0:0:0:
390,331,68555,1,0,0:0:0:0:
390,331,68752,1,0,0:0:0:0:
301,380,68948,2,0,L|285:282,1,82.5000025177003,10|0,0:0|0:0,0:0:0:0:
337,203,69340,5,2,0:0:0:0:
337,203,69536,1,8,0:0:0:0:
235,158,69732,1,0,0:0:0:0:
235,158,69928,1,0,0:0:0:0:
185,252,70124,2,0,P|139:244|99:221,1,82.5000025177003,12|0,0:0|0:0,0:0:0:0:
54,139,70516,2,0,L|-1:144,3,41.2500012588501,8|8|8|8,0:0|0:0|0:0|0:0,0:0:0:0:
78,137,70908,6,0,B|120:141|149:162|149:162|183:131|185:83,1,165.000005035401,4|12,0:0|0:0,0:0:0:0:
254,8,71497,1,0,0:0:0:0:
326,97,71693,1,0,0:0:0:0:
326,97,71791,1,0,0:0:0:0:
326,97,71889,2,0,L|393:105,1,41.2500012588501
470,100,72085,1,8,0:0:0:0:
470,100,72183,1,0,0:0:0:0:
470,100,72281,2,0,L|460:160,1,41.2500012588501
482,234,72477,6,0,P|430:232|384:253,1,82.5000025177003,4|0,0:0|0:0,0:0:0:0:
321,303,72869,2,0,P|271:295|235:273,1,82.5000025177003,8|0,0:0|0:0,0:0:0:0:
170,205,73261,1,0,0:0:0:0:
170,205,73359,1,0,0:0:0:0:
170,205,73457,2,0,L|103:213,1,41.2500012588501
35,214,73653,1,8,0:0:0:0:
35,214,73751,1,0,0:0:0:0:
35,214,73849,2,0,L|45:274,1,41.2500012588501
15,348,74046,6,0,B|56:331|93:353|93:353|129:374|173:363,1,165.000005035401,4|8,0:0|0:0,0:0:0:0:
261,306,74634,1,0,0:0:0:0:
173,246,74830,2,0,L|169:195,3,41.2500012588501
192,184,75222,2,0,L|196:133,3,41.2500012588501,8|0|0|0,0:0|0:0|0:0|0:0,0:0:0:0:
180,121,75614,6,0,P|192:73|185:24,1,82.5000025177003
94,4,76006,2,0,P|82:52|89:101,1,82.5000025177003,12|0,0:0|0:0,0:0:0:0:
97,181,76399,2,0,B|58:193|58:193|15:190,1,82.5000025177003
23,284,76791,2,0,B|65:272|65:272|104:276,1,82.5000025177003,12|0,0:0|0:0,0:0:0:0:
203,296,77183,6,0,P|234:344|337:376,1,165.000005035401,4|8,0:0|0:0,0:0:0:0:
431,354,77771,1,0,0:0:0:0:
425,259,77967,1,0,0:0:0:0:
425,259,78065,1,0,0:0:0:0:
425,259,78163,2,0,L|421:195,1,41.2500012588501
507,165,78359,1,8,0:0:0:0:
507,165,78457,1,0,0:0:0:0:
507,165,78555,2,0,L|503:101,1,41.2500012588501
489,31,78752,6,0,L|393:75,1,82.5000025177003,4|0,0:0|0:0,0:0:0:0:
318,102,79144,2,0,P|304:38|275:5,1,82.5000025177003,8|0,0:0|0:0,0:0:0:0:
197,11,79536,1,0,0:0:0:0:
197,11,79634,1,0,0:0:0:0:
197,11,79732,2,0,L|188:67,1,41.2500012588501
131,129,79928,1,8,0:0:0:0:
131,129,80026,1,0,0:0:0:0:
131,129,80124,2,0,L|75:124,1,41.2500012588501
16,192,80320,6,0,B|35:214|45:242|45:242|97:211|159:229,1,165.000005035401,4|8,0:0|0:0,0:0:0:0:
230,287,80908,1,0,0:0:0:0:
268,193,81104,2,0,L|326:199,3,41.2500012588501
329,173,81497,2,0,L|387:168,3,41.2500012588501,8|0|0|0,0:0|0:0|0:0|0:0,0:0:0:0:
391,186,81889,6,0,P|435:199|483:189,1,82.5000025177003,4|0,0:0|0:0,0:0:0:0:
483,96,82281,2,0,P|444:83|403:87,1,82.5000025177003,12|0,0:0|0:0,0:0:0:0:
301,55,82673,2,0,P|307:103|282:150,1,82.5000025177003,4|0,0:0|0:0,0:0:0:0:
221,206,83065,1,12,0:0:0:0:
128,159,83261,1,8,0:0:0:0:
128,159,83359,1,8,0:0:0:0:
128,159,83457,6,0,P|78:156|35:178,1,82.5000025177003,4|0,0:0|0:0,0:0:0:0:
9,259,83850,2,0,L|18:349,1,82.5000025177003,12|0,0:0|0:0,0:0:0:0:
124,373,84242,1,0,0:0:0:0:
124,373,84340,1,0,0:0:0:0:
124,373,84438,2,0,L|176:367,1,41.2500012588501
247,314,84634,1,8,0:0:0:0:
247,314,84732,1,0,0:0:0:0:
247,314,84830,2,0,L|287:318,1,41.2500012588501
384,330,85026,6,0,P|373:265|391:145,1,165.000005035401,4|8,0:0|0:0,0:0:0:0:
468,107,85614,1,0,0:0:0:0:
400,34,85810,1,0,0:0:0:0:
400,34,85908,1,0,0:0:0:0:
400,34,86006,2,0,L|348:40,1,41.2500012588501
278,93,86202,1,8,0:0:0:0:
278,93,86300,1,0,0:0:0:0:
278,93,86398,2,0,L|238:89,1,41.2500012588501
153,41,86595,6,0,B|110:35|73:14|73:14|46:42|8:61,1,165.000005035401,4|8,0:0|0:0,0:0:0:0:
20,158,87183,1,0,0:0:0:0:
121,140,87379,2,0,L|150:207,3,41.2500012588501
137,201,87771,2,0,L|108:268,3,41.2500012588501,8|0|0|0,0:0|0:0|0:0|0:0,0:0:0:0:
110,258,88163,6,0,P|153:291|181:341,1,82.5000025177003
249,381,88555,2,0,P|266:326|300:293,1,82.5000025177003,12|0,0:0|0:0,0:0:0:0:
371,264,88948,2,0,P|335:224|318:177,1,82.5000025177003
242,142,89340,2,0,P|265:108|274:68,1,82.5000025177003,12|0,0:0|0:0,0:0:0:0:
355,10,89732,6,0,L|399:18,3,41.2500012588501,4|0|0|0,0:0|0:0|0:0|0:0,0:0:0:0:
409,42,90124,2,0,L|401:86,3,41.2500012588501,12|0|0|0,0:0|0:0|0:0|0:0,0:0:0:0:
420,104,90516,2,0,L|464:112,3,41.2500012588501,4|0|0|0,0:0|0:0|0:0|0:0,0:0:0:0:
474,136,90908,2,0,L|466:180,3,41.2500012588501,12|0|0|0,0:0|0:0|0:0|0:0,0:0:0:0:
462,199,91301,6,0,P|457:240|467:280,1,82.5000025177003,4|0,0:0|0:0,0:0:0:0:
506,372,91693,2,0,L|411:365,1,82.5000025177003,12|0,0:0|0:0,0:0:0:0:
335,324,92085,2,0,L|252:330,1,82.5000025177003,4|0,0:0|0:0,0:0:0:0:
150,368,92477,2,0,P|159:328|154:287,1,82.5000025177003,12|0,0:0|0:0,0:0:0:0:
82,216,92869,6,0,L|78:171,3,41.2500012588501,4|0|0|0,0:0|0:0|0:0|0:0,0:0:0:0:
98,155,93261,2,0,L|142:151,3,41.2500012588501,12|0|0|0,0:0|0:0|0:0|0:0,0:0:0:0:
154,129,93653,2,0,L|150:84,3,41.2500012588501,4|0|0|0,0:0|0:0|0:0|0:0,0:0:0:0:
171,68,94045,2,0,L|215:64,3,41.2500012588501,12|0|0|0,0:0|0:0|0:0|0:0,0:0:0:0:
234,63,94438,6,0,P|269:35|326:26,1,82.5000025177003,4|0,0:0|0:0,0:0:0:0:
402,12,94830,2,0,P|402:61|410:97,1,82.5000025177003,12|0,0:0|0:0,0:0:0:0:
474,170,95222,2,0,L|459:218,3,41.2500012588501,4|4|4|4,0:0|0:0|0:0|0:0,0:0:0:0:
456,224,95614,1,8,0:0:0:0:
451,240,95712,1,8,0:0:0:0:
446,256,95810,1,8,0:0:0:0:
441,271,95908,1,8,0:0:0:0:
436,287,96006,5,4,0:0:0:0:
256,192,96104,12,0,106791,0:0:0:0:
