osu file format v14

[General]
AudioFilename: Mgo de Oz - Bajo mi piel (Audio Oficial).mp3
AudioLeadIn: 0
PreviewTime: 45712
Countdown: 0
SampleSet: Normal
StackLeniency: 0.7
Mode: 0
LetterboxInBreaks: 1
WidescreenStoryboard: 1

[Editor]
Bookmarks: 45801,83448
DistanceSpacing: 1.7
BeatDivisor: 4
GridSize: 4
TimelineZoom: 2

[Metadata]
Title:Bajo mi piel
TitleUnicode:Bajo mi piel
Artist:Mago de Oz
ArtistUnicode:Mägo de Oz
Creator:zigizigiefe
Version:Collab Normal
Source:
Tags:Entry Pyrolized ira dei Patricia Tapia Txus di Fellatio Spanish Español Celtic Folk Metal Cut Version
BeatmapID:2093929
BeatmapSetID:989370

[Difficulty]
HPDrainRate:4
CircleSize:3
OverallDifficulty:4
ApproachRate:5
SliderMultiplier:0.9
SliderTickRate:1

[Events]
//Background and Video events
0,0,"Praying-To-God.jpg",0,0
//Break Periods
//Storyboard Layer 0 (Background)
//Storyboard Layer 1 (Fail)
//Storyboard Layer 2 (Pass)
//Storyboard Layer 3 (Foreground)
//Storyboard Sound Samples

[TimingPoints]
-1248,392.156862745098,4,2,1,25,1,0
45810,-100,4,3,2,55,0,0
52085,-100,4,3,3,55,0,1
52477,-100,4,3,4,55,0,1
52673,-100,4,1,1,55,0,1
53261,-100,4,3,5,55,0,1
53653,-100,4,3,2,55,0,1
54046,-100,4,3,4,55,0,1
54438,-100,4,3,3,55,0,1
54830,-100,4,3,4,55,0,1
55222,-100,4,3,3,55,0,1
55614,-100,4,3,4,55,0,1
55810,-100,4,1,1,55,0,1
56398,-100,4,3,5,55,0,1
56791,-100,4,3,3,55,0,1
57183,-100,4,3,4,55,0,1
57575,-100,4,1,1,55,0,1
58261,-100,4,1,1,55,0,0
58359,-100,4,1,1,55,0,1
70516,-100,4,3,2,55,0,1
70908,-100,4,1,1,55,0,0
83261,-100,4,3,2,55,0,0
83457,-100,4,1,1,55,0,0
95222,-100,4,3,2,55,0,0
96006,-100,4,1,1,55,0,0
106791,-100,4,2,0,5,0,0

[Colours]
Combo1 : 159,80,0
Combo2 : 255,128,0
Combo3 : 202,101,0

[HitObjects]
185,143,320,6,0,P|135:89|77:88,2,135.000005149841,2|2|2,0:0|0:0|0:0,0:0:0:0:
185,233,1889,2,0,P|265:247|321:170,1,180,2|0,0:0|0:0,0:0:0:0:
186,56,3457,2,0,L|45:28,2,135,2|2|2,0:0|0:0|0:0,0:0:0:0:
133,129,5026,2,0,L|128:231,1,90.0000034332277,2|2,0:0|0:0,0:0:0:0:
213,248,5810,2,0,L|208:350,1,90.0000034332277,2|2,0:0|0:0,0:0:0:0:
294,365,6595,6,0,P|339:372|382:362,1,90.0000034332277,2|0,0:0|0:0,0:0:0:0:
423,344,7183,1,2,0:0:0:0:
423,344,7379,2,0,L|404:254,1,90.0000034332277,0|2,0:0|0:0,0:0:0:0:
380,169,8163,2,0,P|335:176|292:166,1,90.0000034332277,2|0,0:0|0:0,0:0:0:0:
204,145,8948,2,0,L|185:233,1,90.0000034332277,2|0,0:0|0:0,0:0:0:0:
161,319,9732,6,0,B|117:329|117:329|73:316,1,90,2|0,0:0|0:0,0:0:0:0:
30,306,10320,1,2,0:0:0:0:
30,306,10516,2,0,L|44:212,1,90.0000034332277,0|2,0:0|0:0,0:0:0:0:
58,128,11301,5,2,0:0:0:0:
209,225,12085,1,2,0:0:0:0:
217,45,12869,1,2,0:0:0:0:
50,308,14438,6,0,P|91:319|139:309,1,90.0000034332277,2|0,0:0|0:0,0:0:0:0:
155,269,15026,1,0,0:0:0:0:
155,269,15222,2,0,L|251:276,1,90.0000034332277,0|2,0:0|0:0,0:0:0:0:
323,231,16006,2,0,P|336:184|330:138,1,90.0000034332277,2|2,0:0|0:0,0:0:0:0:
320,99,16595,2,0,L|423:78,2,90.0000034332277,2|2|2,0:0|0:0|0:0,0:0:0:0:
277,114,17575,6,0,P|229:127|184:121,1,90.0000034332277
147,106,18163,1,0,0:0:0:0:
147,106,18359,2,0,L|134:209,1,90.0000034332277,0|2,0:0|0:0,0:0:0:0:
127,285,19144,2,0,P|168:305|224:301,1,90.0000034332277,2|2,0:0|0:0,0:0:0:0:
252,285,19732,2,0,L|240:195,2,90.0000034332277,2|2|2,0:0|0:0|0:0,0:0:0:0:
292,303,20712,6,0,B|336:311|336:311|380:295,1,90.0000034332277
421,279,21301,1,0,0:0:0:0:
421,279,21497,2,0,L|408:186,1,90.0000034332277,0|2,0:0|0:0,0:0:0:0:
392,101,22281,2,0,B|345:97|345:97|301:112,1,90.0000034332277,2|0,0:0|0:0,0:0:0:0:
291,154,22869,1,0,0:0:0:0:
291,154,23065,2,0,L|191:160,1,90.0000034332277,2|2,0:0|0:0,0:0:0:0:
120,119,23850,6,0,P|81:148|63:197,1,90.0000034332277,2|2,0:0|0:0,0:0:0:0:
95,269,24634,2,0,L|184:263,1,90.0000034332277,2|2,0:0|0:0,0:0:0:0:
261,310,25418,2,0,P|303:313|344:289,1,90.0000034332277,2|2,0:0|0:0,0:0:0:0:
414,235,26202,2,0,L|405:136,1,90.0000034332277,2|2,0:0|0:0,0:0:0:0:
439,61,26987,6,0,P|398:57|350:73,1,90.0000034332277,2|0,0:0|0:0,0:0:0:0:
331,111,27575,1,0,0:0:0:0:
331,111,27771,2,0,L|231:106,1,90.0000034332277,0|2,0:0|0:0,0:0:0:0:
164,59,28555,2,0,P|152:98|160:148,1,90.0000034332277,2|2,0:0|0:0,0:0:0:0:
179,187,29144,2,0,L|86:212,2,90.0000034332277,2|2|2,0:0|0:0|0:0,0:0:0:0:
223,180,30124,6,0,P|233:223|226:267,1,90.0000034332277
257,300,30712,1,0,0:0:0:0:
257,300,30908,2,0,L|362:308,1,90.0000034332277,0|2,0:0|0:0,0:0:0:0:
425,263,31693,2,0,P|436:214|418:165,1,90.0000034332277,2|2,0:0|0:0,0:0:0:0:
408,134,32281,2,0,P|446:118|499:107,2,90.0000034332277,2|2|2,0:0|0:0|0:0,0:0:0:0:
380,169,33261,6,0,P|336:159|294:142,1,90.0000034332277
253,123,33850,1,0,0:0:0:0:
253,123,34046,2,0,P|217:157|209:202,1,90.0000034332277,0|2,0:0|0:0,0:0:0:0:
213,285,34830,2,0,B|169:297|169:297|125:287,1,90.0000034332277,2|0,0:0|0:0,0:0:0:0:
84,269,35418,1,0,0:0:0:0:
84,269,35614,2,0,L|94:175,1,90.0000034332277,2|2,0:0|0:0,0:0:0:0:
39,107,36399,6,0,P|84:90|135:99,1,90.0000034332277,2|2,0:0|0:0,0:0:0:0:
163,176,37183,2,0,L|258:162,1,90.0000034332277,2|2,0:0|0:0,0:0:0:0:
312,96,37967,2,0,P|336:137|336:189,1,90.0000034332277,2|2,0:0|0:0,0:0:0:0:
335,268,38752,2,0,L|245:254,1,90.0000034332277,2|2,0:0|0:0,0:0:0:0:
182,318,39536,6,0,P|135:327|82:311,2,90.0000034332277,2|0|0,0:0|0:0|0:0,0:0:0:0:
271,306,40712,1,0,0:0:0:0:
270,215,41104,2,0,P|313:224|357:215,1,90.0000034332277,2|0,0:0|0:0,0:0:0:0:
400,200,41693,1,2,0:0:0:0:
400,200,41889,2,0,L|388:85,1,90.0000034332277,0|2,0:0|0:0,0:0:0:0:
305,86,42673,2,0,B|249:75|215:104|215:104|183:135|135:135|83:111|83:41|127:6|171:9|208:29,1,360,2|4,0:0|0:0,0:0:0:0:
31,312,45810,6,0,B|131:357,1,90,10|4,0:0|0:0,0:0:0:0:
162,352,46399,2,0,P|186:298|178:239,1,90,2|0,0:0|0:0,0:0:0:0:
178,219,46987,1,6,0:0:0:0:
80,204,47379,2,0,P|69:151|85:82,1,90,10|4,0:0|0:0,0:0:0:0:
99,19,48163,2,0,P|159:39|208:32,1,90,10|4,0:0|0:0,0:0:0:0:
279,19,48948,6,0,L|284:130,1,90,10|4,0:0|0:0,0:0:0:0:
305,153,49536,2,0,L|300:264,1,90,2|0,0:0|0:0,0:0:0:0:
297,292,50124,1,6,0:0:0:0:
384,339,50516,2,0,P|422:304|441:250,1,90,10|6,0:0|0:0,0:0:0:0:
464,174,51301,1,10,0:0:0:0:
391,106,51693,1,6,0:0:0:0:
315,170,52085,6,0,P|275:125|265:84,1,90,14|12,0:0|0:0,0:0:0:0:
264,47,52673,2,0,P|210:54|152:39,1,90,2|0,0:0|0:0,0:0:0:0:
127,35,53261,1,14,0:0:0:0:
52,99,53653,2,0,P|31:54|-10:16,2,90,10|12|10,0:0|0:0|0:0,0:0:0:0:
50,148,54634,2,0,L|42:227,1,45,0|12,0:0|0:0,0:0:0:0:
14,286,55222,6,0,L|111:295,1,90,10|12,0:0|0:0,0:0:0:0:
151,305,55810,2,0,P|173:344|229:374,1,90,2|0,0:0|0:0,0:0:0:0:
258,378,56399,1,14,0:0:0:0:
356,368,56791,2,0,P|393:316|444:303,1,90,10|12,0:0|0:0,0:0:0:0:
463,294,57379,1,0,0:0:0:0:
463,294,57575,2,0,L|467:197,1,90,12|8,0:0|0:0,0:0:0:0:
472,105,58359,6,0,P|420:98|362:114,1,90,6|8,0:0|0:0,0:0:0:0:
343,134,58948,2,0,P|298:141|254:133,1,90,2|0,0:0|0:0,0:0:0:0:
209,113,59536,1,10,0:0:0:0:
110,114,59928,2,0,L|117:19,2,90,2|8|2,0:0|0:0|0:0,0:0:0:0:
105,163,60908,2,0,P|128:170|159:174,1,45,0|8,0:0|0:0,0:0:0:0:
237,130,61497,6,0,L|273:244,1,90,2|8,0:0|0:0,0:0:0:0:
287,259,62085,2,0,P|344:244|404:252,1,90,2|0,0:0|0:0,0:0:0:0:
423,255,62673,1,10,0:0:0:0:
469,342,63065,1,2,0:0:0:0:
374,372,63457,1,14,0:0:0:0:
292,315,63850,1,2,0:0:0:0:
211,372,64242,1,14,0:0:0:0:
112,365,64634,6,0,P|61:351|28:327,1,90,6|8,0:0|0:0,0:0:0:0:
29,280,65222,2,0,P|60:215|55:186,1,90,2|0,0:0|0:0,0:0:0:0:
53,150,65810,1,10,0:0:0:0:
91,58,66202,2,0,P|44:49|-3:26,2,90,2|8|2,0:0|0:0|0:0,0:0:0:0:
137,41,67183,2,0,P|166:31|195:31,1,45,0|8,0:0|0:0,0:0:0:0:
277,10,67771,6,0,P|273:62|297:98,1,90,2|8,0:0|0:0,0:0:0:0:
337,112,68359,2,0,L|437:107,1,90,2|0,0:0|0:0,0:0:0:0:
476,106,68948,1,10,0:0:0:0:
499,202,69340,6,0,P|446:205|399:235,1,90,2|0,0:0|0:0,0:0:0:0:
384,261,69928,1,0,0:0:0:0:
384,261,70124,2,0,L|382:333,1,45,12|0,0:0|0:0,0:0:0:0:
381,355,70516,1,8,0:0:0:0:
285,381,70908,6,0,L|269:267,1,90,4|12,0:0|0:0,0:0:0:0:
266,242,71497,1,0,0:0:0:0:
266,242,71693,2,0,P|202:249|147:238,1,90,0|8,0:0|0:0,0:0:0:0:
85,207,72477,1,4,0:0:0:0:
22,130,72869,1,8,0:0:0:0:
31,31,73261,2,0,P|94:45|140:42,1,90,0|8,0:0|0:0,0:0:0:0:
216,24,74046,6,0,P|259:12|304:10,2,90,4|8|0,0:0|0:0|0:0,0:0:0:0:
183,61,75026,1,0,0:0:0:0:
183,61,75222,2,0,P|192:90|195:118,1,45,8|0,0:0|0:0,0:0:0:0:
193,153,75614,1,0,0:0:0:0:
172,249,76006,2,0,P|170:320|197:361,1,90,12|0,0:0|0:0,0:0:0:0:
219,362,76595,1,0,0:0:0:0:
219,362,76791,2,0,L|282:359,1,45,12|0,0:0|0:0,0:0:0:0:
308,380,77183,6,0,L|415:375,1,90,4|8,0:0|0:0,0:0:0:0:
480,321,77967,2,0,L|476:210,1,90,0|8,0:0|0:0,0:0:0:0:
427,144,78752,1,4,0:0:0:0:
497,74,79144,2,0,P|474:39|419:10,1,90,8|0,0:0|0:0,0:0:0:0:
384,13,79732,2,0,L|332:17,1,45,0|8,0:0|0:0,0:0:0:0:
274,91,80320,6,0,L|158:104,1,90,4|8,0:0|0:0,0:0:0:0:
135,108,80908,1,0,0:0:0:0:
135,108,81104,2,0,P|150:167|141:217,1,90,0|8,0:0|0:0,0:0:0:0:
121,291,81889,1,4,0:0:0:0:
121,291,82085,2,0,L|195:294,1,45,0|12,0:0|0:0,0:0:0:0:
257,331,82673,2,0,P|260:284|274:229,1,90,4|12,0:0|0:0,0:0:0:0:
284,195,83261,1,4,0:0:0:0:
284,195,83457,6,0,P|268:138|267:98,1,90,4|12,0:0|0:0,0:0:0:0:
268,57,84046,1,0,0:0:0:0:
268,57,84242,2,0,L|356:40,1,90,0|8,0:0|0:0,0:0:0:0:
451,18,85026,1,4,0:0:0:0:
494,106,85418,1,8,0:0:0:0:
472,202,85810,2,0,P|422:200|372:216,1,90,0|8,0:0|0:0,0:0:0:0:
284,199,86595,6,0,P|285:144|305:92,2,90,4|8|0,0:0|0:0|0:0,0:0:0:0:
293,247,87575,2,0,L|312:315,1,45,0|8,0:0|0:0,0:0:0:0:
241,366,88163,2,0,L|178:364,1,45
149,346,88555,2,0,P|159:289|153:234,1,90,12|0,0:0|0:0,0:0:0:0:
141,210,89144,2,0,L|78:208,1,45,0|12,0:0|0:0,0:0:0:0:
30,134,89732,5,4,0:0:0:0:
82,49,90124,2,0,L|203:52,1,90,12|4,0:0|0:0,0:0:0:0:
216,29,90712,1,0,0:0:0:0:
216,29,90908,2,0,L|285:31,1,45,12|0,0:0|0:0,0:0:0:0:
310,33,91301,2,0,P|363:32|416:48,1,90,4|12,0:0|0:0,0:0:0:0:
471,108,92085,2,0,P|453:158|451:214,1,90,4|12,0:0|0:0,0:0:0:0:
467,291,92869,5,4,0:0:0:0:
373,258,93261,1,12,0:0:0:0:
332,348,93653,2,0,P|286:343|242:351,1,90,4|12,0:0|0:0,0:0:0:0:
203,320,94242,1,0,0:0:0:0:
203,320,94438,2,0,P|225:269|226:218,1,90,4|12,0:0|0:0,0:0:0:0:
225,185,95026,1,0,0:0:0:0:
225,185,95222,2,0,P|203:134|202:83,1,90,4|8,0:0|0:0,0:0:0:0:
225,4,96006,5,4,0:0:0:0:
256,192,96202,12,0,106791,0:0:0:0:
