osu file format v14

[General]
AudioFilename: Mgo de Oz - Bajo mi piel (Audio Oficial).mp3
AudioLeadIn: 0
PreviewTime: 45712
Countdown: 0
SampleSet: Normal
StackLeniency: 0.7
Mode: 0
LetterboxInBreaks: 1
WidescreenStoryboard: 0

[Editor]
Bookmarks: 70115,76292,95997
DistanceSpacing: 1.6
BeatDivisor: 4
GridSize: 4
TimelineZoom: 2

[Metadata]
Title:Bajo mi piel
TitleUnicode:Bajo mi piel
Artist:Mago de Oz
ArtistUnicode:Mägo de Oz
Creator:zigizigiefe
Version:Broken Faith
Source:
Tags:Entry Pyrolized ira dei Patricia Tapia Txus di Fellatio Spanish Español Celtic Folk Metal Cut Version
BeatmapID:2070648
BeatmapSetID:989370

[Difficulty]
HPDrainRate:5
CircleSize:4
OverallDifficulty:7.5
ApproachRate:9
SliderMultiplier:1.5
SliderTickRate:1

[Events]
//Background and Video events
0,0,"Praying-To-God.jpg",0,0
//Break Periods
//Storyboard Layer 0 (Background)
//Storyboard Layer 1 (Fail)
//Storyboard Layer 2 (Pass)
//Storyboard Layer 3 (Foreground)
//Storyboard Sound Samples

[TimingPoints]
-1248,392.156862745098,4,2,1,25,1,0
-72,-133.333333333333,4,2,1,25,0,0
12085,-166.666666666667,4,2,1,25,0,0
14438,-125,4,2,1,25,0,0
45810,-100,4,3,2,55,0,0
52085,-90.9090909090909,4,3,3,55,0,1
52477,-90.9090909090909,4,3,4,55,0,1
52673,-90.9090909090909,4,1,1,55,0,1
52869,-90.9090909090909,4,3,2,55,0,1
53261,-90.9090909090909,4,3,5,55,0,1
53555,-90.9090909090909,4,3,2,55,0,1
53653,-90.9090909090909,4,3,3,55,0,1
54046,-90.9090909090909,4,3,4,55,0,1
54438,-90.9090909090909,4,3,3,55,0,1
54830,-90.9090909090909,4,3,4,55,0,1
55124,-90.9090909090909,4,3,2,55,0,1
55222,-90.9090909090909,4,3,3,55,0,1
55614,-90.9090909090909,4,3,4,55,0,1
55810,-90.9090909090909,4,1,1,55,0,1
56006,-90.9090909090909,4,3,2,55,0,1
56398,-90.9090909090909,4,3,5,55,0,1
56692,-90.9090909090909,4,3,2,55,0,1
56791,-90.9090909090909,4,3,3,55,0,1
57183,-90.9090909090909,4,3,4,55,0,1
57575,-90.9090909090909,4,1,1,55,0,1
58261,-90.9090909090909,4,1,1,55,0,0
58359,-90.9090909090909,4,1,1,55,0,1
63457,-58.8235294117647,4,1,1,55,0,1
63850,-90.9090909090909,4,1,1,55,0,1
64242,-58.8235294117647,4,1,1,55,0,1
64634,-90.9090909090909,4,1,1,55,0,1
70516,-90.9090909090909,4,3,2,55,0,1
70908,-90.9090909090909,4,1,1,55,0,0
83261,-90.9090909090909,4,3,2,55,0,0
83457,-90.9090909090909,4,1,1,55,0,0
95222,-90.9090909090909,4,3,2,55,0,0
96006,-90.9090909090909,4,1,1,55,0,0
106791,-90.9090909090909,4,2,0,5,0,0

[Colours]
Combo1 : 159,80,0
Combo2 : 255,128,0
Combo3 : 202,101,0

[HitObjects]
276,203,320,6,0,B|256:166|217:164|217:164|182:214|125:213,2,168.750006437302,2|2|2,0:0|0:0|0:0,0:0:0:0:
310,353,1889,2,0,B|324:328|351:321|351:321|347:289|322:271|322:271|367:234|347:153,1,225.000008583069,2|0,0:0|0:0,0:0:0:0:
378,83,3457,6,0,P|439:71|374:24,2,168.750006437302,2|2|2,0:0|0:0|0:0,0:0:0:0:
397,283,5026,2,0,L|370:173,1,112.500004291535,2|2,0:0|0:0,0:0:0:0:
310,52,5810,2,0,L|283:161,1,112.500004291535,2|2,0:0|0:0,0:0:0:0:
177,161,6595,6,0,B|232:179|232:179|300:155,1,112.500004291535,2|0,0:0|0:0,0:0:0:0:
109,104,7183,1,2,0:0:0:0:
109,104,7379,2,0,L|91:175,1,56.2500021457673
185,69,7771,1,2,0:0:0:0:
284,215,8163,6,0,P|288:180|273:142,1,56.2500021457673,2|0,0:0|0:0,0:0:0:0:
212,266,8555,2,0,P|207:300|223:339,1,56.2500021457673
391,292,8948,2,0,B|340:266|331:315|281:290,1,112.500004291535,2|0,0:0|0:0,0:0:0:0:
358,80,9732,6,0,P|376:129|371:197,1,112.500004291535,2|0,0:0|0:0,0:0:0:0:
240,156,10320,1,2,0:0:0:0:
240,156,10516,2,0,L|301:145,1,56.2500021457673
205,225,10908,1,2,0:0:0:0:
36,161,11301,6,0,P|90:130|143:145,1,112.500004291535,2|0,0:0|0:0,0:0:0:0:
113,33,12085,2,0,P|156:44|190:75,1,89.9999972534181,2|0,0:0|0:0,0:0:0:0:
240,156,12869,5,2,0:0:0:0:
66,76,14438,6,0,B|108:50|108:50|88:105|125:136,1,120,2|0,0:0|0:0,0:0:0:0:
168,186,15026,1,0,0:0:0:0:
255,208,15222,2,0,P|265:242|258:284,1,60
339,354,15614,2,0,P|338:324|348:296,1,60,2|2,0:0|0:0,0:0:0:0:
338,206,16006,6,0,B|340:161|340:161|327:129|327:129|329:89,1,120,2|2,0:0|0:0,0:0:0:0:
269,20,16595,2,0,B|326:2|326:2|385:11,2,120,2|2|2,0:0|0:0|0:0,0:0:0:0:
178,15,17575,6,0,P|126:17|108:28,1,60
87,103,17967,2,0,P|117:105|146:98,1,60
42,181,18359,2,0,L|49:251,1,60
127,284,18751,2,0,L|132:224,1,60,2|2,0:0|0:0,0:0:0:0:
136,134,19144,6,0,B|195:119|195:119|245:148,1,120,2|2,0:0|0:0,0:0:0:0:
168,330,19732,2,0,P|166:270|184:214,2,120,2|2|2,0:0|0:0|0:0,0:0:0:0:
262,292,20712,6,0,P|290:300|320:296,1,60
242,218,21104,2,0,P|213:209|183:213,1,60
168,130,21496,2,0,L|173:70,1,60
253,27,21888,2,0,L|258:86,1,60,2|2,0:0|0:0,0:0:0:0:
422,141,22281,6,0,P|368:164|309:160,1,120,2|0,0:0|0:0,0:0:0:0:
332,33,22869,1,0,0:0:0:0:
332,33,23065,2,0,L|354:105,1,60,2|0,0:0|0:0,0:0:0:0:
290,217,23457,2,0,L|307:159,1,60,2|0,0:0|0:0,0:0:0:0:
319,296,23850,6,0,P|300:301|261:296,1,60,2|0,0:0|0:0,0:0:0:0:
142,362,24242,2,0,P|171:368|201:363,1,60,2|0,0:0|0:0,0:0:0:0:
180,208,24634,2,0,L|173:268,1,60,2|0,0:0|0:0,0:0:0:0:
95,296,25026,2,0,L|88:237,1,60,2|0,0:0|0:0,0:0:0:0:
59,151,25418,6,0,P|88:145|117:151,1,60,2|0,0:0|0:0,0:0:0:0:
235,84,25810,2,0,P|206:79|177:83,1,60,2|0,0:0|0:0,0:0:0:0:
321,68,26202,2,0,L|314:128,1,60,2|0,0:0|0:0,0:0:0:0:
250,191,26595,2,0,L|257:251,1,60,2|0,0:0|0:0,0:0:0:0:
342,277,26987,6,0,B|306:344|229:345,1,120,2|0,0:0|0:0,0:0:0:0:
160,324,27575,1,0,0:0:0:0:
96,259,27771,2,0,L|89:199,1,60
137,123,28163,2,0,L|130:63,1,60,2|2,0:0|0:0,0:0:0:0:
222,113,28555,6,0,P|280:120|331:90,1,120,2|2,0:0|0:0,0:0:0:0:
418,96,29144,2,0,P|398:43|349:3,2,120,2|2|2,0:0|0:0|0:0,0:0:0:0:
429,183,30124,6,0,P|399:181|371:173,1,60
313,241,30516,2,0,P|284:249|254:251,1,60
165,267,30908,2,0,P|166:237|175:208,1,60
97,92,31300,2,0,P|99:122|107:151,1,60,2|2,0:0|0:0,0:0:0:0:
187,106,31693,6,0,P|244:93|302:109,1,120,2|2,0:0|0:0,0:0:0:0:
330,193,32281,2,0,P|377:159|390:101,2,120,2|2|2,0:0|0:0|0:0,0:0:0:0:
300,50,33261,6,0,P|306:79|302:108,1,60
212,181,33653,2,0,P|206:151|213:123,1,60
175,264,34045,2,0,L|114:264,1,60
75,182,34438,2,0,L|135:182,1,60,2|2,0:0|0:0,0:0:0:0:
266,69,34830,6,0,P|209:59|165:96,1,120,2|0,0:0|0:0,0:0:0:0:
337,126,35418,1,0,0:0:0:0:
337,126,35614,2,0,L|349:67,1,60,2|0,0:0|0:0,0:0:0:0:
428,129,36006,2,0,L|440:187,1,60,2|0,0:0|0:0,0:0:0:0:
455,281,36399,6,0,P|425:279|397:271,1,60,2|0,0:0|0:0,0:0:0:0:
264,346,36791,2,0,P|294:343|323:336,1,60,2|0,0:0|0:0,0:0:0:0:
184,303,37183,2,0,P|175:332|175:362,1,60,2|0,0:0|0:0,0:0:0:0:
116,245,37575,2,0,P|108:216|107:187,1,60,2|0,0:0|0:0,0:0:0:0:
59,110,37967,6,0,P|90:95|117:100,1,60,2|0,0:0|0:0,0:0:0:0:
181,158,38359,2,0,P|210:160|236:146,1,60,2|0,0:0|0:0,0:0:0:0:
307,89,38752,2,0,L|327:162,1,60,2|0,0:0|0:0,0:0:0:0:
386,210,39144,2,0,L|370:267,1,60,2|0,0:0|0:0,0:0:0:0:
441,322,39536,6,0,P|388:354|328:347,1,120,2|0,0:0|0:0,0:0:0:0:
197,272,40320,2,0,B|247:240|247:240|307:245,1,120
201,362,41104,6,0,P|145:347|108:291,1,120,2|0,0:0|0:0,0:0:0:0:
57,224,41693,1,2,0:0:0:0:
57,224,41889,2,0,L|68:153,1,60
155,150,42281,2,0,L|166:79,1,60,2|0,0:0|0:0,0:0:0:0:
233,32,42673,6,0,B|271:-7|324:3|355:47|356:92|319:148|248:122|248:122|298:223|192:223|248:327,1,480,2|4,0:0|0:0,0:0:0:0:
89,174,45810,6,0,P|96:100|147:47,1,150,10|4,0:0|0:0,0:0:0:0:
137,252,46399,1,2,0:0:0:0:
137,252,46595,2,0,L|38:273,1,75,8|0,0:0|0:0,0:0:0:0:
168,155,46987,2,0,L|267:176,1,75,6|0,0:0|0:0,0:0:0:0:
329,263,47379,6,0,P|320:186|367:113,1,150,10|4,0:0|0:0,0:0:0:0:
307,362,48163,2,0,L|233:377,1,75,10|0,0:0|0:0,0:0:0:0:
329,263,48555,2,0,L|402:278,1,75,4|0,0:0|0:0,0:0:0:0:
239,293,48850,1,0,0:0:0:0:
239,293,48948,6,0,P|243:213|293:166,1,150,10|4,0:0|0:0,0:0:0:0:
392,193,49536,1,2,0:0:0:0:
446,123,49732,2,0,L|363:106,1,75,8|0,0:0|0:0,0:0:0:0:
222,66,50124,2,0,L|305:49,1,75,6|0,0:0|0:0,0:0:0:0:
208,233,50516,6,0,P|203:196|208:159,1,75,10|0,0:0|0:0,0:0:0:0:
303,158,50908,2,0,P|309:195|304:233,1,75,6|0,0:0|0:0,0:0:0:0:
151,197,51301,6,0,P|159:161|177:128,1,75,10|0,0:0|0:0,0:0:0:0:
356,192,51693,2,0,P|348:229|331:262,1,75,6|0,0:0|0:0,0:0:0:0:
315,84,51987,1,0,0:0:0:0:
315,84,52085,6,0,P|399:93|476:176,1,165.000005035401,14|12,0:0|0:0,0:0:0:0:
244,143,52673,1,2,0:0:0:0:
244,143,52869,2,0,P|222:71|237:30,1,82.5000025177003,8|0,0:0|0:0,0:0:0:0:
356,192,53261,2,0,P|304:247|261:254,1,82.5000025177003,14|0,0:0|0:0,0:0:0:0:
216,360,53555,1,8,0:0:0:0:
216,360,53653,6,0,P|178:287|175:205,1,165.000005035401,10|12,0:0|0:0,0:0:0:0:
351,266,54242,1,0,0:0:0:0:
351,266,54438,2,0,L|264:286,1,82.5000025177003,10|0,0:0|0:0,0:0:0:0:
94,187,54830,2,0,L|181:207,1,82.5000025177003,12|0,0:0|0:0,0:0:0:0:
51,97,55124,1,8,0:0:0:0:
51,97,55222,6,0,P|12:167|23:248,1,165.000005035401,10|12,0:0|0:0,0:0:0:0:
76,346,55810,1,2,0:0:0:0:
198,281,56006,2,0,P|162:261|122:266,1,82.5000025177003,8|0,0:0|0:0,0:0:0:0:
276,368,56399,2,0,L|295:280,1,82.5000025177003,14|0,0:0|0:0,0:0:0:0:
317,157,56693,1,8,0:0:0:0:
317,157,56791,6,0,P|280:139|236:143,1,82.5000025177003,10|0,0:0|0:0,0:0:0:0:
293,287,57183,2,0,L|374:273,1,82.5000025177003,12|0,0:0|0:0,0:0:0:0:
154,211,57575,1,12,0:0:0:0:
117,333,57771,1,8,0:0:0:0:
77,323,57869,1,8,0:0:0:0:
44,299,57967,1,8,0:0:0:0:
22,264,58065,1,8,0:0:0:0:
14,224,58163,1,8,0:0:0:0:
20,184,58261,1,8,0:0:0:0:
42,148,58359,6,0,P|126:103|199:140,1,165.000005035401,6|8,0:0|0:0,0:0:0:0:
216,258,58948,2,0,P|175:242|153:208,1,82.5000025177003,2|0,0:0|0:0,0:0:0:0:
315,207,59340,1,0,0:0:0:0:
315,207,59536,2,0,L|294:294,1,82.5000025177003,10|0,0:0|0:0,0:0:0:0:
261,118,59928,6,0,P|337:107|402:159,1,165.000005035401,2|8,0:0|0:0,0:0:0:0:
177,107,60516,1,0,0:0:0:0:
177,107,60712,2,0,P|150:73|147:32,1,82.5000025177003,2|0,0:0|0:0,0:0:0:0:
261,118,61104,2,0,L|245:209,1,82.5000025177003,8|0,0:0|0:0,0:0:0:0:
81,331,61497,6,0,P|166:275|251:298,1,165.000005035401,2|8,0:0|0:0,0:0:0:0:
351,317,62085,2,0,P|315:298|299:260,1,82.5000025177003,2|0,0:0|0:0,0:0:0:0:
413,164,62477,1,0,0:0:0:0:
413,164,62673,2,0,B|410:205|410:205|383:236,1,82.5000025177003,10|0,0:0|0:0,0:0:0:0:
276,105,63065,6,0,P|332:88|375:96,1,82.5000025177003,2|0,0:0|0:0,0:0:0:0:
211,193,63457,6,0,P|148:185|100:142,1,127.50000243187,14|0,0:0|0:0,0:0:0:0:
291,262,63850,6,0,P|349:255|390:271,1,82.5000025177003,2|0,0:0|0:0,0:0:0:0:
211,338,64242,6,0,P|150:320|110:269,1,127.50000243187,14|0,0:0|0:0,0:0:0:0:
75,104,64634,6,0,B|151:80|151:80|232:104,1,165.000005035401,6|8,0:0|0:0,0:0:0:0:
250,260,65222,2,0,B|220:234|220:234|210:192,1,82.5000025177003,2|0,0:0|0:0,0:0:0:0:
347,302,65614,1,0,0:0:0:0:
347,302,65810,2,0,B|338:342|338:342|307:371,1,82.5000025177003,10|0,0:0|0:0,0:0:0:0:
301,189,66202,6,0,P|383:157|456:198,1,165.000005035401,2|8,0:0|0:0,0:0:0:0:
209,184,66791,1,0,0:0:0:0:
209,184,66987,2,0,P|165:178|136:147,1,82.5000025177003,2|0,0:0|0:0,0:0:0:0:
207,19,67379,2,0,L|202:101,1,82.5000025177003,8|0,0:0|0:0,0:0:0:0:
154,328,67771,6,0,P|219:270|329:275,1,165.000005035401,2|8,0:0|0:0,0:0:0:0:
381,164,68359,2,0,L|369:261,1,82.5000025177003,2|0,0:0|0:0,0:0:0:0:
320,102,68752,1,0,0:0:0:0:
320,102,68948,2,0,P|363:81|416:82,1,82.5000025177003,10|0,0:0|0:0,0:0:0:0:
136,73,69340,6,0,P|168:85|187:102,1,41.2500012588501,2|0,0:0|0:0,0:0:0:0:
232,145,69536,1,8,0:0:0:0:
118,262,69732,2,0,P|130:195|161:170,1,82.5000025177003
296,228,70124,2,0,P|231:251|194:237,1,82.5000025177003,12|0,0:0|0:0,0:0:0:0:
346,113,70516,1,8,0:0:0:0:
381,135,70614,1,8,0:0:0:0:
407,167,70712,1,8,0:0:0:0:
421,205,70810,1,8,0:0:0:0:
423,246,70908,5,4,0:0:0:0:
381,256,71006,1,0,0:0:0:0:
347,277,71104,1,0,0:0:0:0:
321,308,71202,1,0,0:0:0:0:
304,346,71301,2,0,P|282:375|261:383,3,41.2500012588501,12|0|0|0,0:0|0:0|0:0|0:0,0:0:0:0:
224,319,71693,5,0,0:0:0:0:
212,288,71791,1,0,0:0:0:0:
208,255,71889,1,0,0:0:0:0:
213,222,71987,1,0,0:0:0:0:
226,191,72085,1,8,0:0:0:0:
250,159,72183,1,0,0:0:0:0:
260,119,72281,1,0,0:0:0:0:
255,78,72379,1,0,0:0:0:0:
234,43,72477,5,4,0:0:0:0:
197,25,72575,1,0,0:0:0:0:
156,22,72673,1,0,0:0:0:0:
116,34,72771,1,0,0:0:0:0:
85,61,72869,2,0,L|61:100,3,41.2500012588501,8|0|0|0,0:0|0:0|0:0|0:0,0:0:0:0:
90,185,73261,5,0,0:0:0:0:
121,197,73359,1,0,0:0:0:0:
154,201,73457,1,0,0:0:0:0:
187,196,73555,1,0,0:0:0:0:
218,183,73653,1,8,0:0:0:0:
250,159,73751,1,0,0:0:0:0:
290,149,73849,1,0,0:0:0:0:
331,154,73947,1,0,0:0:0:0:
366,175,74045,5,4,0:0:0:0:
384,212,74143,1,0,0:0:0:0:
387,253,74241,1,0,0:0:0:0:
375,293,74339,1,0,0:0:0:0:
348,324,74437,2,0,L|309:348,3,41.2500012588501,8|0|0|0,0:0|0:0|0:0|0:0,0:0:0:0:
214,280,74830,5,0,0:0:0:0:
222,249,74928,1,0,0:0:0:0:
223,216,75026,1,0,0:0:0:0:
218,183,75124,1,0,0:0:0:0:
206,152,75222,1,8,0:0:0:0:
194,114,75320,1,0,0:0:0:0:
209,76,75418,1,0,0:0:0:0:
243,55,75516,1,0,0:0:0:0:
284,59,75614,5,0,0:0:0:0:
313,87,75712,1,0,0:0:0:0:
319,127,75810,1,0,0:0:0:0:
299,163,75908,1,0,0:0:0:0:
262,179,76006,2,0,L|204:170,3,41.2500012588501,12|0|0|0,0:0|0:0|0:0|0:0,0:0:0:0:
222,249,76399,5,0,0:0:0:0:
193,277,76497,1,0,0:0:0:0:
187,317,76595,1,0,0:0:0:0:
207,353,76693,1,0,0:0:0:0:
244,369,76791,2,0,L|302:360,3,41.2500012588501,12|0|0|0,0:0|0:0|0:0|0:0,0:0:0:0:
443,295,77183,5,4,0:0:0:0:
401,285,77281,1,0,0:0:0:0:
367,264,77379,1,0,0:0:0:0:
341,233,77477,1,0,0:0:0:0:
324,195,77576,2,0,P|302:166|281:158,3,41.2500012588501,8|0|0|0,0:0|0:0|0:0|0:0,0:0:0:0:
222,249,77967,5,0,0:0:0:0:
189,254,78065,1,0,0:0:0:0:
158,244,78163,1,0,0:0:0:0:
133,223,78261,1,0,0:0:0:0:
118,194,78359,1,8,0:0:0:0:
119,154,78457,1,0,0:0:0:0:
136,119,78555,1,0,0:0:0:0:
165,91,78653,1,0,0:0:0:0:
206,77,78752,5,4,0:0:0:0:
243,95,78850,1,0,0:0:0:0:
284,98,78948,1,0,0:0:0:0:
324,86,79046,1,0,0:0:0:0:
355,59,79144,2,0,L|379:20,3,41.2500012588501,8|0|0|0,0:0|0:0|0:0|0:0,0:0:0:0:
384,137,79536,5,0,0:0:0:0:
417,132,79634,1,0,0:0:0:0:
448,142,79732,1,0,0:0:0:0:
473,163,79830,1,0,0:0:0:0:
488,192,79928,1,8,0:0:0:0:
487,232,80026,1,0,0:0:0:0:
470,267,80124,1,0,0:0:0:0:
441,295,80222,1,0,0:0:0:0:
400,309,80321,5,4,0:0:0:0:
363,291,80419,1,0,0:0:0:0:
322,288,80517,1,0,0:0:0:0:
282,300,80615,1,0,0:0:0:0:
251,327,80713,2,0,L|227:366,3,41.2500012588501,8|0|0|0,0:0|0:0|0:0|0:0,0:0:0:0:
170,298,81104,5,0,0:0:0:0:
139,312,81202,1,0,0:0:0:0:
106,310,81300,1,0,0:0:0:0:
77,296,81398,1,0,0:0:0:0:
55,272,81496,1,8,0:0:0:0:
45,233,81594,1,0,0:0:0:0:
53,195,81692,1,0,0:0:0:0:
74,161,81790,1,0,0:0:0:0:
109,137,81889,5,4,0:0:0:0:
150,144,81987,1,0,0:0:0:0:
190,137,82085,1,0,0:0:0:0:
226,115,82183,1,0,0:0:0:0:
249,81,82281,2,0,L|262:38,3,41.2500012588501,12|0|0|0,0:0|0:0|0:0|0:0,0:0:0:0:
289,164,82673,5,4,0:0:0:0:
271,202,82771,1,0,0:0:0:0:
268,243,82869,1,0,0:0:0:0:
279,283,82967,1,0,0:0:0:0:
306,314,83065,2,0,L|345:338,3,41.2500012588501,12|0|4|4,0:0|0:0|0:0|0:0,0:0:0:0:
436,361,83457,5,4,0:0:0:0:
454,325,83555,1,0,0:0:0:0:
462,284,83653,1,0,0:0:0:0:
460,243,83751,1,0,0:0:0:0:
447,204,83850,2,0,L|430:148,3,41.2500012588501,12|0|0|0,0:0|0:0|0:0|0:0,0:0:0:0:
403,50,84242,5,0,0:0:0:0:
378,30,84340,1,0,0:0:0:0:
346,34,84438,1,0,0:0:0:0:
329,61,84536,1,0,0:0:0:0:
337,92,84634,1,8,0:0:0:0:
360,126,84732,1,0,0:0:0:0:
373,165,84830,1,0,0:0:0:0:
374,207,84928,1,0,0:0:0:0:
364,246,85026,5,4,0:0:0:0:
324,237,85124,1,0,0:0:0:0:
283,238,85222,1,0,0:0:0:0:
243,251,85320,1,0,0:0:0:0:
210,274,85418,2,0,L|171:314,3,41.2500012588501,8|0|0|0,0:0|0:0|0:0|0:0,0:0:0:0:
49,259,85810,5,0,0:0:0:0:
68,284,85908,1,0,0:0:0:0:
100,287,86006,1,0,0:0:0:0:
123,264,86104,1,0,0:0:0:0:
122,232,86202,1,8,0:0:0:0:
106,195,86300,1,0,0:0:0:0:
102,154,86398,1,0,0:0:0:0:
111,113,86496,1,0,0:0:0:0:
129,77,86594,5,4,0:0:0:0:
168,94,86692,1,0,0:0:0:0:
208,102,86790,1,0,0:0:0:0:
250,99,86888,1,0,0:0:0:0:
287,84,86986,2,0,L|333:53,3,41.2500012588501,8|0|0|0,0:0|0:0|0:0|0:0,0:0:0:0:
413,35,87379,5,0,0:0:0:0:
444,33,87477,1,0,0:0:0:0:
468,56,87575,1,0,0:0:0:0:
465,87,87673,1,0,0:0:0:0:
443,108,87771,1,8,0:0:0:0:
402,123,87869,1,0,0:0:0:0:
371,146,87967,1,0,0:0:0:0:
346,180,88065,1,0,0:0:0:0:
332,218,88163,5,0,0:0:0:0:
370,235,88261,1,0,0:0:0:0:
403,259,88359,1,0,0:0:0:0:
429,294,88457,1,0,0:0:0:0:
442,331,88555,2,0,L|451:386,3,41.2500012588501,12|0|0|0,0:0|0:0|0:0|0:0,0:0:0:0:
346,326,88948,5,0,0:0:0:0:
306,312,89046,1,0,0:0:0:0:
266,306,89144,1,0,0:0:0:0:
223,312,89242,1,0,0:0:0:0:
188,329,89340,2,0,L|142:362,3,41.2500012588501,12|0|0|0,0:0|0:0|0:0|0:0,0:0:0:0:
179,243,89732,5,4,0:0:0:0:
181,203,89830,1,0,0:0:0:0:
157,171,89928,1,0,0:0:0:0:
118,162,90026,1,0,0:0:0:0:
82,181,90124,2,0,L|35:212,3,41.2500012588501,12|0|0|0,0:0|0:0|0:0|0:0,0:0:0:0:
60,327,90516,5,4,0:0:0:0:
91,315,90614,1,0,0:0:0:0:
124,311,90712,1,0,0:0:0:0:
157,316,90810,1,0,0:0:0:0:
188,329,90908,1,12,0:0:0:0:
220,354,91006,1,0,0:0:0:0:
260,360,91104,1,0,0:0:0:0:
299,346,91202,1,0,0:0:0:0:
325,315,91300,5,4,0:0:0:0:
330,275,91399,1,0,0:0:0:0:
314,237,91497,1,0,0:0:0:0:
283,211,91595,1,0,0:0:0:0:
243,204,91693,2,0,L|181:215,3,41.2500012588501,12|0|0|0,0:0|0:0|0:0|0:0,0:0:0:0:
140,96,92085,5,4,0:0:0:0:
171,108,92183,1,0,0:0:0:0:
204,112,92281,1,0,0:0:0:0:
237,107,92379,1,0,0:0:0:0:
268,94,92477,1,12,0:0:0:0:
300,70,92575,1,0,0:0:0:0:
340,64,92673,1,0,0:0:0:0:
379,78,92771,1,0,0:0:0:0:
405,109,92869,5,4,0:0:0:0:
410,148,92968,1,0,0:0:0:0:
394,186,93066,1,0,0:0:0:0:
363,212,93164,1,0,0:0:0:0:
323,219,93262,2,0,L|261:208,3,41.2500012588501,12|0|0|0,0:0|0:0|0:0|0:0,0:0:0:0:
177,272,93653,5,4,0:0:0:0:
165,241,93751,1,0,0:0:0:0:
161,208,93849,1,0,0:0:0:0:
166,175,93947,1,0,0:0:0:0:
179,144,94045,1,12,0:0:0:0:
204,112,94143,1,0,0:0:0:0:
210,72,94241,1,0,0:0:0:0:
196,33,94339,1,0,0:0:0:0:
164,7,94437,5,4,0:0:0:0:
125,2,94536,1,0,0:0:0:0:
87,18,94634,1,0,0:0:0:0:
61,49,94732,1,0,0:0:0:0:
54,89,94830,2,0,L|65:151,3,41.2500012588501,12|0|0|0,0:0|0:0|0:0|0:0,0:0:0:0:
10,206,95222,5,4,0:0:0:0:
13,256,95320,1,4,0:0:0:0:
36,301,95418,1,4,0:0:0:0:
73,332,95516,1,4,0:0:0:0:
120,349,95614,1,8,0:0:0:0:
168,347,95712,1,8,0:0:0:0:
213,327,95810,1,8,0:0:0:0:
247,291,95908,1,8,0:0:0:0:
266,245,96006,5,4,0:0:0:0:
256,192,96104,12,0,106791,0:0:0:0:
