osu file format v14

[General]
AudioFilename: astaroth.mp3
AudioLeadIn: 0
PreviewTime: 15631
Countdown: 0
SampleSet: Normal
StackLeniency: 0.7
Mode: 1
LetterboxInBreaks: 0
WidescreenStoryboard: 1

[Editor]
DistanceSpacing: 1
BeatDivisor: 4
GridSize: 8
TimelineZoom: 0.4999999

[Metadata]
Title:Astaroth
TitleUnicode:Astaroth
Artist:Mago de Oz
ArtistUnicode:Mägo de Oz
Creator:zigizigiefe
Version:Normal
Source:
Tags:José Andrëa Andrea Finisterra Txus di Fellatio Mar Cabello Cut Version
BeatmapID:1799375
BeatmapSetID:859965

[Difficulty]
HPDrainRate:9.5
CircleSize:5
OverallDifficulty:3.5
ApproachRate:5
SliderMultiplier:1.4
SliderTickRate:1

[Events]
//Background and Video events
0,0,"1.jpg",0,0
//Break Periods
//Storyboard Layer 0 (Background)
//Storyboard Layer 1 (Fail)
//Storyboard Layer 2 (Pass)
//Storyboard Layer 3 (Foreground)
//Storyboard Sound Samples

[TimingPoints]
15632,577.367205542725,4,1,0,75,1,0
52583,-100,4,1,0,75,0,1
68749,-100,4,1,0,75,0,0

[HitObjects]
184,80,15631,5,4,0:0:0:0:
192,72,16786,1,0,0:0:0:0:
176,48,17364,1,8,0:0:0:0:
176,48,17941,1,0,0:0:0:0:
192,64,19096,1,8,0:0:0:0:
176,104,19673,1,8,0:0:0:0:
192,64,20250,1,0,0:0:0:0:
192,80,21405,1,8,0:0:0:0:
200,96,21983,1,0,0:0:0:0:
176,48,22560,1,8,0:0:0:0:
192,128,23715,1,8,0:0:0:0:
160,128,24003,1,8,0:0:0:0:
176,160,24292,1,8,0:0:0:0:
136,152,24869,1,4,0:0:0:0:
192,72,26024,1,0,0:0:0:0:
176,48,26602,1,8,0:0:0:0:
152,80,27179,1,0,0:0:0:0:
152,104,28334,1,8,0:0:0:0:
144,120,28911,1,8,0:0:0:0:
192,64,29488,1,0,0:0:0:0:
192,80,30643,1,8,0:0:0:0:
200,96,31221,1,0,0:0:0:0:
176,48,31798,1,8,0:0:0:0:
160,88,32087,1,8,0:0:0:0:
160,88,32376,1,8,0:0:0:0:
192,64,33530,1,8,0:0:0:0:
184,88,34107,1,4,0:0:0:0:
216,48,35262,1,0,0:0:0:0:
216,56,35839,1,0,0:0:0:0:
224,56,36417,1,8,0:0:0:0:
200,72,37571,1,0,0:0:0:0:
168,120,38149,1,8,0:0:0:0:
200,72,38726,1,0,0:0:0:0:
216,48,39881,1,0,0:0:0:0:
224,56,40458,1,8,0:0:0:0:
216,56,41036,1,8,0:0:0:0:
128,144,42190,1,0,0:0:0:0:
176,64,42479,1,0,0:0:0:0:
176,64,42768,1,0,0:0:0:0:
200,72,43345,1,12,0:0:0:0:
216,48,44500,1,0,0:0:0:0:
216,56,45077,1,0,0:0:0:0:
160,48,45655,1,8,0:0:0:0:
296,56,46809,1,8,0:0:0:0:
200,72,47387,1,8,0:0:0:0:
200,72,47964,1,0,0:0:0:0:
216,48,49119,1,0,0:0:0:0:
216,48,49408,1,0,0:0:0:0:
224,56,49696,1,0,0:0:0:0:
200,72,50274,1,8,0:0:0:0:
216,120,50851,1,8,0:0:0:0:
136,144,51428,1,8,0:0:0:0:
200,72,52583,1,4,0:0:0:0:
160,48,53738,1,0,0:0:0:0:
192,64,54315,1,8,0:0:0:0:
192,64,54892,1,0,0:0:0:0:
184,64,55470,1,8,0:0:0:0:
184,48,55759,1,8,0:0:0:0:
192,64,56047,1,8,0:0:0:0:
200,72,57202,1,0,0:0:0:0:
160,56,57779,1,8,0:0:0:0:
160,48,58357,1,0,0:0:0:0:
160,48,58645,1,0,0:0:0:0:
192,64,58934,1,0,0:0:0:0:
192,64,59511,1,0,0:0:0:0:
184,64,60089,1,8,0:0:0:0:
192,64,60666,1,8,0:0:0:0:
200,72,61821,1,0,0:0:0:0:
160,56,62398,1,8,0:0:0:0:
160,48,62976,1,0,0:0:0:0:
160,48,63264,1,0,0:0:0:0:
120,96,63553,1,0,0:0:0:0:
200,72,64130,1,0,0:0:0:0:
160,56,64707,1,0,0:0:0:0:
160,48,65285,1,8,0:0:0:0:
192,72,66440,1,4,0:0:0:0:
200,80,67595,1,4,0:0:0:0:
200,80,68749,1,4,0:0:0:0:
256,192,69038,12,4,70481,0:0:0:0:
