osu file format v14

[General]
AudioFilename: astaroth.mp3
AudioLeadIn: 0
PreviewTime: 15631
Countdown: 0
SampleSet: Normal
StackLeniency: 0.7
Mode: 1
LetterboxInBreaks: 0
WidescreenStoryboard: 1

[Editor]
DistanceSpacing: 1
BeatDivisor: 4
GridSize: 8
TimelineZoom: 1.2

[Metadata]
Title:Astaroth
TitleUnicode:Astaroth
Artist:Mago de Oz
ArtistUnicode:Mägo de Oz
Creator:zigizigiefe
Version:Extrema
Source:
Tags:José Andrëa Andrea Finisterra Txus di Fellatio Mar Cabello Cut Version
BeatmapID:1799372
BeatmapSetID:859965

[Difficulty]
HPDrainRate:8.5
CircleSize:5
OverallDifficulty:4.5
ApproachRate:5
SliderMultiplier:1.4
SliderTickRate:1

[Events]
//Background and Video events
0,0,"1.jpg",0,0
//Break Periods
//Storyboard Layer 0 (Background)
//Storyboard Layer 1 (Fail)
//Storyboard Layer 2 (Pass)
//Storyboard Layer 3 (Foreground)
//Storyboard Sound Samples

[TimingPoints]
15632,577.367205542725,4,1,0,75,1,0
52583,-100,4,1,0,75,0,1
68749,-100,4,1,0,75,0,0

[HitObjects]
184,80,15631,5,4,0:0:0:0:
168,96,15920,1,0,0:0:0:0:
192,80,16209,1,8,0:0:0:0:
192,72,16498,1,0,0:0:0:0:
176,48,17075,1,0,0:0:0:0:
176,48,17364,1,8,0:0:0:0:
176,48,17652,1,0,0:0:0:0:
160,80,18230,1,0,0:0:0:0:
160,64,18518,1,8,0:0:0:0:
160,88,18807,1,8,0:0:0:0:
160,88,19096,1,0,0:0:0:0:
192,64,19673,1,8,0:0:0:0:
192,64,20250,1,0,0:0:0:0:
168,96,20539,1,0,0:0:0:0:
192,80,20828,1,8,0:0:0:0:
192,72,21117,1,0,0:0:0:0:
176,48,21694,1,0,0:0:0:0:
176,48,21983,1,8,0:0:0:0:
176,48,22271,1,8,0:0:0:0:
200,96,22560,1,0,0:0:0:0:
160,64,23137,1,8,0:0:0:0:
160,88,23426,1,8,0:0:0:0:
160,88,23570,1,8,0:0:0:0:
160,88,23715,1,0,0:0:0:0:
192,64,24003,1,0,0:0:0:0:
192,64,24292,1,8,0:0:0:0:
192,64,24581,1,0,0:0:0:0:
128,152,24725,1,8,0:0:0:0:
136,152,24869,1,0,0:0:0:0:
168,96,25158,1,0,0:0:0:0:
192,80,25447,1,8,0:0:0:0:
192,72,25736,1,0,0:0:0:0:
176,48,26313,1,0,0:0:0:0:
176,48,26602,1,8,0:0:0:0:
176,48,26890,1,8,0:0:0:0:
152,80,27179,1,0,0:0:0:0:
160,64,27756,1,8,0:0:0:0:
160,88,28045,1,8,0:0:0:0:
160,88,28334,1,0,0:0:0:0:
192,64,28911,1,8,0:0:0:0:
192,64,29200,1,8,0:0:0:0:
176,104,29344,1,8,0:0:0:0:
192,64,29488,1,0,0:0:0:0:
168,96,29777,1,0,0:0:0:0:
192,80,30066,1,8,0:0:0:0:
192,72,30355,1,0,0:0:0:0:
176,48,30932,1,0,0:0:0:0:
176,48,31221,1,8,0:0:0:0:
176,48,31509,1,8,0:0:0:0:
200,96,31798,1,0,0:0:0:0:
160,88,32087,1,8,0:0:0:0:
160,88,32232,1,8,0:0:0:0:
160,88,32376,1,8,0:0:0:0:
160,64,32665,1,8,0:0:0:0:
192,64,33241,1,8,0:0:0:0:
176,72,33386,1,8,0:0:0:0:
192,64,33530,1,8,0:0:0:0:
192,64,33819,1,0,0:0:0:0:
184,88,34107,1,4,0:0:0:0:
216,48,34685,1,8,0:0:0:0:
216,48,34974,1,0,0:0:0:0:
216,48,35262,1,0,0:0:0:0:
216,48,35551,1,0,0:0:0:0:
224,56,35839,1,8,0:0:0:0:
216,56,36128,1,0,0:0:0:0:
216,56,36705,1,0,0:0:0:0:
208,56,36994,1,8,0:0:0:0:
216,56,37138,1,8,0:0:0:0:
208,64,37283,1,8,0:0:0:0:
200,72,37571,1,0,0:0:0:0:
128,160,37860,1,0,0:0:0:0:
200,72,38149,1,8,0:0:0:0:
200,72,38438,1,0,0:0:0:0:
160,96,38582,1,8,0:0:0:0:
200,72,38726,1,0,0:0:0:0:
216,48,39304,1,8,0:0:0:0:
216,48,39593,1,8,0:0:0:0:
216,48,39881,1,0,0:0:0:0:
216,48,40170,1,0,0:0:0:0:
224,56,40458,1,8,0:0:0:0:
216,56,40747,1,0,0:0:0:0:
216,56,41324,1,0,0:0:0:0:
208,56,41613,1,8,0:0:0:0:
208,64,41902,1,0,0:0:0:0:
200,72,42190,1,8,0:0:0:0:
120,160,42623,1,0,0:0:0:0:
200,72,42768,1,8,0:0:0:0:
200,72,43057,1,0,0:0:0:0:
200,72,43345,1,12,0:0:0:0:
128,96,43922,1,8,0:0:0:0:
216,48,44212,1,0,0:0:0:0:
216,48,44500,1,8,0:0:0:0:
216,48,44789,1,0,0:0:0:0:
216,48,44933,1,8,0:0:0:0:
224,56,45077,1,0,0:0:0:0:
216,56,45366,1,8,0:0:0:0:
160,48,45655,1,0,0:0:0:0:
312,72,46232,1,8,0:0:0:0:
304,64,46520,1,0,0:0:0:0:
296,56,46665,1,0,0:0:0:0:
296,56,46809,1,8,0:0:0:0:
200,72,47098,1,0,0:0:0:0:
200,72,47387,1,8,0:0:0:0:
200,72,47676,1,8,0:0:0:0:
200,72,47820,1,8,0:0:0:0:
200,72,47964,1,0,0:0:0:0:
216,48,48542,1,8,0:0:0:0:
216,48,48831,1,0,0:0:0:0:
216,48,49119,1,0,0:0:0:0:
216,48,49408,1,0,0:0:0:0:
224,56,49696,1,8,0:0:0:0:
200,72,49985,1,0,0:0:0:0:
160,96,50129,1,0,0:0:0:0:
200,72,50274,1,8,0:0:0:0:
208,56,50851,1,8,0:0:0:0:
208,64,50995,1,0,0:0:0:0:
160,48,51284,1,0,0:0:0:0:
200,72,51428,1,0,0:0:0:0:
200,72,51717,1,8,0:0:0:0:
200,72,52006,1,0,0:0:0:0:
200,72,52583,1,4,0:0:0:0:
184,56,52872,1,0,0:0:0:0:
160,56,53160,1,8,0:0:0:0:
160,48,53449,1,0,0:0:0:0:
160,48,53593,1,0,0:0:0:0:
160,48,53738,1,8,0:0:0:0:
160,48,54026,1,0,0:0:0:0:
192,64,54315,1,8,0:0:0:0:
192,64,54892,1,0,0:0:0:0:
176,152,55037,1,0,0:0:0:0:
184,48,55181,1,0,0:0:0:0:
184,64,55470,1,8,0:0:0:0:
184,48,55759,1,0,0:0:0:0:
192,64,56047,1,0,0:0:0:0:
192,64,56192,1,0,0:0:0:0:
192,64,56336,1,8,0:0:0:0:
192,64,56625,1,8,0:0:0:0:
200,72,57202,1,0,0:0:0:0:
160,56,57491,1,0,0:0:0:0:
160,56,57779,1,8,0:0:0:0:
160,48,58068,1,0,0:0:0:0:
160,48,58212,1,0,0:0:0:0:
160,48,58357,1,8,0:0:0:0:
160,48,58645,1,0,0:0:0:0:
192,64,58934,1,8,0:0:0:0:
192,64,59511,1,0,0:0:0:0:
168,144,59656,1,0,0:0:0:0:
184,48,59800,1,0,0:0:0:0:
184,64,60089,1,8,0:0:0:0:
184,48,60378,1,0,0:0:0:0:
192,64,60666,1,8,0:0:0:0:
192,64,60811,1,8,0:0:0:0:
192,64,60955,1,0,0:0:0:0:
192,64,61244,1,8,0:0:0:0:
200,72,61821,1,0,0:0:0:0:
160,56,62110,1,0,0:0:0:0:
160,56,62398,1,8,0:0:0:0:
160,48,62687,1,0,0:0:0:0:
160,48,62976,1,8,0:0:0:0:
160,48,63264,1,0,0:0:0:0:
192,64,63409,1,8,0:0:0:0:
120,96,63553,1,0,0:0:0:0:
200,72,64130,1,0,0:0:0:0:
168,176,64275,1,0,0:0:0:0:
160,56,64419,1,0,0:0:0:0:
160,56,64707,1,8,0:0:0:0:
160,48,64996,1,0,0:0:0:0:
160,48,65285,1,8,0:0:0:0:
160,48,65573,1,0,0:0:0:0:
192,64,65718,1,8,0:0:0:0:
120,96,65862,1,0,0:0:0:0:
192,72,66440,1,4,0:0:0:0:
192,64,66728,1,0,0:0:0:0:
192,64,67017,1,8,0:0:0:0:
200,80,67306,1,0,0:0:0:0:
200,80,67595,1,4,0:0:0:0:
200,80,68172,1,8,0:0:0:0:
200,80,68461,1,0,0:0:0:0:
200,80,68749,1,4,0:0:0:0:
256,192,69038,12,4,70481,0:0:0:0:
