osu file format v12

[General]
AudioFilename: astaroth.mp3
AudioLeadIn: 0
PreviewTime: 34112
Countdown: 0
SampleSet: Soft
StackLeniency: 0.7
Mode: 0
LetterboxInBreaks: 0
WidescreenStoryboard: 0

[Editor]
DistanceSpacing: 1.3
BeatDivisor: 2
GridSize: 8

[Metadata]
Title:Astaroth
TitleUnicode:Astaroth
Artist:Mago de Oz
ArtistUnicode:Mago de Oz
Creator:Xanandra
Version:Normal
Source:
Tags:Nemis
BeatmapID:301898
BeatmapSetID:86069

[Difficulty]
HPDrainRate:3
CircleSize:3
OverallDifficulty:3
ApproachRate:4
SliderMultiplier:1.2
SliderTickRate:2

[Events]
//Background and Video events
0,0,"1.jpg",0,0
//Break Periods
//Storyboard Layer 0 (Background)
//Storyboard Layer 1 (Fail)
//Storyboard Layer 2 (Pass)
//Storyboard Layer 3 (Foreground)
//Storyboard Sound Samples
//Background Colour Transformations
3,100,163,162,255

[TimingPoints]
15632,577.367205542725,4,2,1,70,1,0
31798,-100,4,2,1,50,0,0
32375,-100,4,2,1,70,0,0
32664,-100,4,2,1,50,0,0
33530,-100,4,2,1,70,0,0
33819,-100,4,2,1,50,0,0
34107,-100,4,2,1,70,0,0
34252,-100,4,2,1,50,0,0

[Colours]
Combo1 : 200,159,140
Combo2 : 81,2,4
Combo3 : 230,202,176
Combo4 : 151,0,0

[HitObjects]
10,349,15632,2,0,P|71:342|140:307,1,120,4|8,0:0|0:0,0:0:0:0:
280,309,16786,2,0,L|237:168,1,120,0|8,0:0|0:0,0:0:0:0:
333,65,17941,2,0,L|376:206,1,120,0|8,0:0|0:0,0:0:0:0:
454,309,19096,2,0,P|485:319|510:334,2,60,2|0|10,0:0|0:0|0:0,0:0:0:0:
314,240,20250,6,0,L|171:260,1,120,2|8,0:0|0:0,0:0:0:0:
80,150,21405,2,0,L|223:130,1,120,2|8,0:0|0:0,0:0:0:0:
320,40,22560,2,0,P|359:85|418:122,1,120,2|8,0:0|0:0,0:0:0:0:
432,272,23715,2,0,P|468:266|512:267,2,60,2|0|10,0:0|0:0|0:0,0:0:0:0:
304,352,24869,6,0,P|249:322|183:309,1,120,4|8,0:0|0:0,0:0:0:0:
54,241,26024,2,0,L|11:123,1,120,0|8,0:0|0:0,0:0:0:0:
133,28,27179,2,0,L|176:146,1,120,0|8,0:0|0:0,0:0:0:0:
199,294,28334,2,0,P|167:325|150:358,2,60,2|0|10,0:0|0:0|0:0,0:0:0:0:
352,312,29488,6,0,P|399:354|480:368,1,120,2|8,0:0|0:0,0:0:0:0:
488,224,30643,2,0,L|496:77,1,120,2|8,0:0|0:0,0:0:0:0:
336,96,31798,2,0,L|340:11,2,60,2|8|8,0:0|0:0|0:0,0:0:0:0:
323,172,32664,2,0,P|286:226|209:260,1,120,12|12,0:0|0:0,0:0:0:0:
117,153,33819,5,8,0:0:0:0:
117,153,34107,2,0,L|108:277,1,120,12|8,0:0|0:0,0:0:0:0:
228,372,35262,2,0,L|237:248,1,120,8|8,0:0|0:0,0:0:0:0:
298,108,36417,1,8,0:0:0:0:
453,119,36994,1,8,0:0:0:0:
473,273,37571,1,8,0:0:0:0:
327,328,38149,6,0,L|245:306,1,60,8|2,0:0|0:0,0:0:0:0:
191,324,38726,2,0,P|127:350|44:352,1,120,8|8,0:0|0:0,0:0:0:0:
157,221,39881,2,0,P|221:195|304:193,1,120,8|8,0:0|0:0,0:0:0:0:
400,272,41036,1,8,0:0:0:0:
512,160,41613,1,8,0:0:0:0:
424,32,42190,1,8,0:0:0:0:
272,24,42768,6,0,L|192:59,1,60,8|2,0:0|0:0,0:0:0:0:
149,87,43345,2,0,P|108:134|84:207,1,120,12|8,0:0|0:0,0:0:0:0:
224,272,44500,2,0,P|265:225|289:152,1,120,8|8,0:0|0:0,0:0:0:0:
432,112,45655,1,8,0:0:0:0:
511,249,46232,1,8,0:0:0:0:
379,332,46809,1,8,0:0:0:0:
249,244,47387,6,0,L|174:265,1,60,8|2,0:0|0:0,0:0:0:0:
126,216,47964,2,0,P|80:160|33:129,1,120,8|8,0:0|0:0,0:0:0:0:
153,24,49119,2,0,P|199:80|246:111,1,120,8|8,0:0|0:0,0:0:0:0:
388,146,50274,5,8,0:0:0:0:
400,301,50851,1,8,0:0:0:0:
249,342,51428,2,0,L|166:333,1,60,8|2,0:0|0:0,0:0:0:0:
164,261,52006,2,0,L|81:252,1,60,8|2,0:0|0:0,0:0:0:0:
48,200,52583,5,12,0:0:0:0:
84,48,53160,1,10,0:0:0:0:
230,103,53738,2,0,P|298:118|360:119,1,120,10|10,0:0|0:0,0:0:0:0:
470,23,54892,5,12,0:0:0:0:
507,174,55470,1,10,0:0:0:0:
361,230,56047,2,0,P|336:295|334:355,1,120,10|10,0:0|0:0,0:0:0:0:
178,321,57202,5,12,0:0:0:0:
25,352,57779,1,10,0:0:0:0:
60,199,58357,2,0,P|38:132|0:75,1,120,10|10,0:0|0:0,0:0:0:0:
155,29,59511,5,12,0:0:0:0:
297,93,60089,1,10,0:0:0:0:
167,179,60666,2,0,P|139:236|138:318,1,120,10|10,0:0|0:0,0:0:0:0:
266,374,61821,5,12,0:0:0:0:
419,345,62398,1,10,0:0:0:0:
316,227,62976,2,0,P|304:156|258:91,1,120,10|10,0:0|0:0,0:0:0:0:
401,16,64130,5,12,0:0:0:0:
480,150,64708,1,10,0:0:0:0:
324,152,65285,2,0,P|219:192|175:198,1,120,10|10,0:0|0:0,0:0:0:0:
58,163,66440,5,14,0:0:0:0:
121,19,67017,1,8,0:0:0:0:
277,35,67595,1,12,0:0:0:0:
310,186,68172,1,8,0:0:0:0:
178,267,68749,5,12,0:0:0:0:
256,192,69038,12,8,70481,0:0:0:0:
