osu file format v12

[General]
AudioFilename: astaroth.mp3
AudioLeadIn: 0
PreviewTime: 34112
Countdown: 0
SampleSet: Soft
StackLeniency: 0.7
Mode: 0
LetterboxInBreaks: 0
WidescreenStoryboard: 0

[Editor]
DistanceSpacing: 1
BeatDivisor: 8
GridSize: 8

[Metadata]
Title:Astaroth
TitleUnicode:Astaroth
Artist:Mago de Oz
ArtistUnicode:Mago de Oz
Creator:Xanandra
Version:Insane
Source:
Tags:Nemis
BeatmapID:236008
BeatmapSetID:86069

[Difficulty]
HPDrainRate:7
CircleSize:4
OverallDifficulty:7
ApproachRate:8
SliderMultiplier:1.8
SliderTickRate:2

[Events]
//Background and Video events
0,0,"1.jpg",0,0
//Break Periods
//Storyboard Layer 0 (Background)
//Storyboard Layer 1 (Fail)
//Storyboard Layer 2 (Pass)
//Storyboard Layer 3 (Foreground)
//Storyboard Sound Samples
//Background Colour Transformations
3,100,163,162,255

[TimingPoints]
15632,577.367205542725,4,2,1,70,1,0
31798,-100,4,2,1,50,0,0
32375,-100,4,2,1,70,0,0
32664,-100,4,2,1,50,0,0
33530,-100,4,2,1,70,0,0
33819,-100,4,2,1,50,0,0
34107,-100,4,2,1,70,0,0
34252,-100,4,2,1,50,0,0
34540,-100,4,2,0,70,0,0
34829,-100,4,2,1,50,0,0
35695,-100,4,2,0,70,0,0
35984,-100,4,2,1,50,0,0
36850,-100,4,2,0,70,0,0
37138,-100,4,2,1,50,0,0
38004,-100,4,2,0,70,0,0
38293,-100,4,2,1,50,0,0
38654,-100,4,2,1,70,0,0
38798,-100,4,2,1,50,0,0
39159,-100,4,2,0,70,0,0
39448,-100,4,2,1,50,0,0
40314,-100,4,2,0,70,0,0
40603,-100,4,2,1,50,0,0
41469,-100,4,2,0,70,0,0
41757,-100,4,2,1,50,0,0
42551,-100,4,2,1,30,0,0
42696,-100,4,2,1,50,0,0
43129,-100,4,2,1,30,0,0
43273,-100,4,2,1,50,0,0
43778,-100,4,2,0,70,0,0
44067,-100,4,2,1,50,0,0
44933,-100,4,2,0,70,0,0
45222,-100,4,2,1,50,0,0
46088,-100,4,2,0,70,0,0
46376,-100,4,2,1,50,0,0
47242,-100,4,2,0,70,0,0
47531,-100,4,2,1,50,0,0
48397,-100,4,2,0,70,0,0
48686,-100,4,2,1,50,0,0
49552,-100,4,2,0,70,0,0
49841,-100,4,2,1,50,0,0
50779,-100,4,2,0,75,0,0
50923,-100,4,2,1,50,0,0

[Colours]
Combo1 : 200,159,140
Combo2 : 81,2,4
Combo3 : 230,202,176
Combo4 : 151,0,0

[HitObjects]
176,159,15632,2,0,B|280:143,1,90,4|0,0:0|0:0,0:0:0:0:
336,225,16209,2,0,B|232:241,1,90,8|0,0:0|0:0,0:0:0:0:
289,112,16786,2,0,B|305:216,1,90
223,272,17364,2,0,B|207:168,1,90,8|0,0:0|0:0,0:0:0:0:
64,138,17941,6,0,B|168:122,1,90
448,246,18518,2,0,B|344:262,1,90,8|0,0:0|0:0,0:0:0:0:
374,348,19096,1,2,0:0:0:0:
462,335,19384,1,0,0:0:0:0:
247,170,19673,1,8,0:0:0:0:
159,183,19962,1,0,0:0:0:0:
17,81,20250,6,0,B|-21:112|7:181,1,90,2|0,0:0|0:0,0:0:0:0:
159,183,20828,2,0,B|197:151|168:82,1,90,8|0,0:0|0:0,0:0:0:0:
52,272,21405,2,0,B|13:303|42:372,1,90,2|0,0:0|0:0,0:0:0:0:
192,373,21983,2,0,B|230:341|201:272,1,90,8|0,0:0|0:0,0:0:0:0:
219,282,22416,1,0,0:0:0:0:
230,274,22560,6,0,B|336:262,1,90,2|0,0:0|0:0,0:0:0:0:
458,89,23137,2,0,B|368:99,1,90,8|0,0:0|0:0,0:0:0:0:
359,89,23570,1,0,0:0:0:0:
349,79,23715,2,0,B|338:24|269:-1,1,90,2|0,0:0|0:0,0:0:0:0:
379,174,24292,2,4,B|398:272|522:317,1,180,8|4,0:0|0:0,0:0:0:0:
332,301,25158,5,0,0:0:0:0:
332,300,25447,2,0,B|341:358|271:394,1,90,8|0,0:0|0:0,0:0:0:0:
211,268,26024,2,0,B|155:247|158:168,1,90,2|0,0:0|0:0,0:0:0:0:
299,179,26601,2,0,B|344:141|411:183,1,90,8|0,0:0|0:0,0:0:0:0:
383,169,27179,5,2,0:0:0:0:
298,378,27468,1,0,0:0:0:0:
160,199,27756,1,8,0:0:0:0:
298,378,28045,1,0,0:0:0:0:
383,169,28334,5,2,0:0:0:0:
271,183,28622,1,0,0:0:0:0:
338,272,28911,1,8,0:0:0:0:
383,169,29200,1,0,0:0:0:0:
314,79,29488,6,0,B|328:22|392:13,1,90,2|0,0:0|0:0,0:0:0:0:
372,17,30066,1,8,0:0:0:0:
372,17,30354,1,0,0:0:0:0:
198,79,30643,2,0,B|184:22|120:13,1,90,2|0,0:0|0:0,0:0:0:0:
139,17,31220,1,8,0:0:0:0:
139,17,31509,1,0,0:0:0:0:
256,176,31798,6,0,B|256:272,1,90,2|8,0:0|0:0,0:0:0:0:
256,266,32231,1,8,0:0:0:0:
256,266,32375,1,12,0:0:0:0:
256,266,32664,5,4,0:0:0:0:
205,371,32953,2,0,B|144:365|135:289,1,90,8|8,0:3|0:0,0:0:0:0:
141,317,33386,1,8,0:0:0:0:
141,317,33530,1,12,0:0:0:0:
38,270,33819,1,8,0:3:0:0:
38,270,33963,1,8,0:0:0:0:
38,270,34107,6,4,B|48:209|123:192,1,90,12|10,0:0|0:0,0:0:0:0:
110,13,34685,2,4,B|157:52|135:125,1,90,8|10,0:0|0:0,0:0:0:0:
300,196,35262,2,8,B|242:217|189:161,1,90,8|10,0:0|0:0,0:0:0:0:
0,118,35839,6,4,B|57:96|110:152,1,90,8|10,0:0|0:0,0:0:0:0:
258,51,36417,2,4,B|247:111|173:128,1,90,8|10,0:0|0:0,0:0:0:0:
195,307,36994,2,8,B|147:267|169:193,1,90,8|10,0:0|0:0,0:0:0:0:
303,355,37571,6,0,L|408:321,1,90,8|10,0:0|0:0,0:0:0:0:
425,149,38149,2,8,B|472:188|450:262,1,90,8|10,0:0|0:0,0:0:0:0:
456,229,38582,1,8,0:0:0:0:
456,229,38726,1,12,0:0:0:0:
294,236,39015,5,10,0:0:0:0:
313,216,39304,1,8,0:0:0:0:
174,101,39592,1,10,0:0:0:0:
154,81,39881,1,8,0:0:0:0:
328,34,40170,5,10,0:0:0:0:
308,53,40458,1,8,0:0:0:0:
434,181,40747,1,10,0:0:0:0:
414,200,41036,1,8,0:0:0:0:
234,182,41324,5,10,0:0:0:0:
214,162,41613,1,8,0:0:0:0:
35,134,41902,1,10,0:0:0:0:
55,154,42190,1,8,0:0:0:0:
129,317,42479,5,10,0:0:0:0:
139,308,42623,1,12,0:3:0:0:
149,298,42768,1,8,0:0:0:0:
300,200,43056,1,10,0:0:0:0:
290,209,43201,1,8,0:3:0:0:
280,219,43345,2,0,L|176:214,1,90,12|10,0:0|0:0,0:0:0:0:
310,333,43922,6,0,L|414:338,1,90,8|10,0:0|0:0,0:0:0:0:
233,293,44500,2,0,L|228:397,1,90,8|10,0:0|0:0,0:0:0:0:
347,263,45077,2,0,L|352:159,1,90,8|10,0:0|0:0,0:0:0:0:
166,145,45655,6,0,L|270:150,1,90,8|10,0:0|0:0,0:0:0:0:
324,6,46232,2,0,L|319:110,1,90,8|10,0:0|0:0,0:0:0:0:
505,124,46809,2,0,L|401:119,1,90,8|10,0:0|0:0,0:0:0:0:
461,206,47387,2,0,L|357:201,1,90,8|10,0:0|0:0,0:0:0:0:
142,335,47964,6,0,L|246:340,1,90,8|10,0:0|0:0,0:0:0:0:
186,253,48541,2,0,L|290:258,1,90,8|10,0:0|0:0,0:0:0:0:
40,29,49119,2,0,L|35:133,1,90,8|10,0:0|0:0,0:0:0:0:
122,73,49696,6,0,L|117:177,1,90,8|10,0:0|0:0,0:0:0:0:
127,172,50129,1,8,0:0:0:0:
135,182,50274,1,8,0:0:0:0:
391,341,50562,1,8,0:0:0:0:
383,331,50707,1,8,0:0:0:0:
373,321,50851,2,0,L|377:231,1,90,8|8,0:3|0:0,0:0:0:0:
369,220,51284,1,8,0:0:0:0:
361,209,51428,1,8,0:0:0:0:
151,209,51717,5,12,0:0:0:0:
353,198,52006,1,12,0:0:0:0:
142,197,52294,5,8,0:0:0:0:
134,185,52439,1,8,0:0:0:0:
126,173,52583,1,14,0:0:0:0:
118,161,52727,1,8,0:0:0:0:
110,149,52872,1,8,0:0:0:0:
102,137,53016,1,8,0:0:0:0:
94,125,53160,1,10,0:0:0:0:
86,113,53305,1,8,0:0:0:0:
78,102,53449,1,8,0:0:0:0:
70,90,53593,1,8,0:0:0:0:
62,79,53738,1,14,0:0:0:0:
5,287,54315,5,10,0:0:0:0:
203,74,54892,6,8,L|225:15,3,45,14|8|8|8,0:0|0:0|0:0|0:0,0:0:0:0:
267,136,55470,2,8,L|329:125,3,45,10|8|8|8,0:0|0:0|0:0|0:0,0:0:0:0:
218,212,56047,2,8,P|232:292|292:367,1,180,14|10,0:0|0:0,0:0:0:0:
508,176,57202,5,14,0:0:0:0:
495,181,57346,1,8,0:0:0:0:
482,187,57491,1,8,0:0:0:0:
469,193,57635,1,8,0:0:0:0:
456,199,57779,1,10,0:0:0:0:
442,204,57924,1,8,0:0:0:0:
430,210,58068,1,8,0:0:0:0:
417,216,58212,1,8,0:0:0:0:
405,222,58357,1,14,0:0:0:0:
206,13,58934,5,10,0:0:0:0:
158,296,59511,6,8,L|112:344,3,45,14|8|8|8,0:0|0:0|0:0|0:0,0:0:0:0:
249,319,60089,2,8,L|267:382,3,45,10|8|8|8,0:0|0:0|0:0|0:0,0:0:0:0:
317,245,60666,2,0,P|359:182|467:107,1,180,14|10,0:0|0:0,0:0:0:0:
127,33,61821,5,14,0:0:0:0:
131,47,61965,1,8,0:0:0:0:
136,61,62110,1,8,0:0:0:0:
140,75,62254,1,8,0:0:0:0:
145,88,62398,1,10,0:0:0:0:
149,102,62543,1,8,0:0:0:0:
153,116,62687,1,8,0:0:0:0:
158,129,62831,1,8,0:0:0:0:
162,142,62976,1,14,0:0:0:0:
471,46,63553,5,10,0:0:0:0:
338,341,64130,6,8,L|263:352,1,45,14|8,0:0|0:0,0:0:0:0:
259,273,64419,2,8,L|184:284,1,45
133,269,64708,2,8,L|122:194,1,45,10|8,0:0|0:0,0:0:0:0:
201,190,64996,2,8,L|190:115,1,45
194,64,65285,2,8,P|278:92|379:83,1,180,14|10,0:0|0:0,0:0:0:0:
226,341,66440,5,14,0:0:0:0:
191,52,67018,1,8,0:0:0:0:
390,265,67595,1,14,0:0:0:0:
104,209,68172,1,8,0:0:0:0:
258,192,68749,5,12,0:0:0:0:
256,192,68894,12,8,70481,0:0:0:0:
