osu file format v12

[General]
AudioFilename: astaroth.mp3
AudioLeadIn: 0
PreviewTime: 34112
Countdown: 0
SampleSet: Soft
StackLeniency: 0.7
Mode: 0
LetterboxInBreaks: 0
WidescreenStoryboard: 0

[Editor]
DistanceSpacing: 1.1
BeatDivisor: 2
GridSize: 4

[Metadata]
Title:Astaroth
TitleUnicode:Astaroth
Artist:Mago de Oz
ArtistUnicode:Mago de Oz
Creator:Xanandra
Version:Hard
Source:
Tags:Nemis
BeatmapID:301978
BeatmapSetID:86069

[Difficulty]
HPDrainRate:6
CircleSize:4
OverallDifficulty:6
ApproachRate:7
SliderMultiplier:1.5
SliderTickRate:2

[Events]
//Background and Video events
0,0,"1.jpg",0,0
//Break Periods
//Storyboard Layer 0 (Background)
//Storyboard Layer 1 (Fail)
//Storyboard Layer 2 (Pass)
//Storyboard Layer 3 (Foreground)
//Storyboard Sound Samples
//Background Colour Transformations
3,100,163,162,255

[TimingPoints]
15632,577.367205542725,4,2,1,40,1,0
31798,-100,4,2,1,50,0,0
32375,-100,4,2,1,40,0,0
32664,-100,4,2,1,50,0,0
33241,-100,4,2,1,40,0,0
33530,-100,4,2,1,50,0,0
33819,-100,4,2,1,30,0,0
34107,-100,4,2,1,40,0,0
52583,-100,4,2,1,50,0,0
66440,-100,4,2,1,60,0,0
67017,-100,4,2,1,50,0,0
67595,-100,4,2,1,60,0,0
67883,-100,4,2,1,50,0,0
68172,-100,4,2,1,40,0,0
68461,-100,4,2,1,30,0,0
68749,-100,4,2,1,20,0,0

[Colours]
Combo1 : 200,159,140
Combo2 : 81,2,4
Combo3 : 230,202,176
Combo4 : 151,0,0

[HitObjects]
64,56,15632,2,0,P|64:104|72:136,1,75,4|0,1:0|0:0,0:0:0:0:
136,176,16209,2,0,L|288:160,1,150,8|0,1:0|1:0,0:0:0:0:
360,128,17075,1,2,0:0:0:0:
432,168,17364,2,0,P|440:128|424:72,1,75,8|2,1:0|0:0,0:0:0:0:
360,128,17941,6,0,P|352:168|368:224,1,75,0|0,1:0|0:0,0:0:0:0:
396,276,18518,2,0,L|244:288,1,150,8|0,1:0|1:0,0:0:0:0:
180,336,19384,1,2,0:0:0:0:
136,268,19673,2,0,L|60:256,1,75,8|2,1:0|0:0,0:0:0:0:
4,196,20250,6,0,P|0:152|8:116,1,75,0|0,1:0|0:0,0:0:0:0:
48,52,20828,2,0,L|124:44,1,75,8|0,1:0|0:0,0:0:0:0:
180,104,21405,2,0,L|340:88,1,150,0|8,1:0|1:0,0:0:0:0:
408,68,22271,1,0,0:0:0:0:
480,108,22560,6,0,P|488:84|480:24,1,75,0|0,1:0|0:0,0:0:0:0:
408,68,23137,2,0,P|400:92|408:152,1,75,8|2,1:0|0:0,0:0:0:0:
444,212,23715,2,0,L|436:288,1,75,0|2,1:0|0:0,0:0:0:0:
352,288,24292,2,0,L|359:213,1,75,8|2,1:0|0:0,0:0:0:0:
280,240,24869,6,0,P|212:248|112:224,1,150,4|8,1:0|1:0,0:0:0:0:
64,184,25735,1,0,0:0:0:0:
140,152,26024,2,0,P|148:120|140:64,1,75,0|2,1:0|0:0,0:0:0:0:
68,110,26601,2,0,P|59:146|63:183,1,75,8|2,1:0|0:0,0:0:0:0:
140,152,27179,6,0,P|176:144|296:168,1,150,0|8,1:0|1:0,0:0:0:0:
320,240,28045,2,0,P|332:288|348:312,2,75,0|0|2,0:0|1:0|0:0,0:0:0:0:
372,176,28911,2,0,P|388:144|392:100,1,75,8|0,1:0|0:0,0:0:0:0:
320,68,29488,6,0,L|244:60,1,75,0|0,1:0|0:0,0:0:0:0:
164,72,30066,1,8,1:0:0:0:
188,152,30354,1,0,0:0:0:0:
188,152,30643,2,0,P|192:208|160:296,1,150,0|8,1:0|1:0,0:0:0:0:
80,320,31509,1,0,0:0:0:0:
20,264,31798,6,0,P|16:208|48:120,1,150,4|8,1:2|1:0,0:0:0:0:
52,124,32664,2,2,L|205:116,1,150,6|2,0:0|0:0,0:0:0:0:
197,112,33530,2,0,L|208:36,1,75,8|2,1:0|0:0,0:0:0:0:
284,72,34107,6,0,P|276:144|268:224,2,150,4|8|0,1:0|1:0|1:0,0:0:0:0:
364,60,35551,2,0,L|440:52,2,75,2|8|2,0:0|1:0|0:0,0:0:0:0:
356,144,36417,6,0,P|356:192|396:288,1,150,0|8,1:0|1:0,0:0:0:0:
460,340,37283,2,0,P|468:324|472:244,1,75,0|0,0:0|1:0,0:0:0:0:
412,204,37860,1,2,0:0:0:0:
323,228,38149,2,0,P|309:262|308:300,1,75,8|2,1:0|0:0,0:0:0:0:
316,216,38726,6,0,L|164:196,1,150,0|8,1:0|1:0,0:0:0:0:
88,172,39592,2,0,P|88:208|104:268,1,75,0|0,0:0|1:0,0:0:0:0:
168,196,40170,2,0,P|168:160|152:100,1,75,0|8,0:0|1:0,0:0:0:0:
84,88,40747,1,0,0:0:0:0:
160,121,41036,6,0,P|236:120|328:80,1,150,0|8,1:0|1:0,0:0:0:0:
360,32,41902,1,2,0:0:0:0:
416,92,42190,2,0,P|424:116|424:172,1,75,0|2,1:0|0:0,0:0:0:0:
360,216,42768,2,0,P|352:192|352:136,1,75,8|2,1:0|0:0,0:0:0:0:
440,244,43345,6,0,P|392:240|292:284,1,150,4|8,1:0|1:0,0:0:0:0:
328,356,44211,2,0,L|404:368,2,75,0|0|2,0:0|0:0|0:0,0:0:0:0:
248,340,45077,2,0,L|174:349,1,75,8|2,1:0|0:0,0:0:0:0:
124,284,45655,6,0,P|104:224|120:136,1,150,0|8,1:0|1:0,0:0:0:0:
156,64,46521,1,0,0:0:0:0:
228,104,46809,2,0,P|284:100|312:96,1,75,0|2,1:0|0:0,0:0:0:0:
380,64,47387,2,0,P|384:100|392:152,1,75,8|2,1:0|0:0,0:0:0:0:
472,152,47964,6,0,P|468:224|456:324,1,150,0|8,1:0|1:0,0:0:0:0:
384,336,48830,1,0,0:0:0:0:
308,300,49119,2,0,L|152:312,1,150,0|8,1:0|1:0,1:0:0:0:
76,304,49985,1,0,0:0:0:0:
40,228,50274,6,0,P|44:192|64:148,1,75,0|0,1:0|0:0,0:0:0:0:
136,124,50851,2,0,P|180:120|220:104,2,75,8|2|0,1:0|0:0|1:0,0:0:0:0:
68,76,51717,2,2,P|56:40|24:0,2,75,10|8|10,0:0|1:0|0:0,0:0:0:0:
136,124,52583,6,0,P|208:112|280:56,1,150,4|8,1:0|1:0,0:0:0:0:
336,20,53449,1,0,0:0:0:0:
416,32,53738,2,0,L|492:40,1,75,0|2,1:0|0:0,0:0:0:0:
480,120,54315,2,0,L|405:112,1,75,8|2,1:0|0:0,0:0:0:0:
388,192,54892,6,0,P|388:256|420:340,2,150,0|8|0,1:0|1:0|1:0,0:0:0:0:
400,108,56336,1,2,0:0:0:0:
316,100,56625,2,0,L|236:92,1,75,8|2,1:0|0:0,0:0:0:0:
216,172,57202,6,0,P|160:192|40:188,1,150,0|8,1:0|1:0,0:0:0:0:
8,140,58068,2,0,P|8:100|28:44,1,75,0|0,0:0|1:0,0:0:0:0:
96,40,58645,2,0,P|96:80|76:136,1,75,0|8,0:0|1:0,0:0:0:0:
72,196,59223,1,0,0:0:0:0:
0,236,59511,6,0,P|20:260|128:256,1,150,0|8,1:0|1:0,0:0:0:0:
160,184,60377,2,0,L|236:176,1,75,2|0,0:0|1:0,0:0:0:0:
316,196,60955,2,0,P|316:168|328:108,2,75,2|8|2,0:0|1:0|0:0,0:0:0:0:
396,176,61821,6,0,P|392:252|384:332,2,150,0|8|0,1:0|1:0|1:0,0:0:0:0:
316,196,63264,2,0,L|240:188,1,75,2|8,0:0|1:0,0:0:0:0:
176,236,63842,1,2,0:0:0:0:
96,220,64130,6,0,P|88:192|76:72,1,150,0|8,1:0|1:0,0:0:0:0:
144,28,64996,1,0,0:0:0:0:
212,72,65285,2,0,L|288:60,1,75,0|2,1:0|0:0,0:0:0:0:
336,128,65862,2,0,L|412:136,1,75,8|2,1:0|0:0,0:0:0:0:
492,116,66440,6,0,P|488:192|448:280,1,150,4|8,1:0|1:0,0:0:0:0:
400,316,67306,1,0,0:0:0:0:
316,308,67595,2,6,L|240:300,1,75,4|0,1:0|0:0,0:0:0:0:
160,316,68172,2,2,L|168:240,1,75,8|0,1:0|0:0,0:0:0:0:
256,192,68749,12,4,70481,1:0:0:0:
