osu file format v12

[General]
AudioFilename: Song of the Night Sparrow (Magnum Opus Remix).mp3
AudioLeadIn: 0
PreviewTime: 62805
Countdown: 0
SampleSet: Normal
StackLeniency: 0.8
Mode: 0
LetterboxInBreaks: 1
EpilepsyWarning: 1
WidescreenStoryboard: 0

[Editor]
Bookmarks: 15778,42048,51129,62805,73183,93940,114697,135454,145183,154913,175670,191237,211994,232751
DistanceSpacing: 1
BeatDivisor: 4
GridSize: 8

[Metadata]
Title:Song of the Night Sparrow
TitleUnicode:Song of the Night Sparrow
Artist:Magnum Opus
ArtistUnicode:Magnum Opus
Creator:Kan-ya
Version:Normal
Source:Touhou
Tags:ZUN Mystia Lorelei night bird Genro Yugessho Imperishable sin and millennium history 東方 永夜抄 ミスティア・ローレライ 夜雀の歌声 lZenxl CQ
BeatmapID:334305
BeatmapSetID:102923

[Difficulty]
HPDrainRate:4
CircleSize:4
OverallDifficulty:4
ApproachRate:5
SliderMultiplier:0.7
SliderTickRate:1

[Events]
//Background and Video events
0,0,"mystia-yang.jpg",0,0
//Break Periods
2,42068,49949
2,135474,144328
//Storyboard Layer 0 (Background)
//Storyboard Layer 1 (Fail)
//Storyboard Layer 2 (Pass)
//Storyboard Layer 3 (Foreground)
//Storyboard Sound Samples
//Background Colour Transformations
3,100,134,43,124

[TimingPoints]
5420,324.324324324324,4,1,1,70,1,0
42068,-100,4,2,0,90,0,0
62825,-100,4,1,1,70,0,0
73203,-100,4,2,0,90,0,0
93960,-100,4,1,1,70,0,0
104338,-80,4,1,1,70,0,1
114697,-100,4,1,1,70,0,0
175690,-100,4,2,0,90,0,0
191257,-100,4,2,0,90,0,0
201636,-100,4,2,0,90,0,1
212014,-100,4,1,1,70,0,0
222392,-80,4,1,1,70,0,1
232751,-100,4,1,1,70,0,0

[Colours]
Combo1 : 129,129,129
Combo2 : 117,183,255
Combo3 : 221,141,252
Combo4 : 205,205,205
Combo5 : 206,103,0
Combo6 : 204,0,5

[HitObjects]
96,192,15798,54,0,B|96:112|96:112|144:64,1,140,8|0,0:0|0:0,0:0:0:0:
228,68,16771,1,0,0:0:0:0:
272,68,16933,1,0,0:0:0:0:
364,68,17257,2,0,B|420:68|420:68|456:104,1,105
380,156,18068,1,0,0:0:0:0:
364,68,18392,6,0,B|284:68|284:68|236:116,1,140,8|0,0:0|0:0,0:0:0:0:
316,164,19365,1,0,0:0:0:0:
284,196,19528,1,0,0:0:0:0:
192,208,19852,2,0,B|204:264|204:264|252:280,1,105
340,288,20663,5,0,0:0:0:0:
384,288,20825,2,0,B|460:288,2,70,8|0|0,0:0|0:0|0:0,0:0:0:0:
384,244,21636,1,0,0:0:0:0:
384,152,21960,2,0,L|383:102,1,35,0|8,0:0|0:0,0:0:0:0:
312,60,22447,2,0,B|254:28|254:28|136:28,1,175
192,104,23582,54,0,B|192:184|192:184|144:232,1,140,8|0,0:0|0:0,0:0:0:0:
100,152,24555,2,0,L|56:152,1,35
32,236,25041,2,0,L|146:236,1,105
224,268,25852,1,0,0:0:0:0:
308,236,26176,6,0,B|371:235|371:235|411:163,1,140,8|0,0:0|0:0,0:0:0:0:
368,84,27149,1,0,0:0:0:0:
324,84,27311,1,0,0:0:0:0:
240,124,27636,2,0,B|200:164|200:164|80:164,1,175
132,88,28771,6,0,B|52:88|52:88|4:136,1,140,8|0,0:0|0:0,0:0:0:0:
92,168,29744,1,0,0:0:0:0:
112,208,29906,1,0,0:0:0:0:
160,284,30230,2,0,B|288:284|288:284|320:284,1,140
336,256,31041,54,0,L|364:228,1,35,0|8,0:0|0:0,0:0:0:0:
396,144,31690,2,0,L|396:64,1,70
304,68,32338,2,0,L|268:68,1,35,0|8,0:0|0:0,0:0:0:0:
176,68,32825,2,0,B|88:68|88:68|16:132,1,175
108,156,33960,6,0,B|164:204|164:204|164:276,1,140,8|0,0:0|0:0,0:0:0:0:
248,304,34933,2,0,L|248:352,1,35
332,304,35419,2,0,L|460:304,1,105
436,212,36230,1,0,0:0:0:0:
360,164,36555,6,0,L|360:84,1,70,8|0,0:0|0:0,0:0:0:0:
316,92,37041,2,0,L|260:36,1,70
128,44,37852,2,0,L|74:99,1,70,8|0,0:0|0:0,0:0:0:0:
32,96,38338,2,0,L|32:206,1,105
100,260,39149,53,0,0:0:0:0:
192,260,39474,1,0,0:0:0:0:
268,308,39798,2,2,B|304:292|308:320|364:308,1,70
316,224,40447,2,2,B|352:208|356:236|412:224,1,70
112,64,51149,38,0,B|192:64|192:64|224:64,1,105,2|0,0:0|0:0,0:0:0:0:
248,128,51960,2,0,B|296:128|296:128|360:128,1,105,0|2,0:0|0:0,0:0:0:0:
392,192,52771,1,0,0:0:0:0:
392,192,52933,1,0,0:0:0:0:
248,192,53744,1,2,0:0:0:0:
256,320,54392,6,0,L|336:320,1,70,0|0,0:0|0:0,0:0:0:0:
344,248,55041,2,0,L|440:248,1,70,2|0,0:0|0:0,0:0:0:0:
448,248,55528,1,0,0:0:0:0:
344,112,56338,1,2,0:0:0:0:
200,112,56987,1,0,0:0:0:0:
64,112,57636,6,0,L|64:168|64:192,1,70,2|0,0:0|0:0,0:0:0:0:
64,216,58122,1,0,0:0:0:0:
176,344,58933,1,2,0:0:0:0:
320,344,59582,54,0,L|390:344,2,70,0|0|2,0:0|0:0|0:0,0:0:0:0:
285,272,60555,1,0,0:0:0:0:
285,272,60717,1,0,0:0:0:0:
288,168,61203,1,0,0:0:0:0:
192,120,61528,6,0,L|116:120,3,70,2|0|0|0,0:0|0:0|0:0|0:0,0:0:0:0:
72,168,62825,22,0,B|72:216|72:216|72:312,1,140,8|0,0:0|0:0,0:0:0:0:
160,280,63798,1,0,0:0:0:0:
192,280,63960,1,0,0:0:0:0:
280,304,64284,2,0,B|392:304,1,105
336,224,65095,2,0,L|336:152,1,70,0|8,0:0|0:0,0:0:0:0:
424,184,65744,6,0,L|424:96,1,70
368,48,66392,2,0,L|320:48|320:48,1,35,0|0,0:0|0:0,0:0:0:0:
240,48,66879,2,0,L|144:48,1,70,0|0,0:0|0:0,0:0:0:0:
128,48,67365,1,0,0:0:0:0:
64,120,67690,6,0,L|64:200,1,70,0|8,0:0|0:0,0:0:0:0:
128,256,68338,1,0,0:0:0:0:
160,336,68663,2,0,P|192:352|224:336,1,70
240,296,69149,1,8,0:0:0:0:
328,296,69474,1,0,0:0:0:0:
344,336,69636,2,0,P|373:351|405:339,1,70
456,264,70284,1,0,0:0:0:0:
456,176,70609,54,0,B|456:96|456:96|408:48,1,140,8|0,0:0|0:0,0:0:0:0:
336,96,71582,1,0,0:0:0:0:
288,96,71744,1,0,0:0:0:0:
208,48,72068,6,0,B|96:48|96:48|128:128|88:200,1,245,0|4,0:0|0:0,0:0:0:0:
376,192,74501,22,0,L|376:112,2,70,2|0|0,0:0|0:0|0:0,0:0:0:0:
304,192,75474,2,0,L|304:256,1,35,0|0,0:0|0:0,0:0:0:0:
304,296,75960,2,0,L|304:336,1,35
416,224,76933,1,2,0:0:0:0:
464,56,77744,6,0,P|416:24|336:24,1,140,0|2,0:0|0:0,0:0:0:0:
232,32,78879,2,0,L|109:32,1,105
127,102,79690,6,0,L|127:198,1,70,2|0,0:0|0:0,0:0:0:0:
127,241,80338,2,0,L|126:304,3,35,0|0|0|2,0:0|0:0|0:0|0:0,0:0:0:0:
368,192,82284,54,0,L|368:304,2,105,2|0|0,0:0|0:0|0:0,0:0:0:0:
297,192,83582,2,0,L|297:301,1,105,2|0,0:0|0:0,0:0:0:0:
168,192,84879,1,2,0:0:0:0:
88,80,85528,6,0,L|40:80|8:80,2,70,0|0|2,0:0|0:0|0:0,0:0:0:0:
160,80,86501,2,0,L|208:80,1,35
360,144,87474,1,2,0:0:0:0:
256,240,88122,1,0,0:0:0:0:
112,240,88771,5,2,0:0:0:0:
72,184,89095,1,0,0:0:0:0:
72,184,89257,1,0,0:0:0:0:
184,48,90068,1,2,0:0:0:0:
296,136,90717,54,0,L|216:136,2,70,0|0|2,0:0|0:0|0:0,0:0:0:0:
344,184,91690,2,0,L|344:240,1,35
344,320,92338,1,0,0:0:0:0:
272,320,92663,2,0,P|240:256|272:192,1,140,2|0,0:0|0:0,0:0:0:0:
128,80,93960,38,0,L|128:240,1,140,8|0,0:0|0:0,0:0:0:0:
200,280,94933,1,0,0:0:0:0:
232,312,95095,1,0,0:0:0:0:
320,312,95419,2,0,B|384:248|384:248|384:152,1,175
304,128,96555,6,0,B|344:72|344:72|424:72,2,140,8|0|8,0:0|0:0|0:0,0:0:0:0:
304,216,98176,1,0,0:0:0:0:
304,304,98501,1,0,0:0:0:0:
224,352,98825,6,0,L|136:352,1,70,0|8,0:0|0:0,0:0:0:0:
154,317,99311,2,0,B|154:237|154:237|154:213,2,105,0|0|0,0:0|0:0|0:0,0:0:0:0:
216,348,100609,2,0,B|296:348|296:348|400:348,1,175
368,280,101744,54,0,B|424:280|424:280|472:200,1,140,8|0,0:0|0:0,0:0:0:0:
432,128,102717,1,0,0:0:0:0:
432,80,102879,1,0,0:0:0:0:
352,32,103203,2,0,L|304:120,1,70
344,136,103690,2,0,B|312:200|312:200|240:200,1,140,0|8,0:0|0:0,0:0:0:0:
160,96,104987,5,8,0:0:0:0:
256,32,105636,1,8,0:0:0:0:
352,96,106284,1,8,0:0:0:0:
400,128,106609,2,0,B|420:164|420:164|392:216,1,87.5,0|8,0:0|0:0,0:0:0:0:
352,288,107582,5,8,0:0:0:0:
256,336,108231,1,8,0:0:0:0:
160,288,108879,1,8,0:0:0:0:
128,240,109203,2,0,B|100:204|100:204|120:164,1,87.5,0|8,0:0|0:0,0:0:0:0:
160,96,110176,53,8,0:0:0:0:
256,48,110825,1,8,0:0:0:0:
256,160,111474,1,8,0:0:0:0:
256,271,112122,6,0,B|344:268|344:268|416:216,1,175,8|8,0:0|0:0,0:0:0:0:
452,180,113095,2,0,B|428:-44|200:40,1,350
216,128,114717,6,0,B|168:176|168:176|168:256,1,140,8|0,0:0|0:0,0:0:0:0:
80,232,115690,2,0,P|72:296|192:336,1,210
256,280,116987,1,0,0:0:0:0:
328,336,117311,54,0,B|392:336|392:336|456:272,1,140,8|0,0:0|0:0,0:0:0:0:
392,208,118284,2,0,P|328:208|320:104,1,175
392,72,119419,6,0,B|360:40|360:40|296:40,1,105,0|8,0:0|0:0,0:0:0:0:
208,40,120230,1,0,0:0:0:0:
258,207,120879,2,0,P|163:241|88:176,1,210
184,152,122176,1,0,0:0:0:0:
256,96,122501,2,0,P|296:72|384:120,1,140,8|0,0:0|0:0,0:0:0:0:
376,192,123474,6,0,L|376:264,1,70,0|8,0:0|0:0,0:0:0:0:
320,296,123960,2,0,P|296:232|312:165,1,140
400,32,125095,54,0,L|260:32,1,140,8|0,0:0|0:0,0:0:0:0:
168,32,126068,2,0,B|104:96|104:96|104:216,1,210,0|0,0:0|0:0,0:0:0:0:
168,280,127365,1,0,0:0:0:0:
216,200,127690,2,0,B|258:242|258:242|258:322,1,140,8|0,0:0|0:0,0:0:0:0:
352,328,128663,6,0,B|424:328|424:328|480:192,1,210
480,152,129798,2,0,B|440:120|440:120|384:120,1,105,0|8,0:0|0:0,0:0:0:0:
328,48,130609,1,0,0:0:0:0:
168,128,131257,6,0,B|117:199|117:199|117:287,1,175
136,316,132230,2,0,L|208:316,1,70,0|0,0:0|0:0,0:0:0:0:
276,316,132879,1,8,0:0:0:0:
344,316,133203,1,0,0:0:0:0:
412,192,133852,54,0,L|342:192,1,70,0|8,0:0|0:0,0:0:0:0:
308,192,134338,2,0,B|252:176|212:208|156:192,1,140
256,40,145528,6,0,B|336:40|336:40|384:88,2,140,8|8|8,0:0|0:0|0:0,0:0:0:0:
256,112,147149,1,0,0:0:0:0:
256,184,147474,1,8,0:0:0:0:
256,256,147798,1,0,0:0:0:0:
256,328,148122,6,0,B|176:328|176:328|120:282,2,140,8|8|8,0:0|0:0|0:0,0:0:0:0:
256,256,149744,1,0,0:0:0:0:
256,184,150068,1,8,0:0:0:0:
256,112,150392,1,0,0:0:0:0:
256,40,150717,54,0,B|336:40|336:40|400:104,2,140,8|8|8,0:0|0:0|0:0,0:0:0:0:
184,40,152338,1,0,0:0:0:0:
112,40,152663,1,8,0:0:0:0:
40,40,152987,2,0,L|40:88,2,35,0|0|8,0:0|0:0|0:0,0:0:0:0:
40,144,153798,2,0,L|88:144,2,35,0|8|0,0:0|0:0|0:0,0:0:0:0:
164,268,154933,6,0,P|112:212|124:152,1,140
184,196,155906,1,0,0:0:0:0:
245,237,156230,2,0,P|253:170|204:124,1,140
132,112,157203,1,0,0:0:0:0:
108,180,157528,6,0,P|132:256|192:296,1,140
248,308,158501,1,0,0:0:0:0:
260,240,158825,2,0,P|236:164|176:124,1,140
197,285,160122,54,0,B|240:328|240:328|320:328,1,140,8|0,0:0|0:0,0:0:0:0:
272,232,161095,2,0,P|384:232|448:152,1,210,0|0,0:0|0:0,0:0:0:0:
255,51,162717,6,0,P|238:99|264:144,2,105,8|0|0,0:0|0:0|0:0,0:0:0:0:
314,92,164014,2,0,B|356:122|347:175|336:221|277:247|197:222|188:160,1,280,0|8,0:0|0:0,0:0:0:0:
224,80,165636,6,0,P|96:80|64:96,1,140,0|0,0:0|0:0,0:0:0:0:
64,152,166609,2,0,P|80:219|128:268,1,140,8|0,0:0|0:0,0:0:0:0:
200,264,167582,2,0,P|256:192|256:128,1,140,0|0,0:0|0:0,0:0:0:0:
288,80,168555,54,0,L|352:136,1,70,0|0,0:0|0:0,0:0:0:0:
392,80,169203,2,0,L|464:136|464:136,1,70,8|0,0:0|0:0,0:0:0:0:
408,184,169852,2,0,B|472:232|472:232|472:296,1,140,0|8,0:0|0:0,0:0:0:0:
400,288,170825,6,0,L|330:288,1,70,0|0,0:0|0:0,0:0:0:0:
224,288,171636,2,0,P|135:278|87:214,1,175
256,152,173095,1,8,0:0:0:0:
256,192,173419,12,4,175690,0:0:0:0:
48,272,176663,22,2,P|79:296|175:296,1,140,2|0,0:0|0:0,0:0:0:0:
228,248,177636,2,2,P|252:217|252:121,1,140,2|0,0:0|0:0,0:0:0:0:
212,64,178609,2,2,P|181:40|85:40,1,140,2|0,0:0|0:0,0:0:0:0:
32,84,179582,6,0,P|16:120|28:160,1,70,2|0,0:0|0:0,0:0:0:0:
60,208,180230,2,0,P|96:224|136:212,1,70,2|0,0:0|0:0,0:0:0:0:
176,172,180879,2,0,P|192:136|180:96,1,70,2|0,0:0|0:0,0:0:0:0:
256,100,181528,6,0,P|328:84|396:104,1,140,2|0,0:0|0:0,0:0:0:0:
464,104,182501,1,0,0:0:0:0:
472,136,182663,2,0,P|484:200|468:280,1,140
448,296,183474,2,0,P|376:312|308:292,1,140,2|0,0:0|0:0,0:0:0:0:
248,264,184447,54,0,B|217:248|201:280|181:268,1,70,0|2,0:0|0:0,0:0:0:0:
144,264,184933,2,0,P|132:208|148:164,2,105
248,288,186392,1,2,0:0:0:0:
320,288,186717,2,0,B|352:280|368:293|400:288,1,70
256,192,187365,12,4,191257,0:0:0:0:
408,296,192392,6,0,B|400:248|416:216|408:168,1,105,0|8,0:0|0:0,0:0:0:0:
416,120,193203,1,0,0:0:0:0:
344,120,193528,1,8,0:0:0:0:
344,120,193690,1,0,0:0:0:0:
272,120,194014,1,0,0:0:0:0:
272,120,194176,2,0,L|196:120|108:120,1,140,8|8,0:0|0:0,0:0:0:0:
76,168,194987,6,0,P|84:304|124:336,1,175,0|0,0:0|0:0,0:0:0:0:
172,324,195960,2,0,L|220:324,2,35,0|8|0,0:0|0:0|0:0,0:0:0:0:
256,192,196771,12,8,199690,0:0:0:0:
48,192,200338,54,0,L|160:192,1,105,8|0,0:0|0:0,0:0:0:0:
256,192,201311,2,0,L|336:192,1,70,0|8,0:0|0:0,0:0:0:0:
400,192,201960,2,0,L|448:192,1,35
472,192,202284,6,0,P|472:256|456:280,1,70,8|0,0:0|0:0,0:0:0:0:
432,320,202933,2,0,P|392:352|368:352,1,70,8|0,0:0|0:0,0:0:0:0:
304,352,203582,6,0,L|208:352,1,70,8|0,0:0|0:0,0:0:0:0:
168,352,204230,1,8,0:0:0:0:
96,352,204555,2,0,L|32:352,1,35
24,352,204879,54,0,L|24:264,1,70,8|0,0:0|0:0,0:0:0:0:
88,256,205528,2,0,L|88:184,1,70,8|0,0:0|0:0,0:0:0:0:
152,160,206176,2,0,L|152:80,1,70,8|0,0:0|0:0,0:0:0:0:
200,40,206825,5,8,0:0:0:0:
272,40,207149,2,0,L|320:40,1,35
328,72,207474,5,8,0:0:0:0:
368,128,207798,1,0,0:0:0:0:
368,200,208122,1,8,0:0:0:0:
328,256,208447,1,0,0:0:0:0:
256,256,208771,53,8,0:0:0:0:
216,200,209095,1,0,0:0:0:0:
216,128,209419,1,8,0:0:0:0:
264,72,209744,2,0,L|312:72,1,35
456,152,210717,2,0,L|456:296,1,140,8|0,0:0|0:0,0:0:0:0:
396,328,211690,2,0,L|326:328,1,70,0|8,0:0|0:0,0:0:0:0:
184,240,212663,37,0,0:0:0:0:
120,176,212987,1,0,0:0:0:0:
120,144,213149,1,0,0:0:0:0:
208,112,213474,2,0,P|160:48|56:80,1,175
72,152,214609,6,0,B|40:216|40:216|40:296,2,140,8|0|8,0:0|0:0|0:0,0:0:0:0:
104,120,216068,2,0,B|168:88|168:88|220:88,1,105
288,112,216879,1,0,0:0:0:0:
336,112,217041,1,0,0:0:0:0:
424,144,217365,6,0,B|424:196|424:196|372:224,2,105,0|0|0,0:0|0:0|0:0,0:0:0:0:
352,88,218663,2,0,L|272:88,1,70
272,128,219149,2,0,L|192:128,1,70,8|0,0:0|0:0,0:0:0:0:
144,200,219798,54,0,B|64:200|64:200|16:152,2,140,8|0|8,0:0|0:0|0:0,0:0:0:0:
232,200,221419,1,0,0:0:0:0:
320,200,221744,2,0,B|384:200|384:200|448:136,1,140,0|8,0:0|0:0,0:0:0:0:
384,24,223041,5,8,0:0:0:0:
256,80,223690,1,8,0:0:0:0:
128,24,224338,1,8,0:0:0:0:
136,96,224663,1,0,0:0:0:0:
64,104,224987,5,8,0:0:0:0:
176,192,225636,1,8,0:0:0:0:
64,280,226284,1,8,0:0:0:0:
200,232,226933,1,8,0:0:0:0:
256,272,227257,1,0,0:0:0:0:
312,232,227582,53,8,0:0:0:0:
448,192,228230,1,8,0:0:0:0:
312,152,228879,1,8,0:0:0:0:
256,24,229528,2,0,L|256:116,1,87.5,8|0,0:0|0:0,0:0:0:0:
256,196,230176,1,8,0:0:0:0:
220,272,230825,6,0,B|141:355|18:314|-22:191|18:68|141:27|223:99,1,525,8|8,0:0|0:0,0:0:0:0:
240,192,233257,5,0,0:0:0:0:
280,96,233744,1,0,0:0:0:0:
320,152,234068,1,0,0:0:0:0:
320,224,234392,1,0,0:0:0:0:
280,280,234717,1,0,0:0:0:0:
256,192,235041,12,0,236987,0:0:0:0:
88,224,237311,54,0,L|88:144,1,70
172,154,238122,2,0,L|172:74,1,70
256,84,238933,2,4,L|256:4,1,70
