osu file format v12

[General]
AudioFilename: Song of the Night Sparrow (Magnum Opus Remix).mp3
AudioLeadIn: 0
PreviewTime: 62805
Countdown: 0
SampleSet: Normal
StackLeniency: 0.8
Mode: 0
LetterboxInBreaks: 1
EpilepsyWarning: 1
WidescreenStoryboard: 0

[Editor]
Bookmarks: 15778,42048,51129,62805,73183,93940,114697,135454,145183,154913,175670,191237,211994,232751
DistanceSpacing: 1.4
BeatDivisor: 4
GridSize: 4

[Metadata]
Title:Song of the Night Sparrow
TitleUnicode:Song of the Night Sparrow
Artist:Magnum Opus
ArtistUnicode:Magnum Opus
Creator:Kan-ya
Version:Lunatic
Source:Touhou
Tags:ZUN Mystia Lorelei night bird Genro Yugessho Imperishable sin and millennium history 東方 永夜抄 ミスティア・ローレライ 夜雀の歌声 lZenxl CQ
BeatmapID:334304
BeatmapSetID:102923

[Difficulty]
HPDrainRate:6
CircleSize:5
OverallDifficulty:7
ApproachRate:9
SliderMultiplier:1.4
SliderTickRate:2

[Events]
//Background and Video events
0,0,"mystia-yang.jpg",0,0
//Break Periods
2,42268,50549
2,135474,144603
//Storyboard Layer 0 (Background)
//Storyboard Layer 1 (Fail)
//Storyboard Layer 2 (Pass)
//Storyboard Layer 3 (Foreground)
//Storyboard Sound Samples
//Background Colour Transformations
3,100,85,85,85

[TimingPoints]
5420,324.324324324324,4,1,1,70,1,0
42068,-100,4,2,0,90,0,0
62825,-100,4,1,1,70,0,0
73203,-100,4,2,0,90,0,0
93311,-200,4,2,0,90,0,0
93960,-100,4,1,1,70,0,0
104338,-80,4,1,1,70,0,1
114717,-100,4,1,1,70,0,0
175690,-100,4,2,0,90,0,0
191257,-100,4,2,0,90,0,0
201636,-100,4,2,0,90,0,1
212014,-100,4,1,1,70,0,0
222392,-80,4,1,1,70,0,1
232771,-100,4,1,1,70,0,0

[Colours]
Combo1 : 129,129,129
Combo2 : 117,183,255
Combo3 : 221,141,252
Combo4 : 205,205,205
Combo5 : 206,103,0
Combo6 : 204,0,5

[HitObjects]
160,64,15798,54,0,L|240:64,1,70,0|0,0:0|0:0,0:0:0:0:
328,64,16122,1,8,0:0:0:0:
420,96,16284,2,0,P|468:160|468:176,1,70,0|0,0:0|0:0,0:0:0:0:
465,237,16609,2,0,P|448:268|420:288,2,70,0|8|0,0:0|0:0|0:0,0:0:0:0:
376,196,17095,1,0,0:0:0:0:
292,144,17257,6,0,L|212:144|212:144,1,70,0|8,0:0|0:0,0:0:0:0:
136,196,17582,1,0,0:0:0:0:
136,100,17744,1,0,0:0:0:0:
224,60,17906,1,0,0:0:0:0:
256,60,17987,1,0,0:0:0:0:
288,60,18068,1,8,0:0:0:0:
376,100,18230,1,0,0:0:0:0:
376,196,18392,6,0,L|312:260,1,70,0|0,0:0|0:0,0:0:0:0:
256,316,18717,1,8,0:0:0:0:
184,248,18879,2,0,L|120:168,1,70,0|0,0:0|0:0,0:0:0:0:
224,144,19203,1,0,0:0:0:0:
256,144,19284,1,0,0:0:0:0:
288,144,19365,2,0,L|368:144,1,70,8|0,0:0|0:0,0:0:0:0:
432,80,19690,1,0,0:0:0:0:
504,144,19852,54,0,L|504:228,1,70,0|8,0:0|0:0,0:0:0:0:
436,284,20176,1,0,0:0:0:0:
360,344,20338,2,0,L|280:344,1,70,0|0,0:0|0:0,0:0:0:0:
256,344,20582,1,0,0:0:0:0:
220,344,20663,6,0,B|180:344|180:344|140:304,1,70,8|0,0:0|0:0,0:0:0:0:
152,224,20987,1,0,0:0:0:0:
180,132,21149,2,0,L|260:132,1,70,0|8,0:0|0:0,0:0:0:0:
216,224,21474,2,0,L|292:224,1,70,0|0,0:0|0:0,0:0:0:0:
256,312,21798,1,0,0:0:0:0:
292,312,21879,1,0,0:0:0:0:
328,312,21960,2,0,L|416:312,1,70,8|0,0:0|0:0,0:0:0:0:
440,224,22284,1,0,0:0:0:0:
412,128,22447,6,0,L|328:128,1,70,0|8,0:0|0:0,0:0:0:0:
380,36,22771,1,0,0:0:0:0:
284,36,22933,1,0,0:0:0:0:
192,64,23095,1,0,0:0:0:0:
164,84,23176,1,0,0:0:0:0:
152,116,23257,1,8,0:0:0:0:
164,148,23338,1,0,0:0:0:0:
192,168,23419,1,0,0:0:0:0:
288,192,23582,53,0,0:0:0:0:
232,116,23744,1,0,0:0:0:0:
136,116,23906,1,8,0:0:0:0:
76,192,24068,2,0,P|47:222|44:256,1,70,0|0,0:0|0:0,0:0:0:0:
140,272,24392,1,0,0:0:0:0:
204,348,24555,2,0,P|229:324|236:290,1,70,8|0,0:0|0:0,0:0:0:0:
244,192,24879,1,0,0:0:0:0:
324,248,25041,6,0,L|324:328,1,70,0|8,0:0|0:0,0:0:0:0:
420,304,25365,1,0,0:0:0:0:
476,224,25528,1,0,0:0:0:0:
476,188,25609,1,0,0:0:0:0:
464,156,25690,1,0,0:0:0:0:
444,128,25771,1,0,0:0:0:0:
416,108,25852,1,8,0:0:0:0:
384,96,25933,1,0,0:0:0:0:
348,96,26014,1,0,0:0:0:0:
252,72,26176,6,0,L|188:136,1,70
124,180,26501,1,8,0:0:0:0:
124,276,26663,1,0,0:0:0:0:
200,216,26825,2,0,B|248:180|248:180|328:180,1,140,0|8,0:0|0:0,0:0:0:0:
284,268,27311,2,0,B|364:268|364:268|428:220,1,140
324,188,27798,1,8,0:0:0:0:
336,92,27960,1,0,0:0:0:0:
256,36,28122,1,0,0:0:0:0:
176,92,28284,1,0,0:0:0:0:
180,128,28365,1,0,0:0:0:0:
188,164,28447,1,8,0:0:0:0:
196,200,28528,2,0,P|196:264|156:300,1,105
100,224,28933,53,0,0:0:0:0:
144,136,29095,2,0,B|176:120|176:120|244:120,1,70,8|0,0:0|0:0,0:0:0:0:
200,216,29419,2,0,B|244:268|244:268|320:268,1,140,0|8,0:0|0:0,0:0:0:0:
368,184,29906,1,0,0:0:0:0:
320,100,30068,1,0,0:0:0:0:
272,184,30230,2,0,L|176:184,3,70,0|8|0|0,0:0|0:0|0:0|0:0,0:0:0:0:
308,260,30879,1,0,0:0:0:0:
272,260,30960,1,0,0:0:0:0:
236,260,31041,5,8,0:0:0:0:
200,260,31122,1,0,0:0:0:0:
164,260,31203,2,0,B|96:260|96:260|76:188,1,140
132,108,31690,1,8,0:0:0:0:
220,68,31852,1,0,0:0:0:0:
316,64,32014,2,0,B|384:36|384:36|468:36,1,140,0|8,0:0|0:0,0:0:0:0:
452,136,32501,1,0,0:0:0:0:
360,108,32663,5,0,0:0:0:0:
268,140,32825,2,0,L|268:220,1,70,0|8,0:0|0:0,0:0:0:0:
344,272,33149,2,0,L|344:192,1,70
444,200,33474,1,0,0:0:0:0:
472,216,33555,1,0,0:0:0:0:
488,244,33636,1,8,0:0:0:0:
488,276,33717,1,0,0:0:0:0:
476,304,33798,1,0,0:0:0:0:
388,352,33960,54,0,L|304:352,1,70
220,352,34284,1,8,0:0:0:0:
140,296,34447,1,0,0:0:0:0:
224,244,34609,2,0,B|272:180|272:180|368:180,1,140,0|8,0:0|0:0,0:0:0:0:
428,196,35095,2,0,B|380:260|380:260|284:260,1,140,0|0,0:0|0:0,0:0:0:0:
224,244,35582,1,8,0:0:0:0:
140,192,35744,1,0,0:0:0:0:
112,100,35906,1,0,0:0:0:0:
144,84,35987,1,0,0:0:0:0:
176,72,36068,1,0,0:0:0:0:
208,60,36149,1,0,0:0:0:0:
244,60,36230,1,8,0:0:0:0:
280,60,36311,1,0,0:0:0:0:
316,60,36392,1,0,0:0:0:0:
404,104,36555,6,0,L|452:168,2,70
360,192,37041,2,0,L|360:264,2,70
316,104,37528,1,0,0:0:0:0:
280,104,37609,1,0,0:0:0:0:
244,104,37690,1,0,0:0:0:0:
208,104,37771,1,0,0:0:0:0:
172,104,37852,6,0,B|140:104|140:104|88:132,1,70
52,204,38176,1,0,0:0:0:0:
112,280,38338,2,0,L|196:324,1,70
268,340,38663,1,0,0:0:0:0:
368,312,38825,2,2,B|448:312|448:312|480:248,2,140,2|2|2,0:0|0:0|0:0,0:0:0:0:
268,340,39636,1,0,0:0:0:0:
332,268,39798,54,2,B|380:188|284:188|332:124,1,140
328,40,40284,1,0,0:0:0:0:
228,40,40447,2,2,B|276:120|180:120|228:184,1,140
219,178,40852,5,0,0:1:0:0:
219,186,40933,1,0,0:0:0:0:
219,194,41014,1,0,0:0:0:0:
219,202,41095,1,0,0:0:0:0:
219,210,41176,1,0,0:0:0:0:
219,218,41257,1,0,0:0:0:0:
219,226,41338,1,0,0:0:0:0:
219,234,41419,1,0,0:0:0:0:
220,264,41582,1,0,0:0:0:0:
220,292,41744,1,0,0:0:0:0:
220,320,41906,1,0,0:0:0:0:
220,348,42068,1,4,0:0:0:0:
160,144,51149,22,0,L|160:64,2,70,0|0|2,0:0|0:0|0:0,0:0:0:0:
160,240,51636,1,0,0:0:0:0:
356,236,51960,2,0,L|436:236,2,70,0|2|0,0:0|0:0|0:0,0:0:0:0:
288,172,52447,2,0,B|320:108|320:108|416:108,1,140,0|2,0:0|0:0,0:0:0:0:
476,64,52933,1,0,0:0:0:0:
476,160,53095,6,0,L|476:240,1,70
380,212,53419,2,0,L|380:292,1,70,2|0,0:0|0:0,0:0:0:0:
380,84,53906,2,0,L|380:196,1,70,0|2,0:0|0:0,0:0:0:0:
312,84,54230,1,0,0:0:0:0:
216,88,54392,6,0,B|136:88|136:88|88:40,2,140,0|2|0,0:0|0:0|0:0,0:0:0:0:
380,192,55365,2,0,L|288:192,1,70,2|0,0:0|0:0,0:0:0:0:
212,192,55690,54,0,L|128:192,1,70
212,260,56014,2,0,L|308:260,1,70,2|0,0:0|0:0,0:0:0:0:
460,352,56501,2,0,L|460:272,1,70,0|2,0:0|0:0,0:0:0:0:
512,200,56825,2,0,L|512:120,1,70
452,52,57149,1,0,0:0:0:0:
420,32,57230,1,0,0:0:0:0:
380,32,57311,1,2,0:0:0:0:
280,32,57474,1,0,0:0:0:0:
184,32,57636,6,0,B|112:32|112:32|72:112,1,140,0|2,0:0|0:0,0:0:0:0:
52,184,58122,1,0,0:0:0:0:
48,280,58284,5,0,0:0:0:0:
144,308,58447,1,0,0:0:0:0:
196,228,58609,1,2,0:0:0:0:
136,152,58771,1,0,0:0:0:0:
284,280,59095,1,0,0:0:0:0:
360,216,59257,1,2,0:0:0:0:
332,124,59419,1,0,0:0:0:0:
432,120,59582,54,0,B|404:56|404:56|320:24,2,140,0|2|0,0:0|0:0|0:0,0:0:0:0:
452,324,60555,1,2,0:0:0:0:
356,328,60717,1,0,0:0:0:0:
260,328,60879,6,0,L|180:328,1,70
228,240,61203,2,0,L|136:240,1,70,2|0,0:0|0:0,0:0:0:0:
96,240,61528,5,0,0:0:0:0:
96,192,61690,1,0,0:0:0:0:
128,240,61852,1,2,0:0:0:0:
128,144,62014,1,0,0:0:0:0:
160,240,62176,1,0,0:0:0:0:
160,96,62338,1,0,0:0:0:0:
192,240,62501,1,2,0:0:0:0:
192,48,62663,1,0,0:0:0:0:
248,128,62825,5,0,0:0:0:0:
308,208,62987,1,0,0:0:0:0:
368,284,63149,1,8,0:0:0:0:
296,352,63311,1,0,0:0:0:0:
196,352,63474,2,0,B|124:352|124:352|76:304,1,140,0|8,0:0|0:0,0:0:0:0:
76,208,63960,1,0,0:0:0:0:
272,204,64284,6,0,B|294:229|294:229|330:229,1,70,0|8,0:0|0:0,0:0:0:0:
424,200,64609,2,0,B|449:178|449:178|449:142,1,70,0|0,0:0|0:0,0:0:0:0:
360,100,64933,1,0,0:0:0:0:
324,100,65014,1,0,0:0:0:0:
288,100,65095,1,8,0:0:0:0:
196,136,65257,1,0,0:0:0:0:
100,140,65419,6,0,L|4:140,1,70
28,240,65744,1,8,0:0:0:0:
104,300,65906,1,0,0:0:0:0:
200,300,66068,2,0,B|264:300|264:300|328:252,1,140,0|8,0:0|0:0,0:0:0:0:
424,256,66555,1,0,0:0:0:0:
500,196,66717,1,0,0:0:0:0:
424,132,66879,54,0,L|424:52,1,70,0|8,0:0|0:0,0:0:0:0:
356,132,67203,2,0,L|356:52,1,70
288,96,67528,2,0,L|288:48,1,35
224,64,67690,1,8,0:0:0:0:
128,64,67852,6,0,B|48:64|48:64|48:64,2,70
196,136,68338,1,8,0:0:0:0:
132,208,68501,1,0,0:0:0:0:
36,208,68663,1,0,0:0:0:0:
84,292,68825,1,0,0:0:0:0:
120,292,68906,1,0,0:0:0:0:
156,292,68987,2,0,B|232:292,1,70,8|0,0:0|0:0,0:0:0:0:
312,336,69311,1,0,0:0:0:0:
412,336,69474,5,0,0:0:0:0:
484,268,69636,1,8,0:0:0:0:
484,172,69798,2,0,L|432:120,1,70
336,112,70122,1,0,0:0:0:0:
304,112,70204,1,0,0:0:0:0:
272,112,70285,1,8,0:0:0:0:
240,112,70366,1,0,0:0:0:0:
208,112,70447,1,0,0:0:0:0:
128,168,70609,54,0,L|128:244,1,70
224,260,70933,2,0,B|300:312,1,70,8|0,0:0|0:0,0:0:0:0:
352,232,71257,2,0,B|416:232|416:232|464:168,1,140,0|8,0:0|0:0,0:0:0:0:
480,76,71744,1,0,0:0:0:0:
396,28,71906,1,0,0:0:0:0:
312,76,72068,6,0,L|220:76,1,70,0|8,0:0|0:0,0:0:0:0:
144,80,72392,2,0,L|88:136,1,70
69,154,72636,1,0,0:0:0:0:
44,178,72717,1,0,0:0:0:0:
19,202,72798,1,0,0:0:0:0:
43,226,72879,1,8,0:0:0:0:
67,250,72960,1,0,0:0:0:0:
91,274,73041,1,0,0:0:0:0:
200,300,73203,21,0,0:0:0:0:
308,276,73365,2,0,B|316:254|348:270|364:238,1,70,0|2,0:0|0:0,0:0:0:0:
444,160,73690,1,0,0:0:0:0:
364,80,73852,2,0,B|284:48|284:48|188:48,1,140,0|2,0:0|0:0,0:0:0:0:
232,160,74338,1,0,0:0:0:0:
311,239,74501,1,0,0:0:0:0:
231,318,74663,1,0,0:0:0:0:
151,238,74825,2,0,B|103:190|103:190|167:110,1,140,2|0,0:0|0:0,0:0:0:0:
220,48,75311,1,0,0:0:0:0:
332,48,75474,2,0,L|412:48,1,70,2|0,0:0|0:0,0:0:0:0:
424,156,75798,5,0,0:0:0:0:
364,252,75960,2,0,L|428:300,1,70,0|2,0:0|0:0,0:0:0:0:
252,296,76284,1,0,0:0:0:0:
140,296,76447,2,0,B|76:296|76:296|44:200,1,140,0|2,0:0|0:0,0:0:0:0:
112,128,76933,6,0,B|176:160|176:160|208:240,1,140
312,220,77419,2,0,B|344:156|344:156|408:124,1,140,2|0,0:0|0:0,0:0:0:0:
344,32,77906,1,0,0:0:0:0:
256,100,78068,1,2,0:0:0:0:
168,32,78230,1,0,0:0:0:0:
80,104,78392,2,0,L|80:200,1,70
168,244,78717,1,2,0:0:0:0:
260,308,78879,1,0,0:0:0:0:
348,240,79041,2,0,B|348:160|348:160|284:96,1,140,0|2,0:0|0:0,0:0:0:0:
216,48,79528,1,0,0:0:0:0:
132,120,79690,1,0,0:0:0:0:
132,232,79852,54,0,L|212:280,1,70,0|2,0:0|0:0,0:0:0:0:
256,176,80176,1,0,0:0:0:0:
328,92,80338,1,0,0:0:0:0:
428,144,80501,1,0,0:0:0:0:
424,256,80663,1,2,0:0:0:0:
316,276,80825,1,0,0:0:0:0:
204,276,80987,2,0,L|124:328|124:328,2,70,0|0|2,0:0|0:0|0:0,0:0:0:0:
316,276,81474,1,0,0:0:0:0:
316,164,81636,2,0,B|268:116|268:116|188:116,1,140,0|2,0:0|0:0,0:0:0:0:
256,60,82122,1,0,0:0:0:0:
256,172,82284,6,0,L|256:252,1,70
352,300,82609,1,2,0:0:0:0:
444,240,82771,2,0,B|460:176|428:176|444:96,1,140
336,72,83257,1,2,0:0:0:0:
224,72,83419,1,0,0:0:0:0:
116,104,83582,2,0,B|116:184|116:184|164:232,1,140,0|2,0:0|0:0,0:0:0:0:
272,224,84068,1,0,0:0:0:0:
348,308,84230,6,0,L|412:372,2,70,0|0|2,0:0|0:0|0:0,0:0:0:0:
244,268,84717,2,0,L|164:268,2,70
336,208,85203,2,0,L|388:132,1,70,2|0,0:0|0:0,0:0:0:0:
304,68,85528,54,0,L|400:36,1,70
208,68,85852,2,0,L|112:36,1,70,2|0,0:0|0:0,0:0:0:0:
120,128,86176,2,0,B|120:208|120:208|168:256,1,140,0|2,0:0|0:0,0:0:0:0:
260,304,86663,1,0,0:0:0:0:
372,304,86825,6,0,L|452:304,1,70
400,200,87149,2,0,L|320:200,1,70,2|0,0:0|0:0,0:0:0:0:
232,256,87474,2,0,L|328:256,1,70
260,152,87798,2,0,L|180:152,1,70,2|0,0:0|0:0,0:0:0:0:
92,208,88122,2,0,L|172:208,1,70
124,104,88447,2,0,L|44:104,1,70,2|0,0:0|0:0,0:0:0:0:
92,208,88771,6,0,B|132:272|132:272|204:272,1,140,0|2,0:0|0:0,0:0:0:0:
272,188,89257,1,0,0:0:0:0:
316,84,89419,54,0,B|347:96|347:96|365:127,1,70,0|0,0:0|0:0,0:0:0:0:
448,204,89743,1,2,0:0:0:0:
351,261,89905,2,0,B|326:284|326:284|290:283,1,70
186,325,90229,1,0,0:0:0:0:
174,212,90392,2,0,B|157:180|157:180|163:146,1,70,2|0,0:0|0:0,0:0:0:0:
312,100,90717,6,0,B|380:100|380:100|412:164,1,140,0|2,0:0|0:0,0:0:0:0:
200,100,91365,2,0,B|120:100|120:100|93:153,1,140,0|2,0:0|0:0,0:0:0:0:
168,240,91852,1,0,0:0:0:0:
256,200,92014,2,0,L|256:280,1,70
336,164,92338,2,0,L|336:304,1,140,2|0,0:0|0:0,0:0:0:0:
256,264,93311,6,0,L|256:108,1,140
380,64,94122,5,0,0:0:0:0:
456,148,94284,2,0,L|456:228,1,70,8|0,0:0|0:0,0:0:0:0:
380,300,94609,2,0,B|300:300|300:300|268:236,1,140,0|8,0:0|0:0,0:0:0:0:
380,208,95095,2,0,B|380:144|380:144|300:96,1,140
208,64,95582,1,8,0:0:0:0:
104,108,95744,2,0,L|104:188,1,70
104,288,96068,1,0,0:0:0:0:
128,312,96149,1,0,0:0:0:0:
156,336,96230,1,8,0:0:0:0:
192,336,96311,2,0,B|244:336|244:336|284:296,1,105
364,332,96717,6,0,L|420:276,1,70,0|8,0:0|0:0,0:0:0:0:
440,196,97041,1,0,0:0:0:0:
420,108,97203,2,0,B|372:60|372:60|288:60,1,140,0|8,0:0|0:0,0:0:0:0:
236,128,97690,1,0,0:0:0:0:
168,64,97852,1,0,0:0:0:0:
104,128,98014,2,0,L|104:208,2,70,0|8|0,0:0|0:0|0:0,0:0:0:0:
168,64,98501,1,0,0:0:0:0:
256,36,98663,1,0,0:0:0:0:
256,72,98744,1,0,0:0:0:0:
256,108,98825,6,0,L|324:176,1,70,8|0,0:0|0:0,0:0:0:0:
396,192,99149,1,0,0:0:0:0:
304,228,99311,2,0,L|244:288,1,70,0|8,0:0|0:0,0:0:0:0:
340,328,99636,2,0,B|388:328|388:328|420:280,1,70
452,228,99960,1,0,0:0:0:0:
452,192,100041,1,0,0:0:0:0:
452,156,100122,2,0,B|452:124|452:124|420:92,1,70,8|0,0:0|0:0,0:0:0:0:
328,120,100447,1,0,0:0:0:0:
296,28,100609,54,0,L|392:28,1,70,0|8,0:0|0:0,0:0:0:0:
216,28,100933,2,0,L|136:28,1,70,0|0,0:0|0:0,0:0:0:0:
176,136,101257,1,0,0:0:0:0:
196,164,101338,1,0,0:0:0:0:
216,192,101419,1,8,0:0:0:0:
236,220,101501,1,0,0:0:0:0:
256,248,101582,2,0,L|256:254|256:334,1,70
148,340,101906,6,0,L|72:340,1,70,0|8,0:0|0:0,0:0:0:0:
12,248,102230,1,0,0:0:0:0:
76,156,102392,2,0,B|140:108|140:108|220:108,1,140,0|8,0:0|0:0,0:0:0:0:
184,220,102879,2,0,B|244:220|244:220|308:172,1,140,0|0,0:0|0:0,0:0:0:0:
216,108,103365,1,8,0:0:0:0:
328,92,103528,1,0,0:0:0:0:
412,168,103690,1,0,0:0:0:0:
444,152,103771,1,0,0:0:0:0:
468,124,103852,1,0,0:0:0:0:
480,92,103933,1,0,0:0:0:0:
468,60,104014,1,8,0:0:0:0:
444,36,104095,1,0,0:0:0:0:
412,20,104176,1,0,0:0:0:0:
316,96,104338,6,0,L|216:96,1,87.5
104,96,104663,1,8,0:0:0:0:
44,204,104825,1,0,0:0:0:0:
104,308,104987,1,0,0:0:0:0:
160,200,105149,1,0,0:0:0:0:
204,200,105230,1,0,0:0:0:0:
248,200,105311,1,8,0:0:0:0:
304,308,105474,1,0,0:0:0:0:
364,200,105636,1,0,0:0:0:0:
240,200,105798,54,0,L|176:136,1,87.5,0|8,0:0|0:0,0:0:0:0:
244,36,106122,1,0,0:0:0:0:
360,76,106284,2,0,B|399:76|399:76|431:112,1,87.5
432,156,106528,1,0,0:0:0:0:
432,200,106609,1,8,0:0:0:0:
432,244,106690,1,0,0:0:0:0:
272,332,106933,6,0,B|228:332|228:332|192:296,1,87.5
308,252,107257,1,8,0:0:0:0:
324,292,107338,1,0,0:0:0:0:
340,332,107419,2,0,B|364:368|364:368|416:376,1,87.5
492,284,107744,1,0,0:0:0:0:
452,168,107906,1,8,0:0:0:0:
436,128,107987,1,0,0:0:0:0:
420,88,108068,1,0,0:0:0:0:
316,24,108230,1,0,0:0:0:0:
192,24,108392,1,0,0:0:0:0:
88,88,108555,5,8,0:0:0:0:
76,128,108636,1,0,0:0:0:0:
60,168,108717,1,0,0:0:0:0:
84,288,108879,1,0,0:0:0:0:
168,200,109041,1,0,0:0:0:0:
212,200,109122,1,0,0:0:0:0:
256,200,109203,53,8,0:0:0:0:
300,200,109284,1,0,0:0:0:0:
344,200,109365,1,0,0:0:0:0:
428,288,109528,1,0,0:0:0:0:
304,296,109690,2,0,B|266:274|266:274|260:228,1,87.5,0|8,0:0|0:0,0:0:0:0:
256,188,109933,1,0,0:0:0:0:
256,144,110014,1,0,0:0:0:0:
336,52,110176,2,0,L|336:139,1,87.5
336,264,110501,1,8,0:0:0:0:
256,356,110663,2,0,B|190:299|190:299|190:211,1,175
96,132,111149,5,8,0:0:0:0:
192,56,111311,2,0,L|316:56,1,87.5
328,168,111636,1,0,0:0:0:0:
360,140,111717,1,0,0:0:0:0:
368,96,111798,1,8,0:0:0:0:
360,52,111879,1,0,0:0:0:0:
324,24,111960,2,0,L|220:24,1,87.5
116,48,112284,5,0,0:0:0:0:
64,160,112447,2,0,L|64:276,1,87.5,8|0,0:0|0:0,0:0:0:0:
148,336,112771,2,0,L|148:236,1,87.5,0|0,0:0|0:0,0:0:0:0:
232,160,113095,1,8,0:0:0:0:
240,36,113257,1,0,0:0:0:0:
360,32,113419,1,0,0:0:0:0:
378,38,113501,53,0,0:0:0:0:
396,44,113582,1,0,0:0:0:0:
414,50,113663,1,0,0:0:0:0:
433,56,113744,1,8,0:0:0:0:
451,62,113825,1,0,0:0:0:0:
469,68,113906,1,0,0:0:0:0:
487,74,113987,1,0,0:0:0:0:
501,80,114068,1,0,0:0:0:0:
484,88,114149,1,0,0:0:0:0:
466,96,114230,1,0,0:0:0:0:
449,104,114311,1,0,0:0:0:0:
431,112,114392,1,8,0:0:0:0:
414,120,114474,1,0,0:0:0:0:
396,128,114555,1,0,0:0:0:0:
379,136,114636,1,0,0:0:0:0:
360,144,114717,6,0,B|236:200|236:200|288:280|224:352,1,280
344,364,115690,2,0,B|468:308|468:308|416:228|480:156,1,280,8|0,0:0|0:0,0:0:0:0:
460,140,116419,1,0,0:0:0:0:
452,104,116501,1,0,0:0:0:0:
444,72,116582,1,0,0:0:0:0:
436,40,116663,1,0,0:0:0:0:
296,36,116987,5,0,0:0:0:0:
288,68,117068,1,0,0:0:0:0:
280,100,117149,1,0,0:0:0:0:
268,132,117230,1,0,0:0:0:0:
256,164,117311,2,0,B|232:232|232:232|160:260,1,140,8|0,0:0|0:0,0:0:0:0:
48,260,117960,53,0,0:0:0:0:
64,228,118041,1,0,0:0:0:0:
80,196,118122,1,0,0:0:0:0:
96,164,118203,1,0,0:0:0:0:
112,132,118284,2,0,B|152:72|152:72|228:72,1,140,8|0,0:0|0:0,0:0:0:0:
256,180,118771,2,0,B|328:180|328:180|376:124,1,140
444,44,119257,1,0,0:0:0:0:
336,20,119419,5,0,0:0:0:0:
268,112,119582,1,8,0:0:0:0:
204,20,119744,1,0,0:0:0:0:
140,112,119906,2,0,B|69:112|69:112|89:180|89:180|25:160|25:160|25:232,1,280,0|0,0:0|0:0,0:0:0:0:
132,264,120717,1,0,0:0:0:0:
76,360,120879,6,0,B|156:360|156:360|220:296,1,140,8|0,0:0|0:0,0:0:0:0:
200,204,121365,1,0,0:0:0:0:
312,204,121528,1,0,0:0:0:0:
312,316,121690,2,0,B|355:359|355:359|435:359,1,140
488,260,122176,53,0,0:0:0:0:
488,224,122257,1,0,0:0:0:0:
488,188,122338,1,0,0:0:0:0:
488,152,122419,1,0,0:0:0:0:
488,116,122501,2,0,B|488:48|488:48|400:8,1,140,8|0,0:0|0:0,0:0:0:0:
200,40,123149,5,0,0:0:0:0:
200,76,123230,1,0,0:0:0:0:
200,112,123311,1,0,0:0:0:0:
200,148,123392,1,0,0:0:0:0:
200,184,123474,2,0,B|200:256|200:256|124:284,1,140,8|0,0:0|0:0,0:0:0:0:
228,344,123960,2,0,L|308:312,1,70,0|0,0:0|0:0,0:0:0:0:
400,280,124284,1,0,0:0:0:0:
400,168,124447,2,0,B|400:80,1,70,0|0,0:0|0:0,0:0:0:0:
368,28,125095,6,0,B|272:28|272:28|240:76,1,140,0|8,0:0|0:0,0:0:0:0:
144,28,125582,2,0,B|240:28|240:28|272:76,1,140
256,180,126068,2,0,B|256:252|256:252|192:316,2,140,0|8|0,0:0|0:0|0:0,0:0:0:0:
220,180,126798,1,0,0:0:0:0:
184,180,126879,1,0,0:0:0:0:
148,180,126960,1,0,0:0:0:0:
112,180,127041,1,0,0:0:0:0:
216,84,127365,53,0,0:0:0:0:
252,84,127447,1,0,0:0:0:0:
288,84,127528,1,0,0:0:0:0:
324,84,127609,1,0,0:0:0:0:
360,84,127690,2,0,B|432:84|432:84|464:148,1,140,8|0,0:0|0:0,0:0:0:0:
476,256,128176,1,0,0:0:0:0:
400,340,128338,1,0,0:0:0:0:
364,340,128419,1,0,0:0:0:0:
328,340,128501,1,0,0:0:0:0:
292,340,128582,1,0,0:0:0:0:
256,340,128663,6,0,B|184:340|184:340|144:284|144:284|52:284,1,210,8|0,0:0|0:0,0:0:0:0:
36,180,129311,1,0,0:0:0:0:
100,88,129474,1,0,0:0:0:0:
136,88,129555,1,0,0:0:0:0:
172,88,129636,1,0,0:0:0:0:
208,88,129717,1,0,0:0:0:0:
244,88,129798,6,0,B|312:88|312:88|372:48|372:48|452:48,1,210,8|0,0:0|0:0,0:0:0:0:
468,156,130447,1,0,0:0:0:0:
496,264,130609,2,0,B|424:264|424:264|376:312|376:312|296:312,1,210,8|0,0:0|0:0,0:0:0:0:
196,312,131257,54,0,B|116:312|116:312|68:248,2,140,0|8|0,0:0|0:0|0:0,0:0:0:0:
232,312,131987,1,0,0:0:0:0:
268,312,132068,1,0,0:0:0:0:
304,312,132149,1,0,0:0:0:0:
340,312,132230,2,0,L|500:312,1,140,8|0,0:0|0:0,0:0:0:0:
480,276,132636,5,0,0:0:0:0:
480,240,132717,1,0,0:0:0:0:
480,204,132798,1,0,0:0:0:0:
480,168,132879,2,0,B|480:96|480:96|428:44,1,140,8|0,0:0|0:0,0:0:0:0:
208,48,133528,1,0,0:0:0:0:
208,84,133609,1,0,0:0:0:0:
208,120,133690,1,0,0:0:0:0:
208,156,133771,1,0,0:0:0:0:
208,192,133852,6,0,B|208:256|208:256|280:328,1,140,8|0,0:0|0:0,0:0:0:0:
308,208,134338,2,0,B|372:272|372:272|394:178|394:178|394:178|394:178|461:243,1,280
144,304,145203,54,0,L|224:304,1,70
328,304,145528,2,0,B|376:208|376:208|312:208|312:144,1,210,8|0,0:0|0:0,0:0:0:0:
380,56,146176,1,8,0:0:0:0:
268,56,146338,2,0,B|188:56|188:56|188:136|108:136,1,210,0|8,0:0|0:0,0:0:0:0:
108,248,146987,2,0,L|188:248,1,70
252,332,147311,2,0,L|332:332,1,70,0|8,0:0|0:0,0:0:0:0:
400,252,147636,2,0,L|480:252,1,70
400,164,147960,5,0,0:0:0:0:
316,92,148122,2,0,B|236:44|236:44|172:92|124:44,1,210,8|0,0:0|0:0,0:0:0:0:
80,152,148771,1,8,0:0:0:0:
128,252,148933,2,0,B|128:332|128:332|224:284|272:380,1,210,0|8,0:0|0:0,0:0:0:0:
252,232,149582,2,0,B|292:260|332:216,1,70
344,208,149825,1,0,0:0:0:0:
368,184,149906,1,0,0:0:0:0:
392,160,149987,1,0,0:0:0:0:
416,136,150068,1,8,0:0:0:0:
488,52,150230,1,0,0:0:0:0:
376,52,150392,5,0,0:0:0:0:
264,56,150555,1,0,0:0:0:0:
152,56,150717,2,0,B|152:136|152:136|216:184|152:248,1,210,8|0,0:0|0:0,0:0:0:0:
248,304,151365,1,8,0:0:0:0:
344,244,151528,2,0,B|344:164|344:164|280:100|344:52,1,210,0|8,0:0|0:0,0:0:0:0:
428,128,152176,1,0,0:0:0:0:
512,192,152338,2,0,P|448:224|432:208,1,70
428,128,152663,1,8,0:0:0:0:
344,52,152825,2,0,P|308:44|248:68,1,70
164,40,153149,53,0,0:0:0:0:
88,124,153311,1,8,0:0:0:0:
200,140,153474,1,0,0:0:0:0:
224,164,153555,1,0,0:0:0:0:
252,188,153636,1,0,0:0:0:0:
276,212,153717,1,0,0:0:0:0:
304,236,153798,1,0,0:0:0:0:
412,260,153960,1,8,0:0:0:0:
332,336,154122,1,0,0:0:0:0:
244,272,154284,5,0,0:0:0:0:
236,272,154365,1,0,0:0:0:0:
228,272,154447,1,0,0:0:0:0:
220,272,154528,1,0,0:0:0:0:
212,272,154609,1,8,0:0:0:0:
204,272,154690,1,0,0:0:0:0:
196,272,154771,1,0,0:0:0:0:
188,272,154852,1,0,0:0:0:0:
180,268,154933,6,0,L|140:304,2,46.6666666666667
172,256,155257,2,0,L|116:272,2,46.6666666666667,0|0|0,0:0|0:0|0:0,0:0:0:0:
168,244,155582,2,0,L|116:232,2,46.6666666666667,0|0|0,0:0|0:0|0:0,0:0:0:0:
168,232,155906,2,0,L|136:196,2,46.6666666666667,0|0|0,0:0|0:0|0:0,0:0:0:0:
180,224,156230,53,0,0:0:0:0:
188,224,156311,1,0,0:0:0:0:
196,224,156392,1,0,0:0:0:0:
204,224,156474,1,0,0:0:0:0:
212,224,156555,1,0,0:0:0:0:
220,224,156636,1,0,0:0:0:0:
228,224,156717,1,0,0:0:0:0:
236,224,156798,1,0,0:0:0:0:
248,224,156879,6,0,L|288:256,2,46.6666666666667
256,212,157203,2,0,L|312:216,2,46.6666666666667
256,204,157528,5,0,0:0:0:0:
256,196,157609,1,0,0:0:0:0:
256,188,157690,1,0,0:0:0:0:
256,180,157771,1,0,0:0:0:0:
256,172,157852,1,0,0:0:0:0:
256,164,157933,1,0,0:0:0:0:
256,156,158014,1,0,0:0:0:0:
256,148,158095,1,0,0:0:0:0:
256,140,158176,1,0,0:0:0:0:
256,132,158257,1,0,0:0:0:0:
256,124,158338,1,0,0:0:0:0:
256,116,158419,1,0,0:0:0:0:
256,108,158501,1,0,0:0:0:0:
256,100,158582,1,0,0:0:0:0:
256,92,158663,1,0,0:0:0:0:
256,84,158744,1,0,0:0:0:0:
256,76,158825,54,0,L|196:76,2,46.6666666666667
256,68,159149,2,0,L|320:68,2,46.6666666666667
256,60,159474,1,0,0:0:0:0:
140,100,160122,6,0,B|192:48|192:48|256:16|320:48|320:48|376:104,1,280
388,176,160933,1,0,0:0:0:0:
368,252,161095,1,0,0:0:0:0:
324,316,161257,1,0,0:0:0:0:
256,348,161419,1,0,0:0:0:0:
188,312,161582,1,0,0:0:0:0:
148,248,161744,1,0,0:0:0:0:
124,176,161906,1,0,0:0:0:0:
148,104,162068,1,0,0:0:0:0:
328,124,162717,5,0,0:0:0:0:
352,156,162798,1,0,0:0:0:0:
364,192,162879,1,0,0:0:0:0:
352,228,162960,1,0,0:0:0:0:
328,260,163041,1,0,0:0:0:0:
288,192,163203,2,0,L|236:140,1,70
180,92,163528,53,0,0:0:0:0:
112,128,163690,1,0,0:0:0:0:
76,196,163852,1,0,0:0:0:0:
112,264,164014,1,0,0:0:0:0:
136,296,164095,5,0,0:0:0:0:
163,318,164176,1,0,0:0:0:0:
196,329,164257,1,0,0:0:0:0:
231,329,164338,1,0,0:0:0:0:
263,316,164419,1,0,0:0:0:0:
290,294,164501,1,0,0:0:0:0:
307,264,164582,1,0,0:0:0:0:
313,229,164663,1,0,0:0:0:0:
308,195,164744,1,0,0:0:0:0:
296,168,164825,2,0,P|221:125|123:182,1,210
72,68,165636,5,0,0:0:0:0:
160,24,165798,1,0,0:0:0:0:
248,72,165960,1,0,0:0:0:0:
336,24,166122,1,0,0:0:0:0:
424,72,166284,1,0,0:0:0:0:
496,132,166447,1,0,0:0:0:0:
464,224,166609,2,0,B|480:292|480:292|416:272|416:272|448:336|448:336|376:336,1,280
180,340,167582,2,0,B|108:340|108:340|140:276|140:276|76:296|76:296|92:228|92:228|92:228|92:228|92:228|92:228,1,280
32,188,168555,54,0,B|48:120|48:120|28:28,1,140
226,188,169203,2,0,B|250:120|250:120|228:56,1,140
368,56,169852,2,0,B|440:56|440:56|424:120|424:120|488:92|488:92|488:168|488:168|488:168|488:168,1,280
348,296,170825,5,0,0:0:0:0:
256,328,170987,1,0,0:0:0:0:
164,296,171149,1,0,0:0:0:0:
32,64,171636,2,0,B|96:32|96:32|168:32,1,140
264,32,172122,1,0,0:0:0:0:
300,32,172203,1,0,0:0:0:0:
336,32,172284,1,0,0:0:0:0:
372,32,172365,1,0,0:0:0:0:
408,32,172447,2,0,P|480:80|456:144,2,140
448,192,173419,5,0,0:0:0:0:
431,218,173527,1,0,0:0:0:0:
412,242,173635,1,0,0:0:0:0:
391,265,173743,1,0,0:0:0:0:
368,286,173851,1,0,0:0:0:0:
342,303,173959,1,0,0:0:0:0:
314,317,174067,1,0,0:0:0:0:
284,325,174175,1,0,0:0:0:0:
253,325,174283,53,0,0:0:0:0:
223,318,174391,1,0,0:0:0:0:
195,304,174500,1,0,0:0:0:0:
171,284,174608,1,0,0:0:0:0:
151,261,174716,1,0,0:0:0:0:
136,233,174824,1,0,0:0:0:0:
128,203,174932,1,0,0:0:0:0:
127,172,175040,1,0,0:0:0:0:
134,142,175148,5,0,0:0:0:0:
147,114,175256,1,0,0:0:0:0:
165,88,175364,1,0,0:0:0:0:
188,67,175473,1,0,0:0:0:0:
215,52,175581,1,0,0:0:0:0:
256,32,175689,53,0,0:0:0:0:
352,52,175852,1,0,0:0:0:0:
428,112,176014,1,2,0:0:0:0:
420,208,176176,1,0,0:0:0:0:
324,208,176338,2,0,P|244:192|164:224,1,140,0|2,0:0|0:0,0:0:0:0:
92,208,176825,53,0,0:0:0:0:
132,296,176987,1,0,0:0:0:0:
224,332,177149,1,0,0:0:0:0:
320,332,177311,2,0,P|400:284|416:220,1,140,2|0,0:0|0:0,0:0:0:0:
416,144,177798,5,0,0:0:0:0:
416,48,177960,1,2,0:0:0:0:
392,152,178122,1,0,0:0:0:0:
322,82,178284,1,0,0:0:0:0:
388,172,178447,1,0,0:0:0:0:
292,172,178609,1,2,0:0:0:0:
120,148,179257,6,0,B|56:196|88:228|8:276,1,140,2|0,0:0|0:0,0:0:0:0:
34,292,179663,1,0,0:0:0:0:
34,328,179744,1,0,0:0:0:0:
58,352,179825,1,0,0:0:0:0:
94,352,179906,1,2,0:0:0:0:
392,36,180230,53,0,0:0:0:0:
426,36,180311,1,0,0:0:0:0:
457,54,180392,1,0,0:0:0:0:
475,85,180474,1,0,0:0:0:0:
475,119,180555,1,2,0:0:0:0:
256,225,180879,5,0,0:0:0:0:
223,201,180960,1,0,0:0:0:0:
235,164,181041,1,0,0:0:0:0:
275,164,181122,1,0,0:0:0:0:
288,201,181203,1,2,0:0:0:0:
256,292,181365,1,0,0:0:0:0:
348,260,181528,6,0,B|396:188|340:116,1,140,0|2,0:0|0:0,0:0:0:0:
348,32,182014,1,0,0:0:0:0:
432,84,182176,1,0,0:0:0:0:
456,180,182338,1,0,0:0:0:0:
444,280,182501,53,2,0:0:0:0:
425,309,182582,1,0,0:0:0:0:
391,320,182663,1,0,0:0:0:0:
320,320,182825,1,0,0:0:0:0:
288,308,182907,1,0,0:0:0:0:
264,284,182988,1,0,0:0:0:0:
244,256,183069,1,0,0:0:0:0:
236,224,183150,1,0,0:0:0:0:
244,192,183230,1,0,0:0:0:0:
264,164,183311,1,0,0:0:0:0:
288,140,183392,1,0,0:0:0:0:
320,128,183474,1,0,0:0:0:0:
256,192,184284,5,0,0:0:0:0:
200,124,184447,2,0,P|260:92|316:136,1,140,2|0,0:0|0:0,0:0:0:0:
316,268,184933,2,0,B|256:332|196:272|196:272|131:320,1,210
16,220,185744,1,2,0:0:0:0:
16,124,185906,2,0,P|48:44|128:44,1,140
132,124,186392,6,0,B|180:108|228:140|276:124,1,140,2|0,0:0|0:0,0:0:0:0:
306,125,186798,1,0,0:0:0:0:
340,125,186879,1,0,0:0:0:0:
374,125,186960,1,0,0:0:0:0:
408,125,187041,1,2,0:0:0:0:
320,368,187365,53,0,0:0:0:0:
292,344,187447,1,0,0:0:0:0:
256,336,187528,1,0,0:0:0:0:
220,344,187609,1,0,0:0:0:0:
192,368,187690,1,0,0:0:0:0:
164,344,187771,1,0,0:0:0:0:
140,320,187852,1,0,0:0:0:0:
116,296,187933,1,0,0:0:0:0:
116,260,188014,1,0,0:0:0:0:
116,224,188095,1,0,0:0:0:0:
116,188,188176,1,0,0:0:0:0:
116,152,188257,1,0,0:0:0:0:
116,116,188338,1,0,0:0:0:0:
116,80,188419,1,0,0:0:0:0:
116,44,188501,2,0,L|116:-4,2,35
116,80,188744,5,0,0:0:0:0:
144,104,188825,1,0,0:0:0:0:
172,124,188906,1,0,0:0:0:0:
208,132,188987,1,0,0:0:0:0:
244,136,189068,1,0,0:0:0:0:
280,132,189149,1,0,0:0:0:0:
312,124,189230,1,0,0:0:0:0:
344,112,189311,6,0,L|408:48,1,70,2|0,0:0|0:0,0:0:0:0:
376,176,189636,2,0,L|440:112,1,70,2|0,0:0|0:0,0:0:0:0:
404,240,189960,2,0,L|468:176,1,70,2|0,0:0|0:0,0:0:0:0:
344,296,190284,2,0,B|292:348|292:348|244:300|244:300|196:348|196:348|144:296|144:296|96:344|96:344|44:292|44:292,1,420,2|12,0:0|0:0,0:0:0:0:
47,231,191419,1,0,0:0:0:0:
173,231,191744,1,0,0:0:0:0:
173,168,191906,1,0,0:0:0:0:
298,168,192230,1,8,0:0:0:0:
298,105,192392,54,0,P|378:49|466:137,1,210,0|8,0:0|0:0,0:0:0:0:
340,144,193203,2,0,P|283:179|224:147,1,140,0|8,0:0|0:0,0:0:0:0:
282,116,193690,1,0,0:0:0:0:
156,116,194014,1,0,0:0:0:0:
220,116,194176,2,0,P|276:52|436:116,1,280,8|8,0:0|0:0,0:0:0:0:
436,176,194987,6,0,B|436:268|436:268|356:248|356:248|392:328|392:328|280:328,1,350,0|0,0:0|0:0,0:0:0:0:
240,328,195960,1,0,0:0:0:0:
176,328,196122,1,0,0:0:0:0:
124,288,196284,1,8,0:0:0:0:
64,64,196771,5,0,0:0:0:0:
64,84,196852,1,0,0:0:0:0:
64,104,196933,1,0,0:0:0:0:
64,124,197014,1,0,0:0:0:0:
64,144,197095,1,8,0:0:0:0:
64,164,197176,1,0,0:0:0:0:
76,180,197257,1,0,0:0:0:0:
92,196,197338,1,0,0:0:0:0:
108,212,197419,53,0,0:0:0:0:
124,228,197501,1,0,0:0:0:0:
140,244,197582,1,0,0:0:0:0:
156,260,197663,1,0,0:0:0:0:
176,260,197744,6,0,L|192:308,2,46.6666666666667,8|0|0,0:0|0:0|0:0,0:0:0:0:
204,260,198068,2,0,L|220:308,2,46.6666666666667
232,260,198392,2,0,L|248:308,2,46.6666666666667,8|0|0,0:0|0:0|0:0,0:0:0:0:
260,260,198717,2,0,L|276:308,2,46.6666666666667,0|0|0,0:0|0:0|0:0,0:0:0:0:
288,260,199041,5,8,0:0:0:0:
308,260,199122,1,0,0:0:0:0:
328,260,199203,1,0,0:0:0:0:
348,260,199284,1,0,0:0:0:0:
368,260,199365,1,0,0:0:0:0:
384,248,199447,53,0,0:0:0:0:
400,232,199528,1,0,0:0:0:0:
416,216,199609,1,0,0:0:0:0:
432,200,199690,1,8,0:0:0:0:
432,180,199771,1,0,0:0:0:0:
432,160,199852,1,0,0:0:0:0:
432,140,199933,1,0,0:0:0:0:
432,120,200014,1,0,0:0:0:0:
432,100,200095,1,0,0:0:0:0:
432,80,200176,1,0,0:0:0:0:
432,60,200257,1,0,0:0:0:0:
416,44,200338,5,8,0:0:0:0:
256,44,200501,1,0,0:0:0:0:
112,44,200663,1,0,0:0:0:0:
32,112,200825,2,0,B|32:248|32:248|96:312,1,210
196,304,201474,1,0,0:0:0:0:
308,304,201636,2,0,B|376:304|376:304|388:224,1,140,8|0,0:0|0:0,0:0:0:0:
400,120,202122,1,0,0:0:0:0:
304,60,202284,6,0,L|240:104,1,70,8|0,0:0|0:0,0:0:0:0:
308,196,202609,2,0,L|244:240,1,70,0|0,0:0|0:0,0:0:0:0:
196,136,202933,2,0,L|128:184,1,70,8|0,0:0|0:0,0:0:0:0:
200,272,203257,2,0,L|136:316,1,70,0|0,0:0|0:0,0:0:0:0:
312,272,203582,2,0,L|380:316,1,70,8|0,0:0|0:0,0:0:0:0:
312,168,203906,2,0,L|376:124,1,70,8|0,0:0|0:0,0:0:0:0:
200,168,204230,2,0,L|136:124,1,70,8|0,0:0|0:0,0:0:0:0:
68,212,204555,1,0,0:0:0:0:
160,272,204717,1,0,0:0:0:0:
256,328,204879,54,0,B|320:392,1,70,8|0,0:0|0:0,0:0:0:0:
320,268,205203,2,0,B|384:204,1,70,0|0,0:0|0:0,0:0:0:0:
256,208,205528,2,0,L|206:159,1,70,8|0,0:0|0:0,0:0:0:0:
316,156,205852,2,0,L|372:100,1,70
256,96,206176,2,0,L|196:36,1,70,8|0,0:0|0:0,0:0:0:0:
104,96,206501,2,0,L|12:96,1,70
108,180,206825,2,0,L|40:248,1,70,8|0,0:0|0:0,0:0:0:0:
168,252,207149,1,0,0:0:0:0:
168,364,207311,1,0,0:0:0:0:
256,292,207474,6,0,L|256:208,1,70,8|0,0:0|0:0,0:0:0:0:
348,156,207798,2,0,L|408:216,1,70
400,316,208122,2,0,L|492:316,1,70,8|0,0:0|0:0,0:0:0:0:
472,204,208447,2,0,L|472:120,1,70
384,64,208771,2,0,L|328:8,1,70,8|0,0:0|0:0,0:0:0:0:
256,92,209095,2,0,L|256:168,1,70,8|0,0:0|0:0,0:0:0:0:
260,272,209419,2,0,P|296:212|256:164,1,140,8|0,0:0|0:0,0:0:0:0:
148,192,209906,2,0,P|76:192|76:64,1,210
192,72,210717,5,8,0:0:0:0:
288,24,210879,1,0,0:0:0:0:
392,72,211041,1,0,0:0:0:0:
288,128,211203,2,0,P|352:160|368:240,1,140
432,288,211690,1,0,0:0:0:0:
352,352,211852,1,0,0:0:0:0:
240,352,212014,5,8,0:0:0:0:
132,320,212176,1,0,0:0:0:0:
64,232,212338,1,0,0:0:0:0:
176,232,212501,1,0,0:0:0:0:
288,232,212663,2,0,B|352:200|352:200|432:200,1,140,8|0,0:0|0:0,0:0:0:0:
508,132,213149,2,0,B|444:100|444:100|364:100,1,140
265,96,213636,5,0,0:0:0:0:
368,50,213798,1,0,0:0:0:0:
312,148,213960,1,8,0:0:0:0:
300,35,214122,1,0,0:0:0:0:
376,120,214284,1,0,0:0:0:0:
412,152,214365,1,0,0:0:0:0:
448,184,214447,1,0,0:0:0:0:
460,296,214609,6,0,L|364:296,1,70,8|0,0:0|0:0,0:0:0:0:
280,296,214933,1,0,0:0:0:0:
364,220,215095,1,0,0:0:0:0:
252,224,215257,2,0,B|180:224|180:224|132:160,1,140,8|0,0:0|0:0,0:0:0:0:
28,196,215744,1,0,0:0:0:0:
88,100,215906,1,0,0:0:0:0:
200,100,216068,2,0,L|248:36,4,70,0|0|0|8|0,0:0|0:0|0:0|0:0|0:0,0:0:0:0:
140,196,216879,54,0,L|96:260,1,70
208,288,217203,1,8,0:0:0:0:
312,252,217365,2,0,L|268:188,1,70
208,100,217690,1,0,0:0:0:0:
136,188,217852,2,0,L|280:188,1,140,8|0,0:0|0:0,0:0:0:0:
388,188,218338,2,0,B|436:124|436:124|436:60,1,140
328,28,218825,2,0,L|248:28|248:28,1,70
280,136,219149,2,0,L|200:136,1,70,8|0,0:0|0:0,0:0:0:0:
180,136,219392,1,0,0:0:0:0:
148,136,219474,1,0,0:0:0:0:
116,136,219555,1,0,0:0:0:0:
84,136,219636,1,0,0:0:0:0:
116,244,219798,6,0,L|116:316,1,70,8|0,0:0|0:0,0:0:0:0:
224,280,220122,1,0,0:0:0:0:
328,316,220284,1,0,0:0:0:0:
436,352,220447,2,0,B|436:212,1,140,8|0,0:0|0:0,0:0:0:0:
328,244,220933,1,0,0:0:0:0:
224,280,221095,1,0,0:0:0:0:
120,240,221257,2,0,L|120:156,1,70
224,212,221582,2,0,L|224:128,1,70,0|8,0:0|0:0,0:0:0:0:
256,144,221825,1,0,0:0:0:0:
288,144,221906,1,0,0:0:0:0:
320,144,221987,1,0,0:0:0:0:
352,144,222068,1,0,0:0:0:0:
384,144,222149,1,0,0:0:0:0:
416,144,222230,1,0,0:0:0:0:
396,40,222392,5,8,0:0:0:0:
256,36,222555,1,0,0:0:0:0:
116,40,222717,1,0,0:0:0:0:
184,160,222879,1,0,0:0:0:0:
324,160,223041,1,8,0:0:0:0:
464,160,223203,1,0,0:0:0:0:
464,228,223284,2,0,B|464:300|464:300|388:328,1,131.25
276,276,223690,1,8,0:0:0:0:
144,228,223852,54,0,L|144:132,1,87.5
20,76,224176,2,0,L|20:170,1,87.5,0|8,0:0|0:0,0:0:0:0:
144,228,224501,1,0,0:0:0:0:
172,256,224582,1,0,0:0:0:0:
200,284,224663,1,0,0:0:0:0:
228,312,224744,6,0,B|264:348|264:348|352:348,1,131.25,0|8,0:0|0:0,0:0:0:0:
296,216,225149,1,0,0:0:0:0:
252,84,225311,1,0,0:0:0:0:
372,12,225474,1,0,0:0:0:0:
496,80,225636,1,8,0:0:0:0:
448,212,225798,1,0,0:0:0:0:
448,280,225879,2,0,B|396:320|396:320|316:320,1,131.25
192,316,226284,1,8,0:0:0:0:
144,184,226447,2,0,B|144:136|144:136|184:96,1,87.5,0|0,0:0|0:0,0:0:0:0:
312,108,226771,2,0,B|344:132|344:132|344:184,1,87.5,0|8,0:0|0:0,0:0:0:0:
256,288,227095,5,0,0:0:0:0:
284,316,227176,1,0,0:0:0:0:
324,316,227257,2,0,L|424:316|424:316,1,87.5
324,204,227582,1,8,0:0:0:0:
236,92,227744,2,0,L|132:92,1,87.5
52,192,228068,2,0,L|140:192,1,87.5,0|8,0:0|0:0,0:0:0:0:
280,192,228392,1,0,0:0:0:0:
352,192,228474,2,0,B|416:192|416:192|416:120,1,131.25
317,25,228879,1,8,0:0:0:0:
192,88,229041,54,0,L|100:88,1,87.5
8,188,229365,2,0,L|100:188,1,87.5,0|8,0:0|0:0,0:0:0:0:
192,288,229690,1,0,0:0:0:0:
152,288,229771,1,0,0:0:0:0:
112,288,229852,1,0,0:0:0:0:
72,288,229933,1,0,0:0:0:0:
32,288,230014,1,0,0:0:0:0:
144,360,230176,6,0,L|252:360,1,87.5,8|0,0:0|0:0,0:0:0:0:
364,316,230501,1,0,0:0:0:0:
404,180,230663,1,0,0:0:0:0:
364,180,230744,1,0,0:0:0:0:
324,180,230825,2,0,L|232:180,1,87.5,8|0,0:0|0:0,0:0:0:0:
245,45,231149,1,0,0:0:0:0:
291,49,231230,1,0,0:0:0:0:
333,67,231311,1,0,0:0:0:0:
367,97,231392,1,0,0:0:0:0:
391,136,231474,5,8,0:0:0:0:
401,181,231555,1,0,0:0:0:0:
397,227,231636,1,0,0:0:0:0:
379,269,231717,1,0,0:0:0:0:
349,303,231798,1,0,0:0:0:0:
310,327,231879,1,0,0:0:0:0:
265,337,231960,1,0,0:0:0:0:
219,333,232041,1,0,0:0:0:0:
177,315,232122,53,8,0:0:0:0:
143,285,232203,1,0,0:0:0:0:
119,246,232284,1,0,0:0:0:0:
109,201,232365,1,0,0:0:0:0:
113,155,232447,1,0,0:0:0:0:
131,113,232528,1,0,0:0:0:0:
161,79,232609,1,0,0:0:0:0:
200,55,232690,1,0,0:0:0:0:
256,40,232771,5,0,0:0:0:0:
256,41,233257,1,0,0:0:0:0:
344,313,233743,1,0,0:0:0:0:
113,145,234068,1,0,0:0:0:0:
398,145,234392,1,0,0:0:0:0:
167,313,234717,1,0,0:0:0:0:
256,192,234879,12,0,236987,0:0:0:0:
256,248,237311,5,0,0:0:0:0:
184,128,237474,1,0,0:0:0:0:
324,128,237636,1,0,0:0:0:0:
410,297,238122,53,0,0:0:0:0:
108,296,238285,1,0,0:0:0:0:
256,40,238447,1,0,0:0:0:0:
256,192,238933,5,4,0:0:0:0:
256,192,239014,1,0,0:0:0:0:
256,192,239095,1,4,0:0:0:0:
256,192,239176,1,0,0:0:0:0:
256,192,239257,1,4,0:0:0:0:
