osu file format v12

[General]
AudioFilename: Song of the Night Sparrow (Magnum Opus Remix).mp3
AudioLeadIn: 0
PreviewTime: 62805
Countdown: 0
SampleSet: Normal
StackLeniency: 0.8
Mode: 0
LetterboxInBreaks: 1
EpilepsyWarning: 1
WidescreenStoryboard: 0

[Editor]
Bookmarks: 15778,42048,51129,62805,73183,93940,114697,135454,145183,154913,175670,191237,211994,232751
DistanceSpacing: 1.2
BeatDivisor: 4
GridSize: 4

[Metadata]
Title:Song of the Night Sparrow
TitleUnicode:Song of the Night Sparrow
Artist:Magnum Opus
ArtistUnicode:Magnum Opus
Creator:Kan-ya
Version:Hard
Source:Touhou
Tags:ZUN Mystia Lorelei night bird Genro Yugessho Imperishable sin and millennium history 東方 永夜抄 ミスティア・ローレライ 夜雀の歌声 lZenxl CQ
BeatmapID:339315
BeatmapSetID:102923

[Difficulty]
HPDrainRate:7
CircleSize:5
OverallDifficulty:6
ApproachRate:8
SliderMultiplier:1.1
SliderTickRate:2

[Events]
//Background and Video events
0,0,"mystia-yang.jpg",0,0
//Break Periods
2,42268,50399
2,135474,144453
//Storyboard Layer 0 (Background)
//Storyboard Layer 1 (Fail)
//Storyboard Layer 2 (Pass)
//Storyboard Layer 3 (Foreground)
//Storyboard Sound Samples
//Background Colour Transformations
3,100,134,43,124

[TimingPoints]
5420,324.324324324324,4,1,1,70,1,0
42068,-100,4,2,0,90,0,0
62825,-100,4,1,1,70,0,0
73203,-100,4,2,0,90,0,0
93960,-100,4,1,1,70,0,0
104338,-80,4,1,1,70,0,1
114717,-100,4,1,1,70,0,0
175690,-100,4,2,0,90,0,0
191257,-100,4,2,0,90,0,0
201636,-100,4,2,0,90,0,1
212014,-100,4,1,1,70,0,0
222392,-80,4,1,1,70,0,1
232771,-100,4,1,1,70,0,0

[Colours]
Combo1 : 129,129,129
Combo2 : 117,183,255
Combo3 : 221,141,252
Combo4 : 205,205,205
Combo5 : 206,103,0
Combo6 : 204,0,5

[HitObjects]
180,296,15798,54,0,B|120:296|120:296,2,55,8|0|0,0:0|0:0|0:0,0:0:0:0:
256,296,16284,1,0,0:0:0:0:
332,296,16447,2,0,B|372:296|372:296|404:264,1,82.5,8|0,0:0|0:0,0:0:0:0:
332,172,16933,1,0,0:0:0:0:
256,36,17257,5,0,0:0:0:0:
212,100,17419,1,0,0:0:0:0:
212,176,17582,1,0,0:0:0:0:
256,240,17744,2,0,B|288:284|288:284|248:340,1,110,8|0,0:0|0:0,0:0:0:0:
320,188,18392,6,0,L|376:140,2,55,8|0|0,0:0|0:0|0:0,0:0:0:0:
256,232,18879,1,0,0:0:0:0:
192,192,19041,1,8,0:0:0:0:
96,132,19284,2,0,B|64:164|64:164|64:204,1,82.5
136,336,19852,53,0,0:0:0:0:
200,292,20014,1,0,0:0:0:0:
256,344,20176,1,0,0:0:0:0:
312,292,20338,1,8,0:0:0:0:
376,336,20501,1,0,0:0:0:0:
452,316,20663,6,0,B|452:261,1,55,0|0,0:0|0:0,0:0:0:0:
384,124,21149,1,0,0:0:0:0:
320,80,21311,1,0,0:0:0:0:
256,36,21474,1,0,0:0:0:0:
196,84,21636,2,0,B|164:116|164:116|164:156,2,82.5,8|0|0,0:0|0:0|0:0,0:0:0:0:
332,156,22447,5,0,0:0:0:0:
396,200,22609,1,0,0:0:0:0:
328,232,22771,1,0,0:0:0:0:
264,188,22933,1,8,0:0:0:0:
200,232,23095,2,0,B|148:248|148:248|84:228,1,110
44,188,23582,54,0,B|96:164|96:164|148:184|148:184|200:164|200:164|256:188,1,220,8|0,0:0|0:0,0:0:0:0:
360,156,24474,2,0,B|405:175|405:175|452:176,1,82.5
372,316,25041,1,0,0:0:0:0:
295,316,25203,1,0,0:0:0:0:
218,316,25365,1,0,0:0:0:0:
140,316,25528,1,8,0:0:0:0:
80,268,25690,2,0,B|41:229|41:229|41:173,1,110
116,192,26176,6,0,B|193:114|193:114|304:114,1,220,8|8,0:0|0:0,0:0:0:0:
256,220,27068,2,0,B|256:264|256:264|296:304,1,82.5
436,288,27636,2,0,L|480:244,3,55,0|0|0|8,0:0|0:0|0:0|0:0,0:0:0:0:
476,96,28447,1,0,0:0:0:0:
328,52,28771,6,8,B|216:52|216:52|136:132,1,220
256,140,29663,2,0,B|256:188|256:188|216:228,1,82.5
152,80,30230,1,0,0:0:0:0:
200,20,30392,1,0,0:0:0:0:
256,72,30554,1,0,0:0:0:0:
312,20,30717,1,8,0:0:0:0:
360,80,30879,1,0,0:0:0:0:
408,140,31041,54,0,L|408:196,1,55,0|0,0:0|0:0,0:0:0:0:
256,164,31528,1,0,0:0:0:0:
256,88,31690,1,0,0:0:0:0:
188,124,31852,1,0,0:0:0:0:
188,200,32014,2,0,B|188:255|188:255|188:296,1,82.5,8|0,0:0|0:0,0:0:0:0:
256,376,32501,1,0,0:0:0:0:
256,224,32825,6,0,L|256:164,2,55
300,288,33311,1,8,0:0:0:0:
376,288,33474,1,0,0:0:0:0:
420,224,33636,1,0,0:0:0:0:
376,164,33798,1,0,0:0:0:0:
300,160,33960,6,8,B|188:160|188:160|96:252,1,220
116,120,34852,1,0,0:0:0:0:
192,32,35095,1,0,0:0:0:0:
192,184,35419,2,0,L|192:244,2,55
256,140,35906,1,8,0:0:0:0:
308,84,36068,1,0,0:0:0:0:
384,84,36230,1,0,0:0:0:0:
460,84,36392,1,0,0:0:0:0:
436,156,36555,54,0,L|356:156,1,55,8|0,0:0|0:0,0:0:0:0:
304,156,36879,1,0,0:0:0:0:
348,220,37041,2,0,L|428:220,2,55
76,156,37852,2,0,L|131:156,1,55,8|0,0:0|0:0,0:0:0:0:
208,156,38176,1,0,0:0:0:0:
164,220,38338,2,0,L|109:220,2,55
256,192,38825,6,2,L|256:80,2,110,2|2|2,0:0|0:0|0:0,0:0:0:0:
256,268,39636,1,0,0:0:0:0:
324,228,39798,2,2,B|355:184|355:184|355:128,1,110
256,80,40284,1,0,0:0:0:0:
160,124,40447,2,2,B|160:178|160:178|188:226,1,110
256,192,40852,12,4,42068,0:0:0:0:
148,112,51149,53,2,0:0:0:0:
216,80,51311,1,0,0:0:0:0:
292,80,51474,1,0,0:0:0:0:
364,112,51636,1,0,0:0:0:0:
364,264,51960,53,0,0:0:0:0:
292,296,52122,1,0,0:0:0:0:
216,296,52285,1,0,0:0:0:0:
148,264,52447,1,2,0:0:0:0:
52,192,52771,2,0,L|116:192,1,55
144,124,53095,6,0,B|176:116|176:128|208:124,1,55
212,48,53419,2,0,B|244:40|244:52|276:48,1,55
404,120,53906,2,0,B|372:112|372:124|340:120,1,55
272,124,54230,1,0,0:0:0:0:
200,96,54392,6,0,P|144:80|76:116,2,110,2|0|2,0:0|0:0|0:0,0:0:0:0:
60,160,55365,1,0,0:0:0:0:
96,228,55528,1,0,0:0:0:0:
160,268,55690,54,0,B|192:260|192:272|224:268,1,55
276,224,56014,2,0,B|308:232|308:220|330:223,1,55
276,80,56501,2,0,B|244:72|244:84|212:80,1,55
200,156,56825,2,0,B|168:164|168:152|145:155,1,55
132,80,57149,1,0,0:0:0:0:
76,132,57311,1,0,0:0:0:0:
96,208,57474,1,0,0:0:0:0:
172,224,57636,5,2,0:0:0:0:
324,224,57960,1,0,0:0:0:0:
400,224,58122,1,0,0:0:0:0:
356,288,58284,6,0,B|334:285|334:297|302:289,1,55
260,224,58609,2,0,B|238:228|238:216|206:224,1,55
88,124,59095,2,0,L|48:84,2,55
164,124,59582,54,0,P|220:132|274:124,2,110,2|0|2,0:0|0:0|0:0,0:0:0:0:
308,184,60555,1,0,0:0:0:0:
348,116,60717,1,0,0:0:0:0:
308,52,60879,6,0,B|276:44|276:56|254:52,1,55
216,116,61203,2,0,B|184:124|184:112|162:115,1,55
108,172,61528,6,0,L|28:172,3,55,2|0|0|0,0:0|0:0|0:0|0:0,0:0:0:0:
84,244,62176,2,0,L|20:244,3,55,2|0|0|0,0:0|0:0|0:0|0:0,0:0:0:0:
56,316,62825,6,0,L|112:316,2,55,8|0|0,0:0|0:0|0:0,0:0:0:0:
84,244,63311,1,0,0:0:0:0:
116,176,63474,1,8,0:0:0:0:
212,244,63717,2,0,L|304:244,1,82.5
344,96,64285,1,0,0:0:0:0:
288,64,64447,1,0,0:0:0:0:
224,64,64609,1,0,0:0:0:0:
168,96,64771,2,0,B|112:96|112:96|73:134,1,110,8|0,0:0|0:0,0:0:0:0:
220,180,65419,6,0,B|148:180|148:180,2,55,8|0|0,0:0|0:0|0:0,0:0:0:0:
296,180,65906,1,0,0:0:0:0:
372,180,66068,1,8,0:0:0:0:
296,268,66311,2,0,L|200:268|200:268,1,82.5
60,268,66879,2,0,L|60:208,4,55,0|0|0|8|0,0:0|0:0|0:0|0:0|0:0,0:0:0:0:
114,322,67690,6,0,B|170:322,1,55,0|0,0:0|0:0,0:0:0:0:
324,320,68176,1,0,0:0:0:0:
400,320,68338,1,0,0:0:0:0:
476,320,68501,1,0,0:0:0:0:
440,252,68663,1,8,0:0:0:0:
380,152,68906,2,0,B|380:108|380:108|344:72,1,82.5,0|0,0:0|0:0,0:0:0:0:
256,204,69474,53,0,0:0:0:0:
216,272,69636,1,0,0:0:0:0:
180,204,69798,1,0,0:0:0:0:
220,136,69960,1,8,0:0:0:0:
296,136,70122,2,0,B|328:168|328:168|328:212,1,82.5
328,320,70609,6,0,B|376:368,2,55,8|0|0,0:0|0:0|0:0,0:0:0:0:
273,265,71095,1,0,0:0:0:0:
218,210,71257,1,8,0:0:0:0:
112,168,71501,2,0,B|128:128|128:128|176:104,1,82.5
312,68,72068,6,0,L|376:68,3,55,0|8|0|0,0:0|0:0|0:0|0:0,0:0:0:0:
348,144,72717,2,0,L|408:144,1,55,0|8,0:0|0:0,0:0:0:0:
372,216,73041,2,0,L|296:216,1,55,0|4,0:0|0:0,0:0:0:0:
256,116,74501,21,2,0:0:0:0:
336,248,74825,1,0,0:0:0:0:
184,252,75149,1,2,0:0:0:0:
112,116,75474,1,0,0:0:0:0:
112,40,75636,1,0,0:0:0:0:
256,116,75960,1,0,0:0:0:0:
256,192,76122,1,0,0:0:0:0:
396,324,76933,1,2,0:0:0:0:
372,72,77744,5,2,0:0:0:0:
296,56,77906,1,0,0:0:0:0:
216,56,78068,1,0,0:0:0:0:
141,72,78230,1,0,0:0:0:0:
256,312,78879,1,0,0:0:0:0:
432,192,79365,1,0,0:0:0:0:
310,104,79690,54,0,L|200:104,2,110,2|0|2,0:0|0:0|0:0,0:0:0:0:
364,158,80501,1,0,0:0:0:0:
364,234,80663,1,0,0:0:0:0:
309,288,80825,1,0,0:0:0:0:
232,288,80987,6,0,L|177:288,1,55
120,144,81474,2,0,L|175:144,1,55
116,288,81960,2,0,L|61:288,1,55
32,216,82284,5,2,0:0:0:0:
12,140,82447,1,0,0:0:0:0:
32,64,82609,1,0,0:0:0:0:
100,24,82771,2,0,B|156:48|212:24,1,110
236,96,83257,1,0,0:0:0:0:
184,152,83419,1,0,0:0:0:0:
160,224,83582,2,0,B|136:288|200:324,1,110,2|0,0:0|0:0,0:0:0:0:
232,252,84068,1,0,0:0:0:0:
276,188,84230,54,0,L|331:188,1,55
308,116,84555,2,0,L|363:116,1,55
392,188,84879,2,0,L|337:188,1,55
360,260,85203,2,0,L|305:260,1,55
228,260,85528,6,0,P|176:284|168:344,2,110,2|0|2,0:0|0:0|0:0,0:0:0:0:
384,260,86501,1,0,0:0:0:0:
448,216,86663,1,0,0:0:0:0:
384,172,86825,6,0,L|316:172,1,55
284,108,87149,2,0,L|224:108,1,55
188,172,87474,2,0,L|120:172,1,55
96,240,87798,2,0,L|164:240,1,55
196,304,88122,2,0,L|256:304,1,55
292,240,88447,2,0,L|360:240,1,55
400,184,88771,53,2,0:0:0:0:
296,72,89095,1,0,0:0:0:0:
220,72,89257,1,0,0:0:0:0:
172,132,89419,6,0,L|172:204,1,55
172,252,89744,2,0,L|172:307,1,55
232,280,90068,2,0,L|232:208,1,55
232,160,90392,2,0,L|232:88,1,55
304,76,90717,5,2,0:0:0:0:
412,184,91041,1,0,0:0:0:0:
303,292,91365,1,2,0:0:0:0:
193,182,91690,1,0,0:0:0:0:
193,105,91852,1,0,0:0:0:0:
424,104,92338,1,0,0:0:0:0:
344,236,92663,2,0,P|255:292|164:224,2,220,2|2|8,0:0|0:0|0:0,0:0:0:0:
392,176,94122,22,0,L|456:176,2,55
324,136,94609,2,0,B|284:176|284:176|236:176,1,82.5,8|0,0:0|0:0,0:0:0:0:
152,128,95095,1,0,0:0:0:0:
152,280,95419,5,0,0:0:0:0:
216,320,95582,1,0,0:0:0:0:
284,356,95744,1,0,0:0:0:0:
360,356,95906,1,8,0:0:0:0:
252,248,96230,1,0,0:0:0:0:
152,132,96555,54,8,B|264:132|264:132|360:228,1,220
424,128,97447,2,0,L|484:188,1,82.5
344,256,98014,6,0,L|344:312,4,55,0|0|0|8|0,0:0|0:0|0:0|0:0|0:0,0:0:0:0:
344,180,98825,6,0,L|304:140,1,55
256,84,99149,1,8,0:0:0:0:
204,144,99311,2,0,L|160:188,1,55
219,237,99636,1,0,0:0:0:0:
295,237,99798,2,0,L|360:300,2,82.5,8|0|0,0:0|0:0|0:0,0:0:0:0:
140,240,100609,53,0,0:0:0:0:
85,185,100771,1,0,0:0:0:0:
85,108,100933,1,0,0:0:0:0:
139,53,101095,1,8,0:0:0:0:
215,53,101257,1,0,0:0:0:0:
291,53,101419,1,0,0:0:0:0:
368,53,101582,1,0,0:0:0:0:
422,107,101744,6,0,B|340:184|340:184|232:184,1,220,8|8,0:0|0:0,0:0:0:0:
296,88,102636,2,0,B|192:88,1,82.5
68,136,103203,2,0,L|4:136,2,55
144,140,103690,2,0,B|236:200|236:200|352:200,1,220,8|8,0:0|0:0,0:0:0:0:
346,103,104501,5,0,0:0:0:0:
413,35,104663,1,0,0:0:0:0:
480,102,104825,1,8,0:0:0:0:
412,169,104987,1,0,0:0:0:0:
268,168,105230,2,0,B|248:216|248:216|268:272,1,103.125,8|0,0:0|0:0,0:0:0:0:
224,80,105798,53,8,0:0:0:0:
136,44,105960,1,0,0:0:0:0:
48,80,106122,1,0,0:0:0:0:
48,176,106284,1,8,0:0:0:0:
48,368,106609,1,8,0:0:0:0:
48,175,106933,5,8,0:0:0:0:
136,136,107095,1,0,0:0:0:0:
224,100,107257,1,0,0:0:0:0:
316,72,107419,1,8,0:0:0:0:
412,60,107582,1,0,0:0:0:0:
324,176,107825,1,8,0:0:0:0:
412,288,108068,1,0,0:0:0:0:
256,176,108392,6,0,L|176:176,3,68.75,8|0|0|8,0:0|0:0|0:0|0:0,0:0:0:0:
52,36,109203,54,0,L|52:124,1,68.75,8|0,0:0|0:0,0:0:0:0:
52,200,109528,1,8,0:0:0:0:
132,148,109690,1,0,0:0:0:0:
212,200,109852,1,0,0:0:0:0:
212,296,110014,1,8,0:0:0:0:
296,248,110176,2,0,B|296:124,2,103.125,0|8|0,0:0|0:0|0:0,0:0:0:0:
344,60,110987,6,0,L|412:60,2,68.75,8|0|0,0:0|0:0|0:0,0:0:0:0:
324,156,111474,1,8,0:0:0:0:
296,248,111636,2,0,L|204:248,2,68.75,0|8|0,0:0|0:0|0:0,0:0:0:0:
220,188,112122,6,0,L|164:244,2,68.75,8|0|0,0:0|0:0|0:0,0:0:0:0:
296,248,112609,1,8,0:0:0:0:
392,248,112771,2,0,L|520:248,2,103.125,0|8|0,0:0|0:0|0:0,0:0:0:0:
392,56,113582,2,0,L|468:56,2,68.75,8|0|0,0:0|0:0|0:0,0:0:0:0:
308,104,114068,2,0,L|356:56,2,68.75,8|0|0,0:0|0:0|0:0,0:0:0:0:
212,104,114555,1,0,0:0:0:0:
120,104,114717,70,8,P|72:152|152:248,1,220
292,184,115690,2,0,B|340:232|340:232|388:184|388:184|468:264,1,220,0|0,0:0|0:0,0:0:0:0:
340,352,116663,1,8,0:0:0:0:
256,220,116987,1,0,0:0:0:0:
180,352,117311,2,0,B|132:328|132:328|76:356,1,110,8|0,0:0|0:0,0:0:0:0:
24,212,117960,1,8,0:0:0:0:
80,68,118284,2,0,B|128:20|128:20|228:20|228:20,2,165,0|0|8,0:0|0:0|0:0,0:0:0:0:
152,96,119419,6,0,B|149:96|249:96|249:96|297:144,1,165,0|8,0:0|0:0,0:0:0:0:
256,292,120230,1,0,0:0:0:0:
412,292,120555,1,8,0:0:0:0:
354,149,120879,2,0,B|298:92|298:92|256:168|256:168|216:92|216:92|154:157,1,330,0|8,0:0|0:0,0:0:0:0:
256,272,122176,1,0,0:0:0:0:
392,196,122501,2,0,B|412:144|412:144|388:80,1,110,8|0,0:0|0:0,0:0:0:0:
256,24,123149,1,8,0:0:0:0:
144,92,123474,54,0,B|124:144|124:144|148:208,1,110,0|8,0:0|0:0,0:0:0:0:
200,248,123960,2,0,B|256:192|256:192|256:132|256:132|304:68,1,220
368,92,125095,6,0,B|387:142|387:142|367:194,1,110,8|0,0:0|0:0,0:0:0:0:
256,88,125744,1,8,0:0:0:0:
144,92,126068,2,0,B|104:132|104:132|113:184|113:184|104:240|104:240|148:284,1,220,0|0,0:0|0:0,0:0:0:0:
284,336,127041,2,8,L|284:226,1,110,8|0,0:0|0:0,0:0:0:0:
232,80,127690,2,0,B|232:140|232:140|232:204,1,110,8|0,0:0|0:0,0:0:0:0:
356,280,128338,1,8,0:0:0:0:
432,144,128663,2,0,B|484:76|484:76|428:12|428:12,2,165,0|0|8,0:0|0:0|0:0,0:0:0:0:
392,80,129798,6,0,B|312:80|312:80|248:160,1,165,0|8,0:0|0:0,0:0:0:0:
120,80,130609,1,0,0:0:0:0:
228,192,130933,1,8,0:0:0:0:
76,192,131257,2,0,L|76:302,1,110,0|0,0:0|0:0,0:0:0:0:
228,276,131906,1,0,0:0:0:0:
380,248,132230,2,0,L|380:120,1,110,8|0,0:0|0:0,0:0:0:0:
228,104,132879,1,0,0:0:0:0:
76,84,133203,2,0,L|76:208,1,110,0|8,0:0|0:0,0:0:0:0:
196,292,133852,2,0,B|243:319|243:319|292:292,1,110,0|8,0:0|0:0,0:0:0:0:
360,256,134338,2,0,B|387:184|387:184|319:184|319:184|351:116,1,220,0|0,0:0|0:0,0:0:0:0:
260,64,145203,69,0,0:0:0:0:
260,64,145365,1,0,0:0:0:0:
260,64,145528,2,8,B|368:64|368:64|408:104|408:104|464:104,2,220
180,196,147149,1,0,0:0:0:0:
336,192,147474,1,8,0:0:0:0:
260,324,147798,5,0,0:0:0:0:
260,324,147960,1,0,0:0:0:0:
260,324,148122,2,8,B|152:324|152:324|112:284|112:284|56:284,2,220
180,192,149744,1,0,0:0:0:0:
332,192,150068,1,8,0:0:0:0:
484,188,150392,1,0,0:0:0:0:
408,52,150717,54,0,B|372:16|372:16|240:16,1,165,8|0,0:0|0:0,0:0:0:0:
108,52,151528,2,0,B|148:92|148:92|256:92,1,165,0|8,0:0|0:0,0:0:0:0:
408,128,152338,1,0,0:0:0:0:
256,160,152663,1,8,0:0:0:0:
256,312,152987,1,0,0:0:0:0:
332,312,153149,1,0,0:0:0:0:
408,312,153311,1,8,0:0:0:0:
256,140,153798,1,0,0:0:0:0:
180,140,153960,1,8,0:0:0:0:
104,140,154122,1,0,0:0:0:0:
256,192,154933,12,0,156149,0:0:0:0:
256,192,156230,12,0,157447,0:0:0:0:
256,192,157528,12,8,159474,0:0:0:0:
304,320,160122,6,0,P|405:317|418:216,1,220
312,108,161095,2,0,L|184:108,3,110,8|0|8|0,0:0|0:0|0:0|0:0,0:0:0:0:
200,296,162717,6,0,L|328:296,1,110,0|8,0:0|0:0,0:0:0:0:
432,200,163365,1,0,0:0:0:0:
276,200,163690,1,8,0:0:0:0:
376,84,164014,2,0,L|440:84,3,55
432,160,164663,2,0,L|496:160,2,55
276,160,165311,1,0,0:0:0:0:
160,56,165636,53,8,0:0:0:0:
105,110,165798,1,0,0:0:0:0:
50,164,165960,1,0,0:0:0:0:
50,240,166122,1,0,0:0:0:0:
126,240,166284,1,8,0:0:0:0:
180,185,166447,1,0,0:0:0:0:
234,130,166609,2,0,B|346:130|346:130|382:94|382:94|446:94,1,220
344,216,167582,2,0,B|232:216|232:216|196:252|196:252|132:252,1,220,8|0,0:0|0:0,0:0:0:0:
12,340,168555,6,0,L|128:340,1,110,0|8,0:0|0:0,0:0:0:0:
72,236,169203,2,0,L|188:220|188:220,1,110,0|8,0:0|0:0,0:0:0:0:
136,124,169852,2,0,B|216:44|216:44|328:44,1,220
436,148,170825,5,8,0:0:0:0:
372,192,170987,1,0,0:0:0:0:
296,192,171149,1,0,0:0:0:0:
64,196,171636,2,0,B|104:156|104:156|104:92,1,110
156,44,172122,2,0,B|208:44|208:44|249:2,1,110,8|0,0:0|0:0,0:0:0:0:
358,112,172771,1,8,0:0:0:0:
358,265,173095,1,0,0:0:0:0:
224,192,173419,54,0,L|224:128,3,55
80,80,174230,2,0,L|80:8,3,55
80,180,175041,2,0,L|80:256,2,55
172,304,175690,38,0,L|172:380,3,55,0|2|0|0,0:0|0:0|0:0|0:0,0:0:0:0:
244,332,176338,1,0,0:0:0:0:
348,216,176663,2,0,P|340:120|228:100,1,220,2|2,0:0|0:0,0:0:0:0:
272,248,177636,1,0,0:0:0:0:
424,244,177960,1,2,0:0:0:0:
452,92,178284,1,0,0:0:0:0:
312,156,178609,2,0,P|228:216|141:160,1,220,2|2,0:0|0:0,0:0:0:0:
44,40,179582,6,0,L|12:8,4,27.5,0|0|0|0|2,0:0|0:0|0:0|0:0|0:0,0:0:0:0:
44,193,180230,2,0,L|20:217,4,27.5,0|0|0|0|2,0:0|0:0|0:0|0:0|0:0,0:0:0:0:
153,302,180879,2,0,L|177:326,4,27.5,0|0|0|0|2,0:0|0:0|0:0|0:0|0:0,0:0:0:0:
236,320,181365,1,0,0:0:0:0:
240,244,181528,6,0,P|194:223|130:263,1,110
80,196,182014,1,0,0:0:0:0:
80,120,182176,1,0,0:0:0:0:
140,72,182338,1,0,0:0:0:0:
200,120,182501,2,0,P|248:120|264:104,1,55,2|0,0:0|0:0,0:0:0:0:
324,148,182825,2,0,L|356:180,7,27.5
324,148,183474,2,0,P|256:173|226:276,1,165
256,344,184284,53,0,0:0:0:0:
320,300,184447,2,0,B|355:244|321:197,1,110,2|0,0:0|0:0,0:0:0:0:
392,164,184933,2,0,P|416:241|393:319,1,165,0|2,0:0|0:0,0:0:0:0:
244,276,185744,1,0,0:0:0:0:
244,200,185906,1,0,0:0:0:0:
392,164,186230,1,0,0:0:0:0:
340,220,186392,2,0,P|292:248|224:224,1,110,2|0,0:0|0:0,0:0:0:0:
244,200,186798,6,0,L|244:172,3,27.5,0|0|0|2,0:0|0:0|0:0|0:0,0:0:0:0:
256,192,187365,12,2,188987,0:0:0:0:
144,108,189311,5,2,0:0:0:0:
256,36,189636,1,2,0:0:0:0:
364,108,189960,1,2,0:0:0:0:
360,240,190284,2,0,P|296:336|148:228,1,330,2|12,0:0|0:0,0:0:0:0:
148,176,191419,1,0,0:0:0:0:
256,96,191744,1,0,0:0:0:0:
256,160,191906,1,0,0:0:0:0:
368,232,192230,1,8,0:0:0:0:
368,168,192392,54,0,P|392:92|360:12,1,165,0|8,0:0|0:0,0:0:0:0:
232,28,193203,1,0,0:0:0:0:
200,156,193528,1,8,0:0:0:0:
240,208,193690,1,0,0:0:0:0:
336,116,194014,1,0,0:0:0:0:
384,68,194176,2,0,B|468:172|376:280,1,220,8|8,0:0|0:0,0:0:0:0:
340,316,194987,6,0,B|236:400|128:308,1,220,0|0,0:0|0:0,0:0:0:0:
100,264,195798,1,0,0:0:0:0:
80,200,195960,1,0,0:0:0:0:
84,136,196122,1,0,0:0:0:0:
112,76,196284,1,8,0:0:0:0:
256,192,196771,12,8,200014,0:0:0:0:
168,120,200338,5,0,0:0:0:0:
224,84,200501,1,0,0:0:0:0:
288,84,200663,1,8,0:0:0:0:
348,116,200825,1,0,0:0:0:0:
340,256,201149,53,0,0:0:0:0:
288,296,201312,1,8,0:0:0:0:
224,296,201474,1,0,0:0:0:0:
172,256,201636,1,0,0:0:0:0:
84,132,201960,2,0,L|84:68,1,55,8|0,0:0|0:0,0:0:0:0:
160,64,202284,5,0,0:0:0:0:
316,60,202609,1,8,0:0:0:0:
396,192,202933,1,0,0:0:0:0:
316,324,203257,1,8,0:0:0:0:
236,192,203582,5,0,0:0:0:0:
104,272,203906,1,8,0:0:0:0:
236,352,204230,1,0,0:0:0:0:
368,272,204555,2,0,L|412:228,1,55,8|0,0:0|0:0,0:0:0:0:
408,156,204879,53,0,0:0:0:0:
292,56,205203,1,8,0:0:0:0:
168,148,205528,1,0,0:0:0:0:
220,292,205852,1,8,0:0:0:0:
372,288,206176,1,0,0:0:0:0:
284,160,206501,1,8,0:0:0:0:
160,68,206825,2,0,P|96:100|80:132,1,110,0|8,0:0|0:0,0:0:0:0:
128,192,207311,1,0,0:0:0:0:
204,192,207474,5,0,0:0:0:0:
356,192,207798,1,8,0:0:0:0:
280,60,208122,1,0,0:0:0:0:
237,224,208447,1,8,0:0:0:0:
367,146,208771,1,0,0:0:0:0:
234,72,209095,1,8,0:0:0:0:
288,216,209419,1,0,0:0:0:0:
420,296,209744,2,0,P|441:325|433:375,1,55,8|0,0:0|0:0,0:0:0:0:
368,344,210068,5,0,0:0:0:0:
220,300,210392,1,8,0:0:0:0:
112,192,210717,1,0,0:0:0:0:
128,116,210879,1,0,0:0:0:0:
184,64,211041,1,8,0:0:0:0:
260,64,211203,1,0,0:0:0:0:
384,156,211528,1,0,0:0:0:0:
368,232,211690,1,8,0:0:0:0:
312,284,211852,1,0,0:0:0:0:
236,284,212014,5,0,0:0:0:0:
140,192,212338,1,8,0:0:0:0:
64,84,212663,2,0,L|128:20,1,82.5,0|0,0:0|0:0,0:0:0:0:
220,28,213149,1,0,0:0:0:0:
352,28,213474,6,0,L|396:72,3,55,0|8|0|0,0:0|0:0|0:0|0:0,0:0:0:0:
392,200,214284,1,8,0:0:0:0:
392,332,214609,6,0,B|344:304|344:304|344:248,1,110,0|8,0:0|0:0,0:0:0:0:
344,116,215257,1,0,0:0:0:0:
256,68,215501,1,0,0:0:0:0:
256,168,215744,1,0,0:0:0:0:
164,264,216068,2,0,B|124:304|124:304,4,55,0|8|0|0|0,0:0|0:0|0:0|0:0|0:0,0:0:0:0:
212,220,216879,54,0,B|160:168,1,55,8|0,0:0|0:0,0:0:0:0:
172,116,217203,1,0,0:0:0:0:
216,68,217365,1,0,0:0:0:0:
284,68,217528,1,8,0:0:0:0:
328,116,217690,1,0,0:0:0:0:
328,180,217852,2,0,L|328:267,1,82.5,0|0,0:0|0:0,0:0:0:0:
416,220,218338,1,0,0:0:0:0:
444,92,218663,5,0,0:0:0:0:
388,56,218825,1,8,0:0:0:0:
322,56,218987,1,0,0:0:0:0:
256,56,219149,1,0,0:0:0:0:
190,56,219311,1,0,0:0:0:0:
123,56,219474,1,8,0:0:0:0:
68,92,219636,1,0,0:0:0:0:
124,128,219798,6,0,L|188:128,4,55,0|0|8|0|0,0:0|0:0|0:0|0:0|0:0,0:0:0:0:
56,200,220690,2,0,B|156:200,1,82.5,0|0,0:0|0:0,0:0:0:0:
196,320,221257,53,0,0:0:0:0:
242,273,221419,1,8,0:0:0:0:
308,273,221582,1,0,0:0:0:0:
354,226,221744,1,0,0:0:0:0:
419,226,221906,2,0,L|468:176,2,55,0|8|0,0:0|0:0|0:0,0:0:0:0:
360,284,222392,5,8,0:0:0:0:
276,288,222555,1,0,0:0:0:0:
192,284,222717,1,0,0:0:0:0:
133,225,222879,1,8,0:0:0:0:
74,166,223041,1,0,0:0:0:0:
188,44,223365,1,8,0:0:0:0:
270,44,223528,1,0,0:0:0:0:
380,168,223852,6,0,L|380:240|380:240,1,68.75,8|0,0:0|0:0,0:0:0:0:
312,284,224176,2,0,L|312:208,1,68.75,0|8,0:0|0:0,0:0:0:0:
244,168,224501,2,0,L|244:244|244:244,1,68.75,0|8,0:0|0:0,0:0:0:0:
368,344,224987,53,8,0:0:0:0:
426,285,225149,1,0,0:0:0:0:
484,226,225311,1,0,0:0:0:0:
484,143,225474,1,8,0:0:0:0:
484,60,225636,1,0,0:0:0:0:
320,60,225960,2,0,L|320:140|320:140,1,68.75,8|0,0:0|0:0,0:0:0:0:
176,44,226447,6,0,L|176:144,1,68.75,8|0,0:0|0:0,0:0:0:0:
96,136,226771,1,0,0:0:0:0:
20,172,226933,2,0,L|20:252,1,68.75,8|0,0:0|0:0,0:0:0:0:
96,272,227257,6,0,L|96:340,1,68.75,8|0,0:0|0:0,0:0:0:0:
180,336,227582,1,8,0:0:0:0:
256,296,227744,1,0,0:0:0:0:
256,212,227906,1,0,0:0:0:0:
256,128,228068,1,8,0:0:0:0:
256,44,228230,1,0,0:0:0:0:
420,8,228555,2,0,L|420:96,1,68.75,8|0,0:0|0:0,0:0:0:0:
420,256,229041,54,0,L|420:332|420:332,2,68.75,8|0|0,0:0|0:0|0:0,0:0:0:0:
352,212,229528,1,8,0:0:0:0:
268,212,229690,1,0,0:0:0:0:
184,212,229852,1,8,0:0:0:0:
224,140,230014,1,0,0:0:0:0:
308,140,230176,5,8,0:0:0:0:
392,140,230338,1,0,0:0:0:0:
476,140,230501,2,0,L|476:220,1,68.75,0|8,0:0|0:0,0:0:0:0:
420,272,230825,1,0,0:0:0:0:
360,328,230987,2,0,B|280:328|280:328,1,68.75,0|8,0:0|0:0,0:0:0:0:
232,272,231311,1,0,0:0:0:0:
172,212,231474,1,0,0:0:0:0:
112,272,231636,1,8,0:0:0:0:
56,212,231798,6,0,L|56:136,1,68.75
108,80,232122,2,0,L|156:80,3,34.375,8|0|0|0,0:0|0:0|0:0|0:0,0:0:0:0:
136,120,232447,2,0,L|172:120|172:120,2,34.375,8|0|0,0:0|0:0|0:0,0:0:0:0:
168,176,232771,1,8,0:0:0:0:
256,284,233257,53,0,0:0:0:0:
100,164,233744,1,0,0:0:0:0:
192,72,234068,1,0,0:0:0:0:
324,72,234392,1,0,0:0:0:0:
412,172,234717,1,0,0:0:0:0:
256,192,234879,12,0,236987,0:0:0:0:
348,100,237311,5,0,0:0:0:0:
408,168,237474,1,0,0:0:0:0:
408,256,237636,1,0,0:0:0:0:
164,284,238122,1,0,0:0:0:0:
104,220,238285,1,0,0:0:0:0:
104,132,238447,1,0,0:0:0:0:
260,192,238933,1,4,0:0:0:0:
260,192,239014,1,0,0:0:0:0:
260,192,239095,1,4,0:0:0:0:
260,192,239176,1,0,0:0:0:0:
260,192,239257,1,4,0:0:0:0:
