osu file format v12

[General]
AudioFilename: Song of the Night Sparrow (Magnum Opus Remix).mp3
AudioLeadIn: 0
PreviewTime: 62805
Countdown: 0
SampleSet: Normal
StackLeniency: 0.8
Mode: 0
LetterboxInBreaks: 1
EpilepsyWarning: 1
WidescreenStoryboard: 0

[Editor]
Bookmarks: 15778,42048,51129,62805,73183,93940,114697,135454,145183,154913,175670,191237,211994,232751
DistanceSpacing: 1.2
BeatDivisor: 4
GridSize: 8

[Metadata]
Title:Song of the Night Sparrow
TitleUnicode:Song of the Night Sparrow
Artist:Magnum Opus
ArtistUnicode:Magnum Opus
Creator:Kan-ya
Version:Easy
Source:Touhou
Tags:ZUN Mystia Lorelei night bird Genro Yugessho Imperishable sin and millennium history 東方 永夜抄 ミスティア・ローレライ 夜雀の歌声 lZenxl CQ
BeatmapID:334324
BeatmapSetID:102923

[Difficulty]
HPDrainRate:2
CircleSize:3
OverallDifficulty:1
ApproachRate:3
SliderMultiplier:0.7
SliderTickRate:1

[Events]
//Background and Video events
0,0,"mystia-yang.jpg",0,0
//Break Periods
2,42068,49709
2,135474,143763
2,175890,185925
2,232971,236196
//Storyboard Layer 0 (Background)
//Storyboard Layer 1 (Fail)
//Storyboard Layer 2 (Pass)
//Storyboard Layer 3 (Foreground)
//Storyboard Sound Samples
//Background Colour Transformations
3,100,134,43,124

[TimingPoints]
5420,324.324324324324,4,1,1,70,1,0
42068,-100,4,2,0,90,0,0
62825,-100,4,1,1,70,0,0
73203,-100,4,2,0,90,0,0
93960,-100,4,1,1,70,0,0
104338,-80,4,1,1,70,0,1
114697,-100,4,1,1,70,0,0
175690,-100,4,2,0,90,0,0
191257,-100,4,2,0,90,0,0
201636,-100,4,2,0,90,0,1
212014,-100,4,1,1,70,0,0
222392,-80,4,1,1,70,0,1
232771,-100,4,1,1,70,0,0

[Colours]
Combo1 : 129,129,129
Combo2 : 117,183,255
Combo3 : 221,141,252
Combo4 : 205,205,205
Combo5 : 206,103,0
Combo6 : 204,0,5

[HitObjects]
96,224,15798,54,0,L|96:144,1,70,8|0,0:0|0:0,0:0:0:0:
144,80,16447,1,0,0:0:0:0:
208,16,16771,2,0,L|304:16,1,70,0|8,0:0|0:0,0:0:0:0:
368,16,17419,6,0,P|424:48|432:128,1,140
424,208,18392,6,0,L|368:264|368:264,1,70,8|0,0:0|0:0,0:0:0:0:
336,328,19041,1,0,0:0:0:0:
296,256,19365,2,0,L|240:200|240:200,1,70,0|8,0:0|0:0,0:0:0:0:
232,128,20014,54,0,P|176:168|180:248,1,140,0|0,0:0|0:0,0:0:0:0:
88,256,20987,2,0,P|104:112|224:40,1,280,8|8,0:0|0:0,0:0:0:0:
288,64,22609,6,0,L|368:64,2,70
288,152,23582,6,0,L|288:232,1,70,8|0,0:0|0:0,0:0:0:0:
264,304,24230,2,0,P|328:304|369:240,1,140,0|8,0:0|0:0,0:0:0:0:
368,160,25203,1,0,0:0:0:0:
368,72,25528,54,0,B|296:64|296:80|224:72,1,140,0|8,0:0|0:0,0:0:0:0:
144,72,26501,1,0,0:0:0:0:
64,72,26825,2,0,B|56:144|72:144|64:216,1,140,0|8,0:0|0:0,0:0:0:0:
56,296,27798,1,0,0:0:0:0:
136,296,28122,2,0,B|168:304|176:304|232:296,1,70
288,296,28771,6,0,P|352:280|376:192,1,140,8|0,0:0|0:0,0:0:0:0:
384,136,29744,2,0,P|368:88|336:72,1,70,0|8,0:0|0:0,0:0:0:0:
272,80,30392,2,0,B|200:72|200:88|128:80,1,140
64,128,31365,6,0,P|64:208|120:264,1,140,8|0,0:0|0:0,0:0:0:0:
168,200,32338,2,0,P|144:152|168:120,1,70,0|8,0:0|0:0,0:0:0:0:
184,64,32987,53,0,0:0:0:0:
256,24,33311,1,0,0:0:0:0:
328,64,33636,1,0,0:0:0:0:
392,120,33960,6,0,P|416:192|392:256,1,140,8|0,0:0|0:0,0:0:0:0:
344,312,34933,1,0,0:0:0:0:
264,328,35257,1,8,0:0:0:0:
184,312,35582,6,0,P|152:256|184:176,1,140
248,240,36555,54,0,L|432:240,1,175
384,112,37852,2,0,L|161:114,1,210
96,160,39149,6,0,P|88:216|96:232,1,70
168,280,39798,2,2,L|232:320,1,70
304,272,40447,2,2,L|368:312,1,70
141,173,51149,22,0,P|181:85|237:85,1,140,2|0,0:0|0:0,0:0:0:0:
296,80,52122,1,0,0:0:0:0:
368,128,52447,2,0,P|400:192|360:256,1,140,2|0,0:0|0:0,0:0:0:0:
224,336,53744,1,2,0:0:0:0:
88,256,54392,6,0,P|80:224|94:190,1,70,0|0,0:0|0:0,0:0:0:0:
152,128,55041,2,0,B|183:116|215:148|255:132,2,105,2|0|0,0:0|0:0|0:0,0:0:0:0:
168,208,56338,2,0,P|216:248|352:200,1,210,2|0,0:0|0:0,0:0:0:0:
344,112,57636,6,0,B|288:120|264:96|200:112,1,140,2|0,0:0|0:0,0:0:0:0:
120,112,58609,1,0,0:0:0:0:
48,152,58933,2,0,P|32:176|48:224,1,70,2|0,0:0|0:0,0:0:0:0:
96,280,59582,54,0,B|160:296|176:264|248:280,2,140,0|2|0,0:0|0:0|0:0,0:0:0:0:
224,344,61528,6,0,B|296:344|296:344|304:344|360:304|392:232|296:176,2,280,2|8|8,0:0|0:0|0:0,0:0:0:0:
136,344,64447,22,0,B|64:344|64:344|32:272,1,140
32,200,65419,6,0,B|104:200|104:200|176:152,1,140,8|0,0:0|0:0,0:0:0:0:
232,112,66392,1,0,0:0:0:0:
320,112,66717,2,0,B|392:112|392:112|448:168,1,140,8|0,0:0|0:0,0:0:0:0:
464,240,67690,6,0,B|472:304|416:320|416:320,1,70,0|8,0:0|0:0,0:0:0:0:
360,320,68338,2,0,B|288:296|224:352|136:320,1,210,0|8,0:0|0:0,0:0:0:0:
80,288,69636,2,0,P|56:240|112:176,1,140
184,176,70609,54,0,B|256:176|256:176|328:136,1,140,8|0,0:0|0:0,0:0:0:0:
315,58,71582,1,0,0:0:0:0:
240,16,71906,1,8,0:0:0:0:
160,24,72230,1,0,0:0:0:0:
88,64,72555,2,0,B|32:112|32:112|32:192,1,140,0|4,0:0|0:0,0:0:0:0:
384,192,74501,38,0,L|384:272,1,70,2|0,0:0|0:0,0:0:0:0:
336,336,75149,1,0,0:0:0:0:
248,336,75474,2,0,L|176:336,1,70,0|2,0:0|0:0,0:0:0:0:
112,280,76122,2,0,B|160:231|160:231|232:231,1,140
320,232,77095,2,0,L|400:232,1,70,2|0,0:0|0:0,0:0:0:0:
472,232,77744,6,0,L|472:80,1,140,0|2,0:0|0:0,0:0:0:0:
312,56,79041,2,0,L|160:56,1,140,0|2,0:0|0:0,0:0:0:0:
312,152,80338,2,0,L|160:152,1,140,0|2,0:0|0:0,0:0:0:0:
48,280,82284,6,0,P|112:336|192:328,1,140,2|0,0:0|0:0,0:0:0:0:
248,336,83257,1,0,0:0:0:0:
328,328,83582,1,2,0:0:0:0:
392,272,83906,1,0,0:0:0:0:
416,192,84230,2,0,P|424:128|360:72,1,140,0|2,0:0|0:0,0:0:0:0:
296,64,85203,1,0,0:0:0:0:
208,64,85528,54,0,B|192:136|224:136|208:208,1,140,0|2,0:0|0:0,0:0:0:0:
128,184,86501,2,0,B|140:158|116:142|124:94,1,70,0|0,0:0|0:0,0:0:0:0:
40,104,87149,1,0,0:0:0:0:
40,192,87474,2,0,P|56:248|152:272,1,140,2|0,0:0|0:0,0:0:0:0:
208,280,88447,1,0,0:0:0:0:
288,280,88771,6,0,B|360:272|360:296|440:280,1,140,2|0,0:0|0:0,0:0:0:0:
464,208,89744,1,0,0:0:0:0:
400,152,90068,2,0,B|328:144|328:168|256:152,1,140,2|0,0:0|0:0,0:0:0:0:
176,152,91041,5,0,0:0:0:0:
96,152,91365,2,0,P|56:120|112:64,1,140,2|0,0:0|0:0,0:0:0:0:
184,56,92338,2,0,B|216:48|240:64|280:56,1,70,0|2,0:0|0:0,0:0:0:0:
424,56,93311,2,0,L|424:208,1,140,0|8,0:0|0:0,0:0:0:0:
424,280,94284,22,0,B|376:336|376:336|280:336,1,140
224,336,95257,1,8,0:0:0:0:
136,336,95582,2,0,B|88:280|88:280|88:208,1,140
88,128,96555,6,0,B|160:128|160:128|208:184,1,140,8|0,0:0|0:0,0:0:0:0:
254,246,97528,1,0,0:0:0:0:
306,180,97852,2,0,B|350:128|350:128|422:128,1,140,8|0,0:0|0:0,0:0:0:0:
448,48,98825,53,0,0:0:0:0:
368,48,99149,2,0,L|216:48,1,140,8|0,0:0|0:0,0:0:0:0:
228,132,100122,2,0,L|172:188,1,70,0|8,0:0|0:0,0:0:0:0:
112,128,100771,2,0,P|88:200|144:264,1,140
184,296,101744,6,0,B|248:264|312:328|392:288|408:296,1,210,8|0,0:0|0:0,0:0:0:0:
440,224,103041,1,8,0:0:0:0:
360,192,103365,2,0,B|280:176|280:208|216:192,1,140
168,256,104338,5,8,0:0:0:0:
168,88,104987,1,8,0:0:0:0:
336,88,105636,1,8,0:0:0:0:
336,256,106284,2,0,L|404:324,2,87.5,8|0|8,0:0|0:0|0:0,0:0:0:0:
336,88,107582,53,8,0:0:0:0:
168,88,108230,1,8,0:0:0:0:
168,256,108879,2,8,L|104:320,2,87.5,8|0|8,0:0|0:0|0:0,0:0:0:0:
336,256,110176,2,8,P|380:184|328:112,1,175
176,115,111474,2,8,P|131:185|176:256,1,175
312,336,112771,6,0,P|400:200|296:56,1,350,8|0,0:0|0:0,0:0:0:0:
140,64,114717,6,0,B|140:138|140:138|93:189,1,140,8|0,0:0|0:0,0:0:0:0:
36,128,115690,2,0,P|4:204|96:272,1,210,0|0,0:0|0:0,0:0:0:0:
172,300,116987,1,0,0:0:0:0:
252,332,117311,54,0,B|324:332|324:332|360:272,1,140,8|0,0:0|0:0,0:0:0:0:
404,204,118284,2,0,B|472:76|320:56,1,210,0|0,0:0|0:0,0:0:0:0:
256,104,119582,5,0,0:0:0:0:
184,56,119906,2,0,B|112:56|112:56|56:112,1,140,8|0,0:0|0:0,0:0:0:0:
64,192,120879,1,0,0:0:0:0:
120,256,121203,1,8,0:0:0:0:
208,256,121528,1,0,0:0:0:0:
272,312,121852,6,0,B|344:312|344:312|400:272,1,140,0|8,0:0|0:0,0:0:0:0:
448,200,122825,2,0,P|424:128|376:80,1,140
296,72,123798,2,0,B|296:144|296:144|248:200,1,140,8|0,0:0|0:0,0:0:0:0:
136,72,125095,53,8,0:0:0:0:
136,160,125419,2,0,P|112:232|136:288,1,140
216,312,126392,2,0,B|316:312|316:312|400:224,1,210,8|0,0:0|0:0,0:0:0:0:
424,152,127690,5,8,0:0:0:0:
392,72,128014,2,0,P|344:48|256:56,1,140
192,104,128987,2,0,P|192:208|232:256,1,140,8|0,0:0|0:0,0:0:0:0:
360,312,130284,5,8,0:0:0:0:
440,280,130609,2,0,P|464:232|440:152,1,140
360,128,131582,2,0,L|208:128,1,140,8|0,0:0|0:0,0:0:0:0:
56,136,132879,53,8,0:0:0:0:
64,224,133203,2,0,P|96:272|176:304,1,140
264,312,134176,2,0,B|372:312|372:312|448:248,1,192.5,8|0,0:0|0:0,0:0:0:0:
419,76,145203,5,0,0:0:0:0:
427,156,145528,2,0,P|427:236|379:268,1,140,8|0,0:0|0:0,0:0:0:0:
298,267,146501,1,8,0:0:0:0:
214,267,146825,1,0,0:0:0:0:
130,267,147149,2,0,P|79:222|85:155,1,140,0|0,0:0|0:0,0:0:0:0:
128,88,148122,6,0,P|216:40|296:56,2,140,8|0|8,0:0|0:0|0:0,0:0:0:0:
80,160,149744,2,0,P|72:232|104:296,1,140
176,328,150717,54,0,P|208:256|288:224,1,140,8|0,0:0|0:0,0:0:0:0:
368,136,152014,2,0,P|336:88|256:64,1,140,8|0,0:0|0:0,0:0:0:0:
176,72,152987,5,0,0:0:0:0:
112,128,153311,2,8,P|96:200|144:296,1,175
256,192,154933,12,0,159474,0:0:0:0:
352,64,160122,6,0,P|392:136|368:192,1,140,8|0,0:0|0:0,0:0:0:0:
440,240,161095,1,0,0:0:0:0:
384,304,161419,1,8,0:0:0:0:
320,248,161744,2,0,P|248:288|192:264,1,140,0|0,0:0|0:0,0:0:0:0:
136,208,162717,54,0,P|112:136|176:72,1,140,8|0,0:0|0:0,0:0:0:0:
224,88,163690,1,0,0:0:0:0:
304,88,164014,2,0,P|336:147|311:210,2,140,8|0|8,0:0|0:0|0:0,0:0:0:0:
224,88,165636,6,0,B|192:160|256:224|224:304,2,210,0|8|0,0:0|0:0|0:0,0:0:0:0:
312,80,167906,1,8,0:0:0:0:
312,160,168230,2,0,B|304:200|320:200|312:240,1,70
392,248,168879,2,0,B|384:288|400:288|392:328,1,70,0|8,0:0|0:0,0:0:0:0:
472,344,169528,1,0,0:0:0:0:
472,264,169852,2,0,B|488:192|456:192|472:120,1,140,0|8,0:0|0:0,0:0:0:0:
416,64,170825,6,0,P|392:56|344:64,1,70
192,64,171798,2,0,P|96:48|48:80,1,140,8|0,0:0|0:0,0:0:0:0:
95,144,172771,2,0,P|143:152|175:128,1,70,0|8,0:0|0:0,0:0:0:0:
256,192,173419,12,4,175690,0:0:0:0:
256,192,187365,12,4,191257,0:0:0:0:
336,80,192230,22,0,P|400:120|400:192,1,140,8|0,0:0|0:0,0:0:0:0:
321,179,193203,1,0,0:0:0:0:
236,179,193528,2,0,P|172:219|172:291,1,140,8|0,0:0|0:0,0:0:0:0:
336,288,194825,2,0,P|416:256|416:192,2,140,8|0|8,0:0|0:0|0:0,0:0:0:0:
256,192,196771,12,8,198717,0:0:0:0:
48,208,200014,70,8,P|64:320|208:320,1,280
254,253,201636,2,0,B|238:173|270:173|254:109,1,140
255,30,202609,2,8,P|383:18|413:143,1,280
336,192,204230,6,0,B|256:176|256:208|176:192,1,140
112,192,205203,2,8,P|100:63|225:33,1,280
256,112,206825,6,0,B|240:192|272:192|256:256,1,140
288,336,207798,2,8,P|412:305|401:177,1,280
320,176,209419,54,0,B|240:160|240:192|176:176,1,140
96,176,210392,1,8,0:0:0:0:
256,32,212014,38,0,B|320:96|320:96|464:96,1,210,8|0,0:0|0:0,0:0:0:0:
439,180,213311,2,0,B|311:180|311:180|256:240,1,210,8|0,0:0|0:0,0:0:0:0:
256,320,214609,6,0,L|96:320,1,140,8|0,0:0|0:0,0:0:0:0:
56,260,215582,1,0,0:0:0:0:
115,200,215906,2,0,L|259:200,1,140,8|0,0:0|0:0,0:0:0:0:
256,112,216879,6,0,P|336:64|432:112,1,210,8|0,0:0|0:0,0:0:0:0:
448,192,218176,2,0,P|416:208|384:192,1,70,0|8,0:0|0:0,0:0:0:0:
304,192,218825,2,0,B|288:272|320:272|304:336,1,140
224,320,219798,54,0,B|144:320|144:320|96:272,1,140,8|0,0:0|0:0,0:0:0:0:
96,192,220771,2,0,L|176:192,1,70,0|8,0:0|0:0,0:0:0:0:
256,192,221419,2,0,L|400:192,1,140
480,192,222392,5,8,0:0:0:0:
352,80,223041,1,8,0:0:0:0:
176,80,223690,1,8,0:0:0:0:
48,192,224338,2,8,L|48:288,2,87.5,8|0|8,0:0|0:0|0:0,0:0:0:0:
176,304,225636,5,8,0:0:0:0:
336,304,226284,1,8,0:0:0:0:
464,192,226933,2,0,L|464:96,2,87.5,8|0|8,0:0|0:0|0:0,0:0:0:0:
336,80,228230,53,8,0:0:0:0:
176,80,228879,1,8,0:0:0:0:
256,224,229528,2,8,L|256:316,2,87.5,8|0|8,0:0|0:0|0:0,0:0:0:0:
256,192,230825,12,8,232771,0:0:0:0:
152,240,237636,5,8,0:0:0:0:
360,240,238447,1,8,0:0:0:0:
256,56,239257,1,12,0:0:0:0:
