osu file format v5

[General]
AudioFilename: Magic_System_ft_Cheb_Khaled_-_meme_pas_fatigue(QUALITER_CD)2009-BY_POPOF.mp3
AudioLeadIn: 0
PreviewTime: -1
Countdown: 1
SampleSet: None
StackLeniency: 0.7
Mode: 0
LetterboxInBreaks: 1

[Editor]
DistanceSpacing: 0.800000011920929
BeatDivisor: 1
GridSize: 32

[Metadata]
Title:Meme pas fatiguer
Artist:Magik System
Creator:ozwox
Version:Easy
Source:
Tags:

[Difficulty]
HPDrainRate:0
CircleSize:5
OverallDifficulty:5
SliderMultiplier:1.7
SliderTickRate:3

[Events]
//Background and Video events
0,0,"khaled.jpg"
//Break Periods
//Storyboard Layer 0 (Background)
//Storyboard Layer 1 (Fail)
//Storyboard Layer 2 (Pass)
//Storyboard Layer 3 (Foreground)
//Storyboard Sound Samples
//Background Colour Transformations
3,100,163,162,255

[TimingPoints]
0,666.666666666667,4,0,0,100,1,0

[HitObjects]
256,192,2310,1,0
256,192,7089,1,0
256,192,10858,1,0
256,192,11832,1,0
256,192,12768,1,0
256,192,13654,1,0
256,192,14153,1,0
256,192,14617,1,0
256,192,15109,1,0
256,192,15550,1,0
256,192,16014,1,0
256,192,16518,1,0
224,160,16861,1,0
224,96,17221,1,0
288,64,17722,1,0
320,64,17929,1,0
352,64,18174,1,0
384,96,18408,1,0
320,192,19214,1,0
288,192,19374,1,0
256,192,19674,1,0
224,192,19852,1,0
192,160,20045,1,0
192,128,20268,1,0
224,96,20685,1,0
256,64,21028,1,0
320,64,21444,1,0
352,96,21665,1,0
352,128,21922,1,0
352,160,22134,1,0
256,224,23038,1,0
224,224,23277,1,0
192,224,23502,1,0
160,192,23784,1,0
160,160,24057,1,0
192,96,24480,1,0
224,64,24813,1,0
288,64,25228,1,0
320,64,25394,1,0
352,64,25605,1,0
384,96,25932,1,0
352,224,26862,1,0
320,224,27134,1,0
288,224,27394,1,0
256,224,27645,1,0
224,224,27874,1,0
160,128,28713,1,0
160,96,28901,1,0
192,64,29173,1,0
224,64,29369,1,0
256,64,29704,1,0
384,96,30649,1,0
384,128,30898,1,0
352,160,31149,1,0
320,192,31414,1,0
288,192,31622,1,0
256,192,36218,12,0,37674
288,160,39108,5,0
320,192,39505,1,0
288,224,39905,1,0
256,224,40126,1,0
224,224,40362,1,0
192,224,40604,1,0
160,192,40854,1,0
256,128,41696,1,0
288,128,41937,1,0
320,128,42128,1,0
352,128,42444,1,0
384,128,42694,1,0
416,160,42944,1,0
384,192,43348,1,0
352,224,43694,1,0
320,224,43928,1,0
288,224,44157,1,0
256,224,44405,1,0
224,224,44645,1,0
128,160,45446,1,0
128,128,45605,1,0
128,96,45809,1,0
160,64,46074,1,0
192,64,46338,1,0
224,64,46545,1,0
288,64,47096,1,0
320,64,47384,1,0
352,64,47674,1,0
352,96,47954,1,0
352,128,48205,1,0
352,160,48442,1,0
320,192,48649,1,0
288,224,49074,1,0
224,256,49512,1,0
192,256,49673,1,0
160,256,49908,1,0
128,256,50126,1,0
96,256,50345,1,0
64,256,50548,1,0
64,192,50904,1,0
64,128,51254,1,0
64,128,51485,1,0
96,128,51678,1,0
64,128,51894,1,0
96,128,52156,1,0
64,128,52378,1,0
160,128,53182,1,0
160,128,53394,1,0
192,128,53628,1,0
192,128,53836,1,0
224,128,54070,1,0
256,128,54289,1,0
352,192,55178,1,0
224,256,56198,1,0
160,224,56646,1,0
128,160,57080,1,0
160,96,57554,1,0
192,96,57897,1,0
224,96,58082,1,0
256,96,58432,1,0
320,96,58888,1,0
384,128,59348,1,0
384,160,59553,1,0
352,192,59768,1,0
320,224,59968,1,0
192,192,60796,1,0
160,192,60966,1,0
128,160,61205,1,0
128,128,61458,1,0
128,96,61668,1,0
160,64,61873,1,0
192,64,62229,1,0
224,64,62570,1,0
288,64,63009,1,0
320,64,63218,1,0
352,96,63498,1,0
384,128,63780,1,0
288,224,64672,1,0
256,224,64932,1,0
224,224,65141,1,0
192,224,65396,1,0
160,224,65628,1,0
128,256,65980,1,0
160,288,66332,1,0
192,288,66592,1,0
224,288,66808,1,0
256,288,67029,1,0
288,288,67260,1,0
320,256,67521,1,0
384,160,68394,1,0
416,128,68665,1,0
416,96,68902,1,0
384,64,69137,1,0
352,32,69374,1,0
256,64,70202,1,0
224,64,70345,1,0
192,64,70624,1,0
192,64,70869,1,0
192,64,71098,1,0
192,64,71333,1,0
128,160,72229,1,0
160,160,72480,1,0
160,192,72740,1,0
160,224,72945,1,0
192,256,73202,1,0
256,288,73684,1,0
288,224,74192,1,0
224,256,74645,1,0
160,256,75109,1,0
128,192,75573,1,0
160,128,76028,1,0
224,96,76553,1,0
288,96,77040,1,0
256,192,78008,12,0,79468
64,160,80401,6,0,B|288:128|256:128|320:224|288:352|64:288|64:320|-32:160|160:288,2,510
224,160,87545,1,0
256,160,87878,1,0
288,160,88093,1,0
352,224,88776,1,0
320,256,89017,1,0
288,256,89249,1,0
256,256,89498,1,0
224,256,89772,1,0
192,224,90028,1,0
192,192,90236,1,0
192,128,90705,1,0
448,224,92000,1,0
320,160,92666,1,0
192,160,93333,1,0
224,320,94000,1,0
288,160,94666,1,0
96,288,96000,1,0
192,224,96666,1,0
320,128,97333,1,0
192,224,98000,1,0
288,128,98666,1,0
224,192,99333,1,0
160,256,100000,1,0
192,224,100666,1,0
256,160,101333,1,0
128,288,102000,1,0
224,192,102666,1,0
160,256,103333,1,0
224,192,104000,1,0
160,256,104666,1,0
256,160,105333,1,0
128,288,106000,1,0
224,224,106666,1,0
384,160,107333,1,0
288,128,108000,1,0
192,160,108666,1,0
256,192,110000,12,0,112000
320,160,112666,5,0
128,192,114000,1,0
256,256,114666,1,0
352,224,115333,1,0
320,128,116000,1,0
192,224,116666,1,0
256,320,117333,1,0
288,256,118000,1,0
384,320,118666,1,0
224,288,119333,1,0
160,192,120000,1,0
285,18,121333,1,0
263,139,122000,1,0
191,231,122666,1,0
62,112,123333,1,0
214,127,124000,1,0
340,146,124666,1,0
252,252,125333,1,0
123,164,126000,1,0
226,130,126666,1,0
319,109,127333,1,0
428,173,128000,1,0
305,246,128666,1,0
165,201,129333,1,0
259,160,130000,1,0
452,97,130666,1,4
254,108,131333,1,4
199,266,132000,1,4
317,219,132666,1,4
385,103,133333,1,4
451,87,134666,1,6
342,133,135333,1,6
252,183,136000,1,6
313,238,136666,1,6
475,33,138000,1,14
251,170,139333,5,14
363,171,140000,1,14
290,322,140666,1,14
209,201,141333,1,14
442,102,142666,5,12
333,118,143333,1,12
406,226,144000,1,12
312,240,144666,1,12
157,24,146000,5,12
256,192,152666,12,12,161333
97,148,161333,6,12,B|344:138|251:283|198:324|101:294|48:206|45:88|5:119|-37:174|-35:156,2,510
123,147,168000,1,12
270,121,168666,1,12
249,244,169333,1,12
127,307,170000,1,12
252,143,170666,1,12
383,119,171333,1,12
424,210,172000,1,12
271,289,172666,1,12
150,229,173333,1,12
251,149,174000,1,12
369,135,174666,1,12
276,286,175333,1,4
187,118,176000,1,4
474,171,176666,1,4
269,224,177333,1,4
179,106,178000,1,4
197,296,178666,1,4
371,119,179333,1,4
154,94,180000,1,4
473,201,180666,1,4
241,203,181333,1,4
52,176,182000,1,4
321,204,182666,1,4
196,181,183333,1,4
186,346,184000,1,4
336,290,184666,1,4
260,144,185333,1,4
388,75,186000,1,4
141,175,186666,1,4
323,304,187333,1,4
355,178,188000,1,4
130,156,188666,1,4
37,287,189333,1,4
256,192,190666,12,4,193333
256,192,195333,12,4,196666
109,141,198000,5,4
253,145,198666,1,4
306,194,199333,1,4
65,256,200000,1,4
256,192,200666,12,4,202000
