osu file format v5

[General]
AudioFilename: 11 - Won the Lawsuit.mp3
AudioLeadIn: 2000
PreviewTime: -1
Countdown: 1
SampleSet: Normal
StackLeniency: 0.3
Mode: 0
LetterboxInBreaks: 1
EditorBookmarks: 1990,25989,49988,73987,121987,145987,200319,224319,248319,272479,283159

[Metadata]
Title:Won the Lawsuit
Artist:Magical Trick Society
Creator:buraimaster1234
Version:Hard
Source:
Tags:gyakuten phoenix saiban wright

[Difficulty]
HPDrainRate:5
CircleSize:4
OverallDifficulty:5
SliderMultiplier:1.2
SliderTickRate:1

[Events]
//Background and Video events
0,0,"Untitled-1.jpg"
//Break Periods
2,26022,36810
2,73825,84800
2,122200,132800
2,145825,156800
//Storyboard Layer 0 (Background)
//Storyboard Layer 1 (Failing)
//Storyboard Layer 2 (Passing)
//Storyboard Layer 3 (Foreground)
//Storyboard Sound Samples
//Background Colour Transformations
3,100,0,0,0

[TimingPoints]
2000,375,4,1,0,80,1
74000,375,4,2,0,70,1
194002,384.615384615385,4,2,0,75,1
197079,375,4,1,0,80,1
198579,428.571428571429,4,1,0,80,1
200339,375,4,1,0,85,1
270839,391.006842619746,4,1,0,85,1
272499,375,4,1,0,90,1
275499,375,4,1,0,95,1
277001,400,4,1,0,100,1
278681,375,4,1,0,100,1

[HitObjects]
256,192,500,12,4,2000
416,96,2375,5,0
288,96,2750,1,0
288,224,3125,1,0
160,224,3500,1,0
32,224,3875,1,0
32,96,4250,2,4,B|96:96,2,60,4|0|0
32,224,5000,1,4
160,224,5375,5,0
192,96,5750,1,0
224,224,6125,1,0
288,128,6500,1,0
352,224,6875,1,0
384,96,7250,2,4,B|432:160,2,60,4|0|0
416,224,8000,1,4
288,256,8375,5,0
160,224,8750,1,0
32,256,9125,1,0
64,128,9500,1,0
32,0,9875,1,0
160,32,10250,1,4
160,32,10437,1,0
160,32,10625,2,4,B|288:32,1,120
352,32,11187,5,0
416,32,11375,1,0
448,96,11562,1,0
416,160,11750,1,0
448,224,11937,1,0
384,256,12125,1,4
320,256,12312,1,0
256,256,12500,2,0,B|160:256,2,60
256,192,13062,5,4
256,128,13250,2,0,B|320:128,2,60,0|4|0
192,128,13812,5,4
128,128,14000,5,4
64,224,14375,1,0
192,224,14750,1,0
128,320,15125,1,0
256,320,15500,1,0
192,224,15875,1,0
320,224,16250,2,4,B|448:224,1,120,4|0
320,224,17000,1,4
192,224,17375,5,0
64,224,17750,1,0
64,96,18125,1,0
192,96,18500,1,0
192,224,18875,1,0
320,224,19250,2,4,B|320:96,1,120,4|0
448,96,20000,1,4
448,224,20375,5,0
352,320,20750,1,0
288,320,20937,1,0
224,320,21125,1,0
96,320,21500,1,0
32,224,21875,1,0
96,224,22062,1,0
160,224,22250,1,4
288,224,22625,2,4,B|416:224,2,120,4|4|4
256,160,23562,5,0
192,160,23750,1,0
128,160,23937,1,4
128,160,24125,1,4
128,96,24312,1,0
128,32,24500,1,0
192,32,24687,1,4
192,32,24875,1,4
256,64,25062,5,0
320,64,25250,1,0
352,128,25437,1,4
352,128,25625,1,4
288,160,25812,1,4
96,288,38000,5,0
96,32,38750,1,0
224,32,39125,1,0
224,96,39312,1,0
224,160,39500,1,0
224,288,39875,1,0
352,288,40250,5,0
352,160,40625,1,0
352,96,40812,1,0
352,32,41000,1,0
480,32,41375,1,0
480,160,41750,1,0
352,176,42125,5,0
336,304,42500,1,0
160,320,43062,1,0
96,320,43250,2,0,B|11:315|0:228|96:224,1,180
160,224,44000,5,0
288,224,44375,1,0
288,96,44750,1,0
416,248,45500,1,0
288,248,45875,1,0
160,248,46250,5,0
96,248,46437,1,0
96,184,46625,1,0
160,168,46812,1,0
200,112,47000,1,0
320,120,47375,1,0
352,184,47562,1,0
384,248,47750,1,0
256,248,48125,1,0
128,224,48500,5,4
224,304,48875,1,0
256,192,49250,12,4,50000
416,96,50375,5,0
352,192,50750,1,0
288,96,51125,1,0
224,192,51500,1,0
160,96,51875,1,0
96,192,52250,2,4,B|224:192,1,120,4|0
336,192,53000,1,4
464,192,53375,5,0
400,288,53750,1,0
272,288,54125,1,0
208,192,54500,1,0
144,288,54875,1,0
16,288,55250,2,4,B|144:288,1,120,4|0
16,288,56000,1,4
0,160,56375,5,0
128,160,56750,1,0
128,32,57125,1,0
256,32,57500,1,0
384,32,57875,1,0
384,160,58250,2,4,B|384:288,1,120
352,336,58812,1,0
288,352,59000,1,4
224,320,59187,5,0
160,320,59375,1,0
64,256,59750,1,4
128,224,59937,1,0
192,224,60125,1,4
256,192,60312,1,0
320,192,60500,6,4,B|400:192|400:112,1,120
384,56,61062,1,0
320,32,61250,5,4
192,32,61625,5,0
64,32,62000,5,4
64,96,62187,1,0
64,160,62375,1,0
176,112,62750,1,0
160,224,63125,1,0
224,224,63312,1,0
288,224,63500,2,4,B|416:224,3,120,4|0|4|0
288,224,65000,1,4
160,224,65375,5,0
96,128,65750,1,0
224,128,66125,1,0
288,32,66500,1,0
416,32,66875,1,4
352,128,67250,1,4
288,160,67437,1,0
256,224,67625,1,4
256,224,67812,1,0
256,224,68000,1,4
128,224,68375,6,0,B|64:224,3,60
64,160,69125,2,0,B|128:160,3,60,0|0|0|4
128,96,69875,2,4,B|192:96,3,60,4|0|4|4
256,96,70625,2,4,B|384:96,1,120
384,160,71187,5,0
320,160,71375,1,0
288,224,71562,1,0
224,224,71750,1,0
192,288,71937,1,4
192,288,72125,1,4
128,288,72312,1,0
64,280,72500,1,0
32,224,72687,1,4
32,224,72875,5,4
32,160,73062,1,0
64,96,73250,1,4
128,72,73437,1,4
192,96,73625,5,4
64,64,86000,5,0
64,192,86375,1,0
64,320,86750,1,0
144,320,87125,1,0
144,192,87500,1,0
144,64,87875,1,0
224,64,88250,1,0
224,192,88625,1,0
224,320,89000,5,0
416,320,89375,1,0
416,248,89750,1,0
288,248,90125,1,0
288,176,90500,1,0
480,176,90875,1,0
480,104,91250,1,0
352,104,91625,1,0
224,136,92000,5,0
96,168,92375,1,0
224,200,92750,1,0
352,232,93125,1,0
224,264,93500,1,0
96,296,93875,1,0
224,328,94250,1,0
352,360,94625,1,0
384,192,95000,5,0
416,320,95375,1,0
352,160,95750,1,0
256,288,96125,1,0
416,160,96500,1,0
224,192,96875,1,0
368,256,97250,1,2
296,288,97437,1,0
216,288,97625,1,0
144,256,97812,1,2
96,192,98000,6,2,B|64:96|128:32|224:32,2,240,2|2|2
224,192,99875,1,0
352,192,100250,1,2
352,128,100437,1,0
416,128,100625,1,0
416,192,100812,1,0
416,256,101000,1,2
416,256,101187,1,0
416,256,101375,1,0
320,320,101750,6,2,B|288:256|192:288,1,120,2|0
128,320,102500,2,2,B|111:242|0:256,1,120,2|0
128,224,103250,2,2,B|160:160|256:192,1,120,2|2
288,224,103812,1,0
352,224,104000,6,2,B|480:224,3,120
416,160,105312,1,0
352,104,105500,2,2,B|224:104,2,120
352,168,106437,1,0
352,232,106625,1,0
288,232,106812,1,0
288,168,107000,6,2,B|224:168,2,60,2|0|2
288,296,107750,2,2,B|160:296,2,120
168,296,108875,2,0,B|40:296,1,120,0|2
32,192,110000,5,2
160,192,110375,1,0
288,192,110750,1,2
64,256,111500,1,2
192,256,111875,1,0
320,256,112250,1,2
448,256,112625,1,0
352,192,113000,5,2
288,96,113375,1,0
192,32,113750,1,2
32,192,114500,1,2
96,96,114875,1,0
192,32,115250,1,2
192,112,115437,1,0
192,192,115625,1,0
192,352,116000,5,2
320,352,116375,1,0
320,224,116750,1,2
320,352,117125,1,0
448,352,117500,1,2
448,224,117875,1,0
448,96,118250,1,2
320,96,118625,1,0
256,96,118812,1,0
192,96,119000,5,2
144,184,119375,1,0
208,184,119562,1,0
272,184,119750,5,2
224,272,120125,1,0
160,272,120312,1,0
96,272,120500,5,2
256,192,120593,12,0,122000
64,96,134000,6,0,B|128:104,1,60
192,112,134375,1,0
320,128,134750,1,0
448,144,135125,1,0
448,272,135500,2,0,B|384:280,1,60
320,288,135875,1,0
192,304,136250,1,0
64,320,136625,1,0
64,192,137000,6,0,B|64:128,1,60
64,64,137375,1,0
192,64,137750,1,0
192,192,138125,1,0
320,192,138500,2,0,B|320:128,1,60
320,64,138875,1,0
448,64,139250,1,0
448,192,139625,1,0
448,320,140000,6,0,B|384:320,1,60
320,320,140375,2,0,B|256:320,1,60
192,320,140750,1,2
192,320,141125,1,2
96,224,141500,2,0,B|160:224,1,60
224,224,141875,2,0,B|288:224,1,60
352,224,142250,1,2
352,224,142625,1,2
416,128,143000,5,0
352,128,143187,1,0
288,128,143375,1,2
256,224,143750,5,0
192,224,143937,1,0
128,224,144125,1,6
96,320,144500,2,0,B|176:320|160:240,1,120,0|2
144,176,145062,1,2
144,112,145250,2,2,B|224:80|272:160,1,120
448,64,158000,5,2
448,192,158375,1,0
448,320,158750,1,2
64,320,159500,1,2
64,192,159875,1,0
64,64,160250,1,2
192,64,160625,2,2,B|192:192,1,120
320,192,161375,5,0
448,192,161750,1,2
320,192,162500,1,6
192,192,162875,1,0
64,192,163250,1,2
64,192,163625,1,0
160,64,164000,5,6
288,64,164375,1,0
416,64,164750,1,2
480,320,165500,1,6
352,320,165875,1,0
224,320,166250,1,6
96,320,166625,1,0
96,320,167000,1,6
96,192,167375,5,0
224,192,167750,1,2
416,192,168500,1,6
288,192,168875,1,0
288,64,169250,1,2
288,64,169625,1,0
160,64,170000,5,0
96,160,170375,1,0
32,256,170750,1,0
480,320,171500,1,0
416,224,171875,1,0
352,128,172250,1,0
352,256,172625,1,0
224,256,173000,1,0
96,256,173375,5,0
96,128,173750,1,2
96,128,173937,1,2
256,96,174500,1,2
256,96,174687,1,2
416,128,175250,1,2
416,128,175437,1,2
416,128,175625,1,0
256,240,176000,5,0
128,240,176375,1,0
0,240,176750,1,0
256,240,177500,1,0
384,240,177875,1,0
512,240,178250,1,0
384,240,178625,1,0
256,240,179000,1,0
256,96,179375,5,2
192,96,179562,1,2
192,160,179750,1,2
256,160,179937,1,2
384,160,180312,1,2
384,288,180687,1,2
384,224,180875,1,2
256,224,181250,1,2
192,224,181437,1,2
256,224,181625,1,2
192,224,181812,1,2
224,288,182000,5,0
352,288,182375,1,0
480,288,182750,1,0
480,160,183125,1,0
352,160,183500,1,0
352,32,183875,1,0
224,32,184250,1,0
96,32,184625,1,0
96,160,185000,1,0
224,160,185375,5,0
224,160,185750,1,0
320,224,186125,1,0
320,224,186500,1,0
416,288,186875,1,0
416,288,187250,1,0
512,352,187625,1,0
480,224,188000,5,2
352,224,188375,1,0
288,224,188562,1,0
224,224,188750,1,0
96,224,189125,1,0
96,224,189500,5,2
96,96,189875,1,0
160,96,190062,1,0
224,96,190250,1,0
352,96,190625,1,0
352,96,191000,5,2
480,96,191375,1,0
480,160,191562,1,0
480,224,191750,1,0
352,224,192125,1,0
352,224,192500,5,2
224,224,192875,1,0
224,160,193062,1,0
224,96,193250,1,0
96,96,193625,1,0
96,96,194000,5,2
64,160,194194,1,0
128,192,194386,1,0
80,240,194578,1,0
128,296,194771,1,2
200,320,194963,1,0
272,320,195155,2,0,B|296:313|320:296,2,30
336,288,195540,1,2
384,224,195732,5,0
400,152,195925,1,0
368,80,196117,1,0
288,64,196309,1,2
256,64,196405,1,0
224,80,196501,1,0
184,152,196694,1,2
185,183,196790,1,0
200,208,196886,1,0
296,232,197079,5,4
256,192,197172,12,4,198579
256,192,199436,5,4
256,192,199543,12,4,200339
