osu file format v6

[General]
AudioFilename: 05 - Reminiscence.mp3
AudioLeadIn: 0
PreviewTime: -1
Countdown: 1
SampleSet: None
StackLeniency: 0.7
Mode: 0
LetterboxInBreaks: 1

[Editor]
DistanceSpacing: 0.800000011920929
BeatDivisor: 1
GridSize: 32

[Metadata]
Title:Reminiscence
Artist:Magical Trick Society
Creator:Jokre
Version:Easy
Source:
Tags:

[Difficulty]
HPDrainRate:6
CircleSize:5
OverallDifficulty:6
SliderMultiplier:1.4
SliderTickRate:1

[Events]
//Background and Video events
0,0,"PW-1.png"
//Break Periods
//Storyboard Layer 0 (Background)
//Storyboard Layer 1 (Fail)
//Storyboard Layer 2 (Pass)
//Storyboard Layer 3 (Foreground)
//Storyboard Sound Samples
//Background Colour Transformations
3,100,163,162,255

[TimingPoints]
23296.7142857143,952.380952380952,4,0,0,100,1,0

[HitObjects]
68,54,23296,1,0
230,52,24249,1,0
376,58,25201,1,0
383,166,26153,1,0
256,167,27106,1,0
127,172,28058,2,0,B|85:323|134:143|145:290,1,140
274,279,29963,1,0
378,275,30915,1,0
379,168,31868,5,0
259,182,32820,1,0
123,181,33772,1,0
131,79,34725,2,0,B|426:87|425:114,1,280
391,201,37582,1,0
206,205,38534,1,0
95,179,39487,1,0
143,81,40439,1,0
257,238,41391,1,0
111,335,42344,1,0
146,214,43296,2,0,B|310:197|325:187,1,140
408,207,45201,1,0
367,75,46153,1,0
189,77,47106,1,0
95,164,48058,1,0
211,277,49011,1,0
374,206,49963,6,0,B|258:90|106:217|181:206,1,140
95,95,51868,1,0
244,256,53772,1,0
351,196,54725,1,0
272,104,55677,1,0
99,148,56630,1,0
137,263,57582,1,0
254,267,58534,1,0
355,249,59487,1,0
351,176,60439,1,0
180,103,61391,5,0
69,186,62344,1,0
157,271,63296,1,0
292,269,64249,1,0
391,194,65201,1,0
289,101,66153,1,0
134,151,67106,1,0
192,272,68058,1,0
317,220,69011,5,0
348,134,69963,1,0
208,104,70915,1,0
127,247,71868,1,0
262,240,72820,1,0
171,161,73772,1,0
301,136,74725,1,0
301,236,75677,5,0
114,290,76630,1,0
91,189,77582,1,0
192,84,78534,1,0
261,237,79487,1,0
339,179,80439,1,0
144,91,81391,2,0,B|122:248|95:252,1,140
324,245,83296,1,0
337,111,84249,1,0
201,110,85201,1,0
111,207,86153,1,0
227,281,87106,5,0
333,206,88058,2,0,B|234:97|67:161|162:212,1,140
161,91,89963,1,0
104,240,90915,1,0
281,241,91868,5,0
346,136,92820,1,0
185,122,93772,1,0
172,244,94725,1,0
374,224,95677,1,0
187,171,96630,1,0
174,279,97582,1,0
291,191,98534,1,0
157,157,99487,1,0
151,257,100439,1,0
303,197,101391,1,0
381,271,102344,1,0
95,191,103296,1,0
254,107,104249,1,0
358,277,105201,1,0
122,333,106153,1,0
79,167,107106,1,0
331,157,108058,1,0
295,274,109010,1,0
172,189,109963,1,0
280,139,110915,1,0
339,286,111868,1,0
30,318,112820,1,0
30,139,113772,1,0
236,120,114725,1,0
314,199,115677,1,0
101,264,116630,5,0
95,136,117582,1,0
287,79,118534,1,0
402,222,119487,1,0
190,293,120439,1,0
100,145,121391,1,0
258,107,122344,5,0
407,159,123296,1,0
252,294,124249,1,0
105,199,125201,1,0
207,125,126153,5,0
339,134,127106,1,0
338,231,128058,1,0
207,242,129010,1,0
84,158,129963,1,0
159,80,130915,5,0
318,79,131868,1,0
420,85,132820,1,0
353,233,133772,1,0
192,227,134725,5,0
75,121,135677,1,0
260,77,136630,1,0
365,106,137582,1,0
262,245,138534,1,0
135,237,139487,1,0
160,64,140439,2,0,B|315:108|411:215|412:213,1,280
289,238,144249,1,0
99,187,146153,5,0
194,123,147106,1,0
239,156,148058,1,0
292,242,149010,1,0
126,302,149963,1,0
103,181,150915,1,0
205,137,151868,5,0
328,152,152820,1,0
240,278,153772,1,0
96,240,154725,1,0
117,135,155677,1,0
256,125,156630,2,0,B|257:276|277:299,1,140
119,262,158534,1,0
111,154,159487,5,0
206,119,160439,1,0
324,119,161391,1,0
409,158,162344,1,0
185,304,163296,2,0,B|130:169|395:252|370:233,1,140
116,97,166153,1,0
257,125,168058,1,0
267,222,169010,1,0
104,281,169963,5,0
65,177,170915,1,0
207,72,171868,1,0
319,216,172820,1,0
181,309,173772,1,0
47,204,174725,1,0
149,102,175677,1,0
264,207,176630,1,0
160,276,177582,1,0
92,171,178534,5,0
216,98,179487,1,0
319,185,180439,1,0
184,291,181391,1,0
82,217,182344,1,0
181,127,183296,1,0
299,175,184249,1,0
125,260,185201,5,0
83,151,186153,1,0
259,130,187106,1,0
277,249,188058,5,0
172,272,189010,1,0
64,138,189963,1,0
300,128,190915,1,0
216,291,191868,1,0
109,211,192820,1,0
257,179,194725,5,0
146,232,196630,1,0
283,246,198534,1,0
283,246,199487,1,0
331,241,200439,1,0
318,157,201391,1,0
189,172,202344,1,0
117,181,203296,1,0
296,177,204249,1,0
254,191,205201,1,0
336,241,206153,5,0
373,176,207106,2,0,B|239:99|244:136,1,140
139,159,209010,2,0,B|251:261|299:301,1,140
172,188,210915,1,0
296,270,212820,1,0
369,186,214725,1,0
190,139,216630,1,0
139,256,218534,1,0
298,268,220439,1,0
380,176,221391,5,0
262,131,222344,1,0
151,229,223296,1,0
306,266,224249,1,0
403,146,225201,1,0
243,103,226153,1,0
144,182,227106,1,0
238,258,228058,1,0
333,192,229010,1,0
224,132,229963,5,0
156,211,230915,1,0
268,271,231868,1,0
353,179,232820,1,0
242,114,233772,1,0
159,199,234725,1,0
283,251,235677,5,0
319,161,236630,1,0
163,154,237582,1,0
156,277,238534,1,0
315,271,239487,1,0
256,192,240439,12,0,242344
257,194,243296,5,0
