osu file format v13

[General]
AudioFilename: MAGIC! - Rude.mp3
AudioLeadIn: 0
PreviewTime: -1
Countdown: 1
SampleSet: Normal
StackLeniency: 0.7
Mode: 0
LetterboxInBreaks: 1
WidescreenStoryboard: 1

[Editor]
DistanceSpacing: 1.7
BeatDivisor: 4
GridSize: 4
TimelineZoom: 1

[Metadata]
Title:Rude
TitleUnicode:Rude
Artist:Magic
ArtistUnicode:Magic
Creator:RdManebog
Version:Normal
Source:
Tags:
BeatmapID:521089
BeatmapSetID:222987

[Difficulty]
HPDrainRate:5
CircleSize:5
OverallDifficulty:5
ApproachRate:5
SliderMultiplier:1.4
SliderTickRate:4

[Events]
//Background and Video events
0,0,"MAGIC_-_Rude_cover.jpg",0,0
//Break Periods
2,154577,166594
//Storyboard Layer 0 (Background)
//Storyboard Layer 1 (Fail)
//Storyboard Layer 2 (Pass)
//Storyboard Layer 3 (Foreground)
//Storyboard Sound Samples
//Background Colour Transformations
3,100,163,162,255

[TimingPoints]
1461.33333333333,416.666666666667,4,2,0,100,1,0
41822,-100,4,1,0,100,0,1
75343,-100,4,1,0,100,0,0
115439,-100,4,1,0,100,0,1
154694,-100,4,1,0,100,0,0
166051,-100,4,2,0,100,0,0
166544,833.333333333333,4,2,0,100,1,0
166972,-100,4,2,0,100,0,0
167698,-100,4,1,0,100,0,0
181543,-100,4,1,0,100,0,1
222227,833.333333333333,4,1,0,100,1,1
222227,-100,4,1,0,100,0,0

[Colours]
Combo1 : 255,192,0
Combo2 : 255,128,0
Combo3 : 240,78,0
Combo4 : 253,104,15

[HitObjects]
256,52,2294,5,0,0:0:0:0:
256,104,2607,1,0,0:0:0:0:
256,156,3023,1,0,0:0:0:0:
248,284,3857,5,0,0:0:0:0:
252,240,4586,1,0,0:0:0:0:
252,192,5523,1,0,0:0:0:0:
136,176,6357,5,0,0:0:0:0:
196,140,7294,1,0,0:0:0:0:
280,132,7607,1,0,0:0:0:0:
400,200,8857,5,0,0:0:0:0:
352,136,9273,1,0,0:0:0:0:
276,140,9794,1,0,0:0:0:0:
208,164,10627,5,0,0:0:0:0:
240,212,11044,1,0,0:0:0:0:
288,164,11669,1,0,0:0:0:0:
72,220,12815,2,0,B|128:96|128:96|224:64|224:64|304:64|304:64|376:96|376:96|400:228,1,525,0|0,0:0|0:0,0:0:0:0:
80,92,15523,5,0,0:0:0:0:
112,144,15940,1,0,0:0:0:0:
144,88,16357,1,0,0:0:0:0:
428,88,17190,5,0,0:0:0:0:
404,144,17607,1,0,0:0:0:0:
368,96,18023,1,0,0:0:0:0:
252,72,19690,5,0,0:0:0:0:
260,132,19898,1,0,0:0:0:0:
256,176,20211,1,0,0:0:0:0:
260,224,20523,1,0,0:0:0:0:
260,268,20940,1,0,0:0:0:0:
52,192,22190,6,0,B|152:168|256:120|356:80|380:52,1,350,0|0,0:0|0:0,0:0:0:0:
416,224,23753,2,0,B|336:208|212:172|156:108|144:80,1,315,0|0,0:0|0:0,0:0:0:0:
256,108,28023,6,0,L|256:72,12,35,0|0|0|0|0|0|0|0|0|0|0|0|0,0:0|0:0|0:0|0:0|0:0|0:0|0:0|0:0|0:0|0:0|0:0|0:0|0:0,0:0:0:0:
248,140,29690,2,0,L|248:192,13,35,0|0|0|0|0|0|0|0|0|0|0|0|0|0,0:0|0:0|0:0|0:0|0:0|0:0|0:0|0:0|0:0|0:0|0:0|0:0|0:0|0:0,0:0:0:0:
252,212,31357,2,0,L|252:276,12,35,0|0|0|0|0|0|0|0|0|0|0|0|0,0:0|0:0|0:0|0:0|0:0|0:0|0:0|0:0|0:0|0:0|0:0|0:0|0:0,0:0:0:0:
252,288,33023,2,0,L|256:352,12,35,0|0|0|0|0|0|0|0|0|0|0|0|0,0:0|0:0|0:0|0:0|0:0|0:0|0:0|0:0|0:0|0:0|0:0|0:0|0:0,0:0:0:0:
256,64,34794,6,0,L|256:128,11,35,0|0|0|0|0|0|0|0|0|0|0|0,0:0|0:0|0:0|0:0|0:0|0:0|0:0|0:0|0:0|0:0|0:0|0:0,0:0:0:0:
256,168,36357,2,0,L|260:220,12,35,0|0|0|0|0|0|0|0|0|0|0|0|0,0:0|0:0|0:0|0:0|0:0|0:0|0:0|0:0|0:0|0:0|0:0|0:0|0:0,0:0:0:0:
268,252,38023,2,0,L|264:312,9,35,0|0|0|0|0|0|0|0|0|0,0:0|0:0|0:0|0:0|0:0|0:0|0:0|0:0|0:0|0:0,0:0:0:0:
260,320,39690,2,0,L|260:360,16,35,0|0|0|0|0|0|0|0|0|0|0|0|0|0|0|0|0,0:0|0:0|0:0|0:0|0:0|0:0|0:0|0:0|0:0|0:0|0:0|0:0|0:0|0:0|0:0|0:0|0:0,0:0:0:0:
56,140,42294,5,0,0:0:0:0:
124,100,42711,1,0,0:0:0:0:
220,96,43023,1,0,0:0:0:0:
316,108,43440,1,0,0:0:0:0:
392,120,43857,1,0,0:0:0:0:
440,144,44378,1,0,0:0:0:0:
456,180,44690,1,0,0:0:0:0:
244,72,45523,5,0,0:0:0:0:
216,112,45940,1,0,0:0:0:0:
264,148,46357,1,0,0:0:0:0:
224,168,46773,1,0,0:0:0:0:
272,204,47190,1,0,0:0:0:0:
232,236,47607,1,0,0:0:0:0:
256,264,48023,1,0,0:0:0:0:
256,48,48961,5,0,0:0:0:0:
228,84,49273,1,0,0:0:0:0:
252,116,49794,1,0,0:0:0:0:
224,144,50107,1,0,0:0:0:0:
248,172,50523,1,0,0:0:0:0:
220,204,50940,1,0,0:0:0:0:
240,232,51357,1,0,0:0:0:0:
224,264,51773,1,0,0:0:0:0:
88,176,52398,5,0,0:0:0:0:
104,144,52607,1,0,0:0:0:0:
128,132,52815,1,0,0:0:0:0:
144,120,53023,1,0,0:0:0:0:
168,108,53232,1,0,0:0:0:0:
196,104,53544,1,0,0:0:0:0:
212,100,53753,1,0,0:0:0:0:
224,100,53961,1,0,0:0:0:0:
236,100,54169,1,0,0:0:0:0:
328,72,54794,5,0,0:0:0:0:
328,104,55107,1,0,0:0:0:0:
328,148,55523,1,0,0:0:0:0:
408,128,56357,5,0,0:0:0:0:
400,112,56565,1,0,0:0:0:0:
388,100,56773,1,0,0:0:0:0:
376,92,56982,1,0,0:0:0:0:
360,88,57398,1,0,0:0:0:0:
296,48,58023,5,0,0:0:0:0:
296,72,58440,1,0,0:0:0:0:
296,104,58857,1,0,0:0:0:0:
148,136,59482,5,0,0:0:0:0:
156,112,59794,1,0,0:0:0:0:
168,100,60003,1,0,0:0:0:0:
184,88,60211,1,0,0:0:0:0:
200,84,60419,1,0,0:0:0:0:
212,80,60628,1,0,0:0:0:0:
228,84,60836,1,0,0:0:0:0:
320,48,61357,5,0,0:0:0:0:
320,88,61878,1,0,0:0:0:0:
312,116,62190,1,0,0:0:0:0:
416,168,62815,5,0,0:0:0:0:
424,144,63023,1,0,0:0:0:0:
416,128,63232,1,0,0:0:0:0:
416,120,63336,1,0,0:0:0:0:
412,116,63648,1,0,0:0:0:0:
400,104,63857,1,0,0:0:0:0:
396,104,64169,1,0,0:0:0:0:
292,120,64690,5,0,0:0:0:0:
292,120,65107,1,0,0:0:0:0:
200,112,65628,5,0,0:0:0:0:
228,64,65940,1,0,0:0:0:0:
344,116,66357,1,0,0:0:0:0:
304,64,66773,1,0,0:0:0:0:
92,168,68023,5,0,0:0:0:0:
100,196,68232,1,0,0:0:0:0:
136,168,68857,1,0,0:0:0:0:
144,196,69065,1,0,0:0:0:0:
184,160,69794,5,0,0:0:0:0:
200,184,70107,1,0,0:0:0:0:
240,156,70523,5,0,0:0:0:0:
252,184,70940,1,0,0:0:0:0:
296,148,71357,5,0,0:0:0:0:
316,180,71773,1,0,0:0:0:0:
344,144,72190,5,0,0:0:0:0:
368,188,72607,1,0,0:0:0:0:
376,144,73023,5,0,0:0:0:0:
408,180,73440,1,0,0:0:0:0:
412,144,73857,5,0,0:0:0:0:
444,180,74273,1,0,0:0:0:0:
444,136,74794,5,0,0:0:0:0:
480,184,75107,1,0,0:0:0:0:
208,112,75523,5,0,0:0:0:0:
244,80,75940,1,0,0:0:0:0:
284,108,76148,1,0,0:0:0:0:
296,132,76461,1,0,0:0:0:0:
280,168,76982,5,0,0:0:0:0:
272,200,77294,1,0,0:0:0:0:
260,220,77607,1,0,0:0:0:0:
248,232,77815,1,0,0:0:0:0:
232,236,78232,1,0,0:0:0:0:
112,176,79273,5,0,0:0:0:0:
144,148,79690,1,0,0:0:0:0:
192,144,80107,1,0,0:0:0:0:
232,148,80523,1,0,0:0:0:0:
264,148,80940,1,0,0:0:0:0:
292,148,81357,1,0,0:0:0:0:
304,152,81669,1,0,0:0:0:0:
312,152,81878,1,0,0:0:0:0:
348,144,82294,5,0,0:0:0:0:
360,128,82503,1,0,0:0:0:0:
360,112,82815,1,0,0:0:0:0:
360,108,83023,1,0,0:0:0:0:
324,96,83648,5,0,0:0:0:0:
308,92,83961,1,0,0:0:0:0:
288,88,84273,1,0,0:0:0:0:
260,92,84586,1,0,0:0:0:0:
244,96,84794,1,0,0:0:0:0:
192,104,85836,6,0,L|188:152,9,35,0|0|0|0|0|0|0|0|0|0,0:0|0:0|0:0|0:0|0:0|0:0|0:0|0:0|0:0|0:0,0:0:0:0:
188,180,87190,2,0,L|232:176,8,35,0|0|0|0|0|0|0|0|0,0:0|0:0|0:0|0:0|0:0|0:0|0:0|0:0|0:0,0:0:0:0:
76,164,89065,5,0,0:0:0:0:
96,140,89273,1,0,0:0:0:0:
152,136,89690,1,0,0:0:0:0:
208,140,90315,1,0,0:0:0:0:
248,168,90628,1,0,0:0:0:0:
448,132,92190,5,0,0:0:0:0:
456,180,92607,1,0,0:0:0:0:
456,224,93023,1,0,0:0:0:0:
420,224,93440,1,0,0:0:0:0:
384,232,93648,1,0,0:0:0:0:
364,188,94169,5,0,0:0:0:0:
368,156,94586,1,0,0:0:0:0:
168,148,95315,5,0,0:0:0:0:
192,112,95628,1,0,0:0:0:0:
224,96,95940,1,0,0:0:0:0:
248,104,96148,1,0,0:0:0:0:
264,120,96357,1,0,0:0:0:0:
272,144,96878,1,0,0:0:0:0:
280,164,97190,1,0,0:0:0:0:
144,172,98857,5,0,0:0:0:0:
168,200,99273,1,0,0:0:0:0:
188,172,99690,1,0,0:0:0:0:
220,192,100107,1,0,0:0:0:0:
232,164,100315,1,0,0:0:0:0:
276,192,100732,1,0,0:0:0:0:
288,168,101148,1,0,0:0:0:0:
240,148,101461,5,0,0:0:0:0:
240,144,101669,1,0,0:0:0:0:
232,136,101773,1,0,0:0:0:0:
220,120,102086,1,0,0:0:0:0:
224,112,102398,1,0,0:0:0:0:
232,96,102711,1,0,0:0:0:0:
236,92,102919,1,0,0:0:0:0:
248,92,103232,1,0,0:0:0:0:
252,96,103857,1,0,0:0:0:0:
304,132,104273,5,0,0:0:0:0:
296,180,104586,1,0,0:0:0:0:
216,120,105107,5,0,0:0:0:0:
240,176,105523,1,0,0:0:0:0:
240,176,105628,1,0,0:0:0:0:
260,92,105940,1,0,0:0:0:0:
260,80,106148,1,0,0:0:0:0:
260,72,106357,1,0,0:0:0:0:
260,60,106773,1,0,0:0:0:0:
260,56,106982,1,0,0:0:0:0:
196,100,107398,5,0,0:0:0:0:
200,116,107607,1,0,0:0:0:0:
212,152,107919,1,0,0:0:0:0:
236,180,108232,1,0,0:0:0:0:
256,184,108440,1,0,0:0:0:0:
280,184,108648,1,0,0:0:0:0:
304,176,108857,1,0,0:0:0:0:
316,164,109065,1,0,0:0:0:0:
328,152,109169,1,0,0:0:0:0:
352,192,109690,5,0,0:0:0:0:
356,188,109898,1,0,0:0:0:0:
352,164,110107,1,0,0:0:0:0:
344,144,110419,1,0,0:0:0:0:
344,136,110628,1,0,0:0:0:0:
264,88,111357,5,0,0:0:0:0:
264,132,111773,1,0,0:0:0:0:
264,88,112190,1,0,0:0:0:0:
140,100,112815,5,0,0:0:0:0:
172,80,113023,1,0,0:0:0:0:
220,64,113336,1,0,0:0:0:0:
284,72,113857,1,0,0:0:0:0:
344,84,114169,1,0,0:0:0:0:
376,108,114690,1,0,0:0:0:0:
396,136,115107,1,0,0:0:0:0:
328,204,115523,5,0,0:0:0:0:
312,232,115836,1,0,0:0:0:0:
288,264,115940,1,0,0:0:0:0:
276,272,116148,1,0,0:0:0:0:
252,288,116461,1,0,0:0:0:0:
224,288,116878,1,0,0:0:0:0:
184,256,117190,1,0,0:0:0:0:
160,228,117607,1,0,0:0:0:0:
152,200,117711,1,0,0:0:0:0:
208,144,118857,5,0,0:0:0:0:
212,120,119065,1,0,0:0:0:0:
224,144,119273,1,0,0:0:0:0:
240,128,119586,1,0,0:0:0:0:
248,144,120107,1,0,0:0:0:0:
256,112,120523,1,0,0:0:0:0:
264,148,120940,1,0,0:0:0:0:
272,120,121148,1,0,0:0:0:0:
72,204,122086,6,0,B|232:200|336:136|320:68|252:44|176:72|148:140|208:192|272:232|408:192,1,560,0|0,0:0|0:0,0:0:0:0:
224,124,124378,5,0,0:0:0:0:
224,124,124586,1,0,0:0:0:0:
88,152,125732,5,0,0:0:0:0:
108,124,126044,1,0,0:0:0:0:
120,160,126357,1,0,0:0:0:0:
140,132,126565,1,0,0:0:0:0:
156,168,127086,1,0,0:0:0:0:
184,144,127398,1,0,0:0:0:0:
64,104,128023,5,0,0:0:0:0:
84,84,128440,1,0,0:0:0:0:
116,76,128857,1,0,0:0:0:0:
280,80,129690,5,0,0:0:0:0:
276,104,130107,1,0,0:0:0:0:
268,144,130523,1,0,0:0:0:0:
480,128,131357,5,0,0:0:0:0:
480,120,131565,1,0,0:0:0:0:
472,112,131773,1,0,0:0:0:0:
456,92,132086,1,0,0:0:0:0:
288,76,133023,5,0,0:0:0:0:
288,120,133857,1,0,0:0:0:0:
288,136,134065,1,0,0:0:0:0:
84,264,134690,5,0,0:0:0:0:
100,284,135107,1,0,0:0:0:0:
116,296,135523,1,0,0:0:0:0:
244,276,136148,5,0,0:0:0:0:
244,276,136357,1,0,0:0:0:0:
244,276,136565,1,0,0:0:0:0:
244,276,136773,1,0,0:0:0:0:
244,276,136982,1,0,0:0:0:0:
244,276,137190,1,0,0:0:0:0:
244,276,137398,1,0,0:0:0:0:
244,276,138023,5,0,0:0:0:0:
244,276,138440,1,0,0:0:0:0:
416,264,138857,5,0,0:0:0:0:
392,304,139273,1,0,0:0:0:0:
372,324,139690,1,0,0:0:0:0:
344,336,140107,1,0,0:0:0:0:
308,336,140523,1,0,0:0:0:0:
260,200,141357,6,14,L|256:152,28,35,14|14|14|14|14|14|14|14|14|14|14|14|14|14|14|14|14|14|14|14|14|14|14|14|14|14|14|14|14,0:0|0:0|0:0|0:0|0:0|0:0|0:0|0:0|0:0|0:0|0:0|0:0|0:0|0:0|0:0|0:0|0:0|0:0|0:0|0:0|0:0|0:0|0:0|0:0|0:0|0:0|0:0|0:0|0:0,0:0:0:0:
184,168,144690,2,14,L|244:104,2,70,14|14|14,0:0|0:0|0:0,0:0:0:0:
276,128,145523,2,14,L|340:176,2,70,14|14|14,0:0|0:0|0:0,0:0:0:0:
356,216,146461,2,14,L|276:272,1,70,14|14,0:0|0:0,0:0:0:0:
192,212,147190,2,14,L|248:268,2,70,14|14|14,0:0|0:0|0:0,0:0:0:0:
304,192,148023,2,14,L|292:240,4,35,14|14|14|14|14,0:0|0:0|0:0|0:0|0:0,0:0:0:0:
236,184,148857,2,14,L|272:244,2,70,14|14|14,0:0|0:0|0:0,0:0:0:0:
292,160,149690,2,14,L|272:212,3,35,14|14|14|14,0:0|0:0|0:0|0:0,0:0:0:0:
220,132,150523,2,14,L|256:204,2,70,14|14|14,0:0|0:0|0:0,0:0:0:0:
280,120,151253,2,14,L|256:192,3,70,14|14|14|14,0:0|0:0|0:0|0:0,0:0:0:0:
224,120,152190,2,14,L|264:184,2,70,14|14|14,0:0|0:0|0:0,0:0:0:0:
280,104,153023,2,14,L|264:172,3,70,14|14|14|14,0:0|0:0|0:0|0:0,0:0:0:0:
212,120,153961,2,14,L|264:176,2,70,14|14|14,0:0|0:0|0:0,0:0:0:0:
76,108,167794,6,0,B|64:184|64:184|144:244|144:244|236:256,1,245,0|0,0:0|0:0,0:0:0:0:
140,136,169460,2,0,B|256:160|256:160|296:224|296:224|296:288,1,245
236,76,171335,5,0,0:0:0:0:
212,120,171752,1,0,0:0:0:0:
240,152,172377,1,0,0:0:0:0:
208,188,172585,1,0,0:0:0:0:
240,232,173002,1,0,0:0:0:0:
208,256,173419,1,0,0:0:0:0:
240,284,173627,1,0,0:0:0:0:
48,196,174877,6,0,B|116:112|116:112|216:92,1,210
128,184,176335,2,0,B|208:184|208:184|292:96,1,175,0|0,0:0|0:0,0:0:0:0:
340,144,178002,5,0,0:0:0:0:
352,196,178419,1,0,0:0:0:0:
344,240,178835,1,0,0:0:0:0:
336,292,179669,2,14,L|292:292,8,35,14|14|14|14|14|14|14|14|14,0:0|0:0|0:0|0:0|0:0|0:0|0:0|0:0|0:0,0:0:0:0:
88,140,181960,5,0,0:0:0:0:
120,96,182585,1,0,0:0:0:0:
180,80,183002,1,0,0:0:0:0:
256,96,183419,1,0,0:0:0:0:
324,104,183835,1,0,0:0:0:0:
360,132,184252,1,0,0:0:0:0:
352,184,185502,5,0,0:0:0:0:
344,236,185919,1,0,0:0:0:0:
280,188,186335,1,0,0:0:0:0:
276,232,186752,1,0,0:0:0:0:
224,192,187169,1,0,0:0:0:0:
216,232,187585,1,0,0:0:0:0:
180,192,188002,1,0,0:0:0:0:
176,228,188419,1,0,0:0:0:0:
224,148,188835,5,0,0:0:0:0:
320,132,189252,1,0,0:0:0:0:
228,144,189877,1,0,0:0:0:0:
128,120,190294,1,0,0:0:0:0:
232,148,190919,1,0,0:0:0:0:
232,148,191127,1,0,0:0:0:0:
296,176,192585,5,0,0:0:0:0:
320,224,193002,1,0,0:0:0:0:
292,264,193419,1,0,0:0:0:0:
248,288,193835,1,0,0:0:0:0:
196,280,194252,1,0,0:0:0:0:
160,252,194669,1,0,0:0:0:0:
144,212,195085,1,0,0:0:0:0:
160,176,195502,1,0,0:0:0:0:
240,108,196335,5,0,0:0:0:0:
236,164,196752,1,0,0:0:0:0:
236,212,197169,1,0,0:0:0:0:
308,216,198002,5,0,0:0:0:0:
340,188,198419,1,0,0:0:0:0:
376,152,198835,1,0,0:0:0:0:
160,228,199669,5,0,0:0:0:0:
124,204,200085,1,0,0:0:0:0:
100,164,200502,1,0,0:0:0:0:
212,84,201335,1,0,0:0:0:0:
176,112,201752,1,0,0:0:0:0:
200,152,202169,1,0,0:0:0:0:
296,88,203002,5,0,0:0:0:0:
312,116,203419,1,0,0:0:0:0:
292,144,203835,1,0,0:0:0:0:
252,128,204252,5,0,0:0:0:0:
88,168,205502,5,0,0:0:0:0:
132,120,205919,1,0,0:0:0:0:
196,92,206335,1,0,0:0:0:0:
260,88,206752,1,0,0:0:0:0:
348,100,207169,1,0,0:0:0:0:
396,144,207585,1,0,0:0:0:0:
392,240,208002,5,0,0:0:0:0:
360,284,208419,1,0,0:0:0:0:
128,256,208835,5,0,0:0:0:0:
168,292,209252,1,0,0:0:0:0:
168,292,209460,1,0,0:0:0:0:
252,240,209669,1,0,0:0:0:0:
224,296,210085,1,0,0:0:0:0:
172,224,210919,5,0,0:0:0:0:
216,184,211335,1,0,0:0:0:0:
256,192,211752,1,0,0:0:0:0:
288,212,212169,1,0,0:0:0:0:
232,248,213002,5,0,0:0:0:0:
236,300,213419,1,0,0:0:0:0:
236,244,213835,1,0,0:0:0:0:
240,296,214252,1,0,0:0:0:0:
136,236,214669,5,0,0:0:0:0:
176,188,215085,1,0,0:0:0:0:
216,140,215502,1,0,0:0:0:0:
336,244,216335,5,0,0:0:0:0:
292,196,216752,1,0,0:0:0:0:
272,136,217168,1,0,0:0:0:0:
216,252,218002,5,0,0:0:0:0:
248,304,218418,1,0,0:0:0:0:
284,256,218835,1,0,0:0:0:0:
252,308,219252,1,0,0:0:0:0:
256,248,219668,1,0,0:0:0:0:
248,216,220085,1,0,0:0:0:0:
252,168,220502,5,0,0:0:0:0:
252,168,220918,1,0,0:0:0:0:
