osu file format v13

[General]
AudioFilename: MAGIC! - Rude (Zedd Remix).mp3
AudioLeadIn: 0
PreviewTime: -1
Countdown: 1
SampleSet: None
StackLeniency: 0.7
Mode: 3
LetterboxInBreaks: 1
SpecialStyle: 0
WidescreenStoryboard: 1

[Editor]
Bookmarks: 0,31389,46160,75703,90475,105246
DistanceSpacing: 1
BeatDivisor: 4
GridSize: 4
TimelineZoom: 1

[Metadata]
Title:Rude(Zedd Rmix)
TitleUnicode:Rude(Zedd Rmix)
Artist:Magic!
ArtistUnicode:Magic!
Creator:DJBurbz
Version:Normal
Source:
Tags:
BeatmapID:634983
BeatmapSetID:280649

[Difficulty]
HPDrainRate:5
CircleSize:6
OverallDifficulty:5
ApproachRate:5
SliderMultiplier:1.6
SliderTickRate:1

[Events]
//Background and Video events
0,0,"Rude Remix.jpg",0,0
//Break Periods
//Storyboard Layer 0 (Background)
//Storyboard Layer 1 (Fail)
//Storyboard Layer 2 (Pass)
//Storyboard Layer 3 (Foreground)
//Storyboard Sound Samples
//Background Colour Transformations
3,100,163,162,255

[TimingPoints]
0,461.609478381289,4,2,0,100,1,0

[HitObjects]
384,192,31389,5,0,0:0:0:0:
213,192,31389,1,0,0:0:0:0:
384,192,31620,1,0,0:0:0:0:
213,192,31620,1,0,0:0:0:0:
384,192,31851,1,0,0:0:0:0:
213,192,31851,1,0,0:0:0:0:
384,192,32081,1,0,0:0:0:0:
213,192,32081,1,0,0:0:0:0:
384,192,32312,1,0,0:0:0:0:
213,192,32312,1,0,0:0:0:0:
384,192,32543,1,0,0:0:0:0:
213,192,32543,1,0,0:0:0:0:
384,192,32774,1,0,0:0:0:0:
213,192,32774,1,0,0:0:0:0:
384,192,33005,1,0,0:0:0:0:
213,192,33005,1,0,0:0:0:0:
469,192,33235,1,0,0:0:0:0:
298,192,33235,1,0,0:0:0:0:
298,192,33466,1,0,0:0:0:0:
469,192,33466,1,0,0:0:0:0:
298,192,33697,1,0,0:0:0:0:
469,192,33697,1,0,0:0:0:0:
469,192,33928,1,0,0:0:0:0:
298,192,33928,1,0,0:0:0:0:
469,192,34159,1,0,0:0:0:0:
298,192,34159,1,0,0:0:0:0:
298,192,34389,1,0,0:0:0:0:
469,192,34389,1,0,0:0:0:0:
384,192,34620,1,0,0:0:0:0:
213,192,34620,1,0,0:0:0:0:
298,192,34851,1,0,0:0:0:0:
128,192,34851,1,0,0:0:0:0:
213,192,35082,1,0,0:0:0:0:
42,192,35082,1,0,0:0:0:0:
42,192,35313,1,0,0:0:0:0:
213,192,35313,1,0,0:0:0:0:
42,192,35544,1,0,0:0:0:0:
213,192,35544,1,0,0:0:0:0:
213,192,35774,1,0,0:0:0:0:
42,192,35774,1,0,0:0:0:0:
213,192,36005,1,0,0:0:0:0:
42,192,36005,1,0,0:0:0:0:
213,192,36236,1,0,0:0:0:0:
42,192,36236,1,0,0:0:0:0:
42,192,36467,1,0,0:0:0:0:
213,192,36467,1,0,0:0:0:0:
42,192,36698,1,0,0:0:0:0:
213,192,36698,1,0,0:0:0:0:
42,192,36928,1,0,0:0:0:0:
213,192,36928,1,0,0:0:0:0:
213,192,37159,1,0,0:0:0:0:
42,192,37159,1,0,0:0:0:0:
213,192,37390,1,0,0:0:0:0:
42,192,37390,1,0,0:0:0:0:
42,192,37620,1,0,0:0:0:0:
213,192,37620,1,0,0:0:0:0:
298,192,37851,1,0,0:0:0:0:
42,192,37851,1,0,0:0:0:0:
298,192,38082,1,0,0:0:0:0:
42,192,38082,1,0,0:0:0:0:
42,192,38313,1,0,0:0:0:0:
298,192,38313,1,0,0:0:0:0:
42,192,38544,1,0,0:0:0:0:
298,192,38544,1,0,0:0:0:0:
384,192,38775,1,0,0:0:0:0:
213,192,38775,1,0,0:0:0:0:
213,192,39006,1,0,0:0:0:0:
384,192,39006,1,0,0:0:0:0:
384,192,39237,1,0,0:0:0:0:
213,192,39237,1,0,0:0:0:0:
213,192,39467,1,0,0:0:0:0:
384,192,39467,1,0,0:0:0:0:
213,192,39698,1,0,0:0:0:0:
384,192,39698,1,0,0:0:0:0:
384,192,39929,1,0,0:0:0:0:
213,192,39929,1,0,0:0:0:0:
384,192,40160,1,0,0:0:0:0:
213,192,40160,1,0,0:0:0:0:
213,192,40391,1,0,0:0:0:0:
384,192,40391,1,0,0:0:0:0:
469,192,40621,1,0,0:0:0:0:
298,192,40621,1,0,0:0:0:0:
298,192,40852,1,0,0:0:0:0:
469,192,40852,1,0,0:0:0:0:
298,192,41083,1,0,0:0:0:0:
469,192,41083,1,0,0:0:0:0:
469,192,41314,1,0,0:0:0:0:
298,192,41314,1,0,0:0:0:0:
469,192,41545,1,0,0:0:0:0:
298,192,41545,1,0,0:0:0:0:
298,192,41775,1,0,0:0:0:0:
469,192,41775,1,0,0:0:0:0:
384,192,42006,1,0,0:0:0:0:
213,192,42006,1,0,0:0:0:0:
298,192,42237,1,0,0:0:0:0:
128,192,42237,1,0,0:0:0:0:
213,192,42468,1,0,0:0:0:0:
42,192,42468,1,0,0:0:0:0:
42,192,42699,1,0,0:0:0:0:
213,192,42699,1,0,0:0:0:0:
42,192,42930,1,0,0:0:0:0:
213,192,42930,1,0,0:0:0:0:
213,192,43160,1,0,0:0:0:0:
42,192,43160,1,0,0:0:0:0:
213,192,43391,1,0,0:0:0:0:
42,192,43391,1,0,0:0:0:0:
213,192,43622,1,0,0:0:0:0:
42,192,43622,1,0,0:0:0:0:
42,192,43853,1,0,0:0:0:0:
213,192,43853,1,0,0:0:0:0:
42,192,44084,1,0,0:0:0:0:
213,192,44084,1,0,0:0:0:0:
42,192,44314,1,0,0:0:0:0:
128,192,44314,1,0,0:0:0:0:
128,192,44545,1,0,0:0:0:0:
42,192,44545,1,0,0:0:0:0:
128,192,44776,1,0,0:0:0:0:
42,192,44776,1,0,0:0:0:0:
42,192,45006,1,0,0:0:0:0:
128,192,45006,1,0,0:0:0:0:
128,192,45237,1,0,0:0:0:0:
298,192,45237,1,0,0:0:0:0:
128,192,45468,1,0,0:0:0:0:
298,192,45468,1,0,0:0:0:0:
298,192,45699,1,0,0:0:0:0:
128,192,45699,1,0,0:0:0:0:
298,192,45930,1,0,0:0:0:0:
128,192,45930,1,0,0:0:0:0:
213,192,46160,1,4,0:0:0:0:
298,192,46160,1,4,0:0:0:0:
469,192,46160,1,0,0:0:0:0:
42,192,46391,1,0,0:0:0:0:
128,192,46622,1,0,0:0:0:0:
469,192,46853,1,0,0:0:0:0:
384,192,47084,1,0,0:0:0:0:
213,192,47314,1,0,0:0:0:0:
469,192,47545,1,0,0:0:0:0:
213,192,47776,1,0,0:0:0:0:
384,192,48007,1,0,0:0:0:0:
298,192,48238,1,0,0:0:0:0:
213,192,48468,1,0,0:0:0:0:
384,192,48699,1,0,0:0:0:0:
128,192,48930,1,0,0:0:0:0:
213,192,49161,1,0,0:0:0:0:
469,192,49392,1,0,0:0:0:0:
384,192,49623,1,0,0:0:0:0:
213,192,49853,1,0,0:0:0:0:
42,192,50084,1,0,0:0:0:0:
213,192,50315,1,0,0:0:0:0:
298,192,50546,1,0,0:0:0:0:
42,192,50777,1,0,0:0:0:0:
128,192,51007,1,0,0:0:0:0:
298,192,51238,1,0,0:0:0:0:
213,192,51469,1,0,0:0:0:0:
298,192,51700,1,0,0:0:0:0:
42,192,51931,1,0,0:0:0:0:
128,192,52161,1,0,0:0:0:0:
298,192,52392,1,0,0:0:0:0:
42,192,52623,1,0,0:0:0:0:
128,192,52854,1,0,0:0:0:0:
298,192,53085,1,0,0:0:0:0:
213,192,53315,1,0,0:0:0:0:
469,192,53546,1,0,0:0:0:0:
42,192,53777,1,0,0:0:0:0:
128,192,54008,1,0,0:0:0:0:
469,192,54239,1,0,0:0:0:0:
384,192,54470,1,0,0:0:0:0:
213,192,54700,1,0,0:0:0:0:
469,192,54931,1,0,0:0:0:0:
213,192,55162,1,0,0:0:0:0:
384,192,55393,1,0,0:0:0:0:
298,192,55624,1,0,0:0:0:0:
213,192,55854,1,0,0:0:0:0:
384,192,56085,1,0,0:0:0:0:
128,192,56316,1,0,0:0:0:0:
213,192,56547,1,0,0:0:0:0:
469,192,56778,1,0,0:0:0:0:
384,192,57009,1,0,0:0:0:0:
213,192,57239,1,0,0:0:0:0:
42,192,57470,1,0,0:0:0:0:
213,192,57701,1,0,0:0:0:0:
298,192,57932,1,0,0:0:0:0:
42,192,58163,1,0,0:0:0:0:
128,192,58393,1,0,0:0:0:0:
298,192,58624,1,0,0:0:0:0:
213,192,58855,1,0,0:0:0:0:
298,192,59086,1,0,0:0:0:0:
42,192,59317,1,0,0:0:0:0:
128,192,59547,1,0,0:0:0:0:
298,192,59778,1,0,0:0:0:0:
42,192,60009,1,0,0:0:0:0:
128,192,60240,1,0,0:0:0:0:
298,192,60471,1,0,0:0:0:0:
213,192,60701,1,0,0:0:0:0:
469,192,60932,1,0,0:0:0:0:
42,192,61163,1,0,0:0:0:0:
128,192,61394,1,0,0:0:0:0:
469,192,61625,1,0,0:0:0:0:
384,192,61856,1,0,0:0:0:0:
213,192,62086,1,0,0:0:0:0:
469,192,62317,1,0,0:0:0:0:
213,192,62548,1,0,0:0:0:0:
384,192,62779,1,0,0:0:0:0:
298,192,63010,1,0,0:0:0:0:
213,192,63240,1,0,0:0:0:0:
384,192,63471,1,0,0:0:0:0:
128,192,63702,1,0,0:0:0:0:
213,192,63933,1,0,0:0:0:0:
469,192,64164,1,0,0:0:0:0:
384,192,64395,1,0,0:0:0:0:
213,192,64625,1,0,0:0:0:0:
42,192,64856,1,0,0:0:0:0:
213,192,65087,1,0,0:0:0:0:
298,192,65318,1,0,0:0:0:0:
42,192,65549,1,0,0:0:0:0:
128,192,65779,1,0,0:0:0:0:
298,192,66010,1,0,0:0:0:0:
213,192,66241,1,0,0:0:0:0:
298,192,66472,1,0,0:0:0:0:
42,192,66703,1,0,0:0:0:0:
128,192,66933,1,0,0:0:0:0:
298,192,67164,1,0,0:0:0:0:
42,192,67395,1,0,0:0:0:0:
128,192,67626,1,0,0:0:0:0:
298,192,67857,1,0,0:0:0:0:
213,192,68087,1,0,0:0:0:0:
469,192,68318,1,0,0:0:0:0:
42,192,68549,1,0,0:0:0:0:
128,192,68780,1,0,0:0:0:0:
469,192,69011,1,0,0:0:0:0:
384,192,69242,1,0,0:0:0:0:
213,192,69472,1,0,0:0:0:0:
469,192,69703,1,0,0:0:0:0:
213,192,69934,1,0,0:0:0:0:
384,192,70165,1,0,0:0:0:0:
298,192,70396,1,0,0:0:0:0:
213,192,70626,1,0,0:0:0:0:
384,192,70857,1,0,0:0:0:0:
128,192,71088,1,0,0:0:0:0:
213,192,71319,1,0,0:0:0:0:
469,192,71550,1,0,0:0:0:0:
384,192,71781,1,0,0:0:0:0:
213,192,72011,1,0,0:0:0:0:
42,192,72242,1,0,0:0:0:0:
213,192,72473,1,0,0:0:0:0:
298,192,72704,1,0,0:0:0:0:
42,192,72935,1,0,0:0:0:0:
128,192,73165,1,0,0:0:0:0:
298,192,73396,1,0,0:0:0:0:
213,192,73627,1,0,0:0:0:0:
298,192,73858,1,0,0:0:0:0:
42,192,74089,1,0,0:0:0:0:
128,192,74319,1,0,0:0:0:0:
298,192,74550,1,0,0:0:0:0:
42,192,74781,1,0,0:0:0:0:
128,192,75012,1,0,0:0:0:0:
298,192,75243,1,0,0:0:0:0:
213,192,75473,1,0,0:0:0:0:
42,192,75703,1,4,0:0:0:0:
469,192,75703,1,4,0:0:0:0:
213,192,75703,1,8,0:0:0:0:
298,192,75703,1,8,0:0:0:0:
298,192,76165,1,8,0:0:0:0:
213,192,76165,1,8,0:0:0:0:
213,192,76627,1,8,0:0:0:0:
298,192,76627,1,8,0:0:0:0:
213,192,77088,1,8,0:0:0:0:
298,192,77088,1,8,0:0:0:0:
213,192,77550,1,8,0:0:0:0:
298,192,77550,1,8,0:0:0:0:
213,192,78012,1,8,0:0:0:0:
298,192,78012,1,8,0:0:0:0:
298,192,78474,1,8,0:0:0:0:
213,192,78474,1,8,0:0:0:0:
213,192,78935,1,8,0:0:0:0:
298,192,78935,1,8,0:0:0:0:
298,192,79166,1,8,0:0:0:0:
213,192,79166,1,8,0:0:0:0:
298,192,79396,1,8,0:0:0:0:
213,192,79396,1,8,0:0:0:0:
298,192,79858,1,8,0:0:0:0:
213,192,79858,1,8,0:0:0:0:
213,192,80320,1,8,0:0:0:0:
298,192,80320,1,8,0:0:0:0:
298,192,80781,1,8,0:0:0:0:
213,192,80781,1,8,0:0:0:0:
298,192,81243,1,8,0:0:0:0:
213,192,81243,1,8,0:0:0:0:
213,192,81705,1,8,0:0:0:0:
298,192,81705,1,8,0:0:0:0:
298,192,82167,1,8,0:0:0:0:
213,192,82167,1,8,0:0:0:0:
298,192,82628,1,8,0:0:0:0:
213,192,82628,1,8,0:0:0:0:
298,192,82858,1,8,0:0:0:0:
213,192,82858,1,8,0:0:0:0:
213,192,83089,1,8,0:0:0:0:
298,192,83089,1,8,0:0:0:0:
298,192,83320,1,8,0:0:0:0:
213,192,83320,1,8,0:0:0:0:
213,192,83551,1,8,0:0:0:0:
298,192,83551,1,8,0:0:0:0:
298,192,83782,1,8,0:0:0:0:
213,192,83782,1,8,0:0:0:0:
213,192,84012,1,8,0:0:0:0:
298,192,84012,1,8,0:0:0:0:
298,192,84243,1,8,0:0:0:0:
213,192,84243,1,8,0:0:0:0:
213,192,84474,1,8,0:0:0:0:
298,192,84474,1,8,0:0:0:0:
298,192,84705,1,8,0:0:0:0:
213,192,84705,1,8,0:0:0:0:
469,192,84936,1,8,0:0:0:0:
384,192,84936,1,8,0:0:0:0:
42,192,85051,1,8,0:0:0:0:
128,192,85051,1,8,0:0:0:0:
469,192,85166,1,8,0:0:0:0:
384,192,85166,1,8,0:0:0:0:
42,192,85282,1,8,0:0:0:0:
128,192,85282,1,8,0:0:0:0:
384,192,85397,1,8,0:0:0:0:
469,192,85397,1,8,0:0:0:0:
42,192,85513,1,8,0:0:0:0:
128,192,85513,1,8,0:0:0:0:
469,192,85628,1,8,0:0:0:0:
384,192,85628,1,8,0:0:0:0:
42,192,85743,1,8,0:0:0:0:
128,192,85743,1,8,0:0:0:0:
384,192,85859,1,8,0:0:0:0:
469,192,85859,1,8,0:0:0:0:
42,192,85974,1,8,0:0:0:0:
128,192,85974,1,8,0:0:0:0:
469,192,86090,1,8,0:0:0:0:
384,192,86090,1,8,0:0:0:0:
42,192,86205,1,8,0:0:0:0:
128,192,86205,1,8,0:0:0:0:
384,192,86320,1,8,0:0:0:0:
469,192,86320,1,8,0:0:0:0:
128,192,86436,1,8,0:0:0:0:
42,192,86436,1,8,0:0:0:0:
469,192,86551,1,8,0:0:0:0:
384,192,86551,1,8,0:0:0:0:
42,192,86667,1,8,0:0:0:0:
128,192,86667,1,8,0:0:0:0:
298,192,86782,128,6,88629:0:0:0:0:
213,192,86782,128,6,88629:0:0:0:0:
42,192,88629,1,4,0:0:0:0:
469,192,88629,1,4,0:0:0:0:
128,192,89783,128,2,90013:0:0:0:0:
298,192,90013,1,8,0:0:0:0:
469,192,90475,128,0,90937:0:0:0:0:
469,192,91167,128,0,91398:0:0:0:0:
384,192,91629,128,0,91860:0:0:0:0:
213,192,92091,128,0,93014:0:0:0:0:
298,192,93014,128,0,94168:0:0:0:0:
213,192,94168,128,0,95322:0:0:0:0:
298,192,95322,128,0,95553:0:0:0:0:
128,192,95783,128,0,96707:0:0:0:0:
42,192,96707,128,0,97861:0:0:0:0:
469,192,97861,128,0,98323:0:0:0:0:
469,192,98553,128,0,98784:0:0:0:0:
384,192,99015,128,0,99246:0:0:0:0:
213,192,99477,128,0,100400:0:0:0:0:
298,192,100400,128,0,101554:0:0:0:0:
213,192,101554,128,0,102708:0:0:0:0:
298,192,102708,128,0,102939:0:0:0:0:
298,192,103169,128,0,104785:0:0:0:0:
128,192,104554,128,2,104785:0:0:0:0:
213,192,104785,1,8,0:0:0:0:
469,192,105246,128,0,105708:0:0:0:0:
469,192,105938,128,0,106169:0:0:0:0:
384,192,106400,128,0,106631:0:0:0:0:
213,192,106862,128,0,107785:0:0:0:0:
298,192,107785,128,0,108939:0:0:0:0:
213,192,108939,128,0,110093:0:0:0:0:
298,192,110093,128,0,110324:0:0:0:0:
128,192,110554,128,0,111478:0:0:0:0:
42,192,111478,128,0,112632:0:0:0:0:
469,192,112632,128,0,113094:0:0:0:0:
469,192,113324,128,0,113555:0:0:0:0:
384,192,113786,128,0,114017:0:0:0:0:
213,192,114248,128,0,115171:0:0:0:0:
384,192,115171,128,0,116325:0:0:0:0:
42,192,116325,128,0,116787:0:0:0:0:
213,192,116325,128,0,116787:0:0:0:0:
469,192,116787,128,0,117018:0:0:0:0:
42,192,117248,128,4,117710:0:0:0:0:
213,192,117248,128,0,117710:0:0:0:0:
298,192,117710,128,0,118172:0:0:0:0:
42,192,118172,128,4,118633:0:0:0:0:
213,192,118172,128,0,118633:0:0:0:0:
384,192,118633,128,0,119095:0:0:0:0:
42,192,119095,128,4,119556:0:0:0:0:
213,192,119095,128,0,119556:0:0:0:0:
469,192,119326,128,2,119556:0:0:0:0:
384,192,119556,128,8,120018:0:0:0:0:
42,192,120018,1,0,0:0:0:0:
213,192,120018,1,0,0:0:0:0:
298,192,120133,1,0,0:0:0:0:
213,192,120249,1,0,0:0:0:0:
298,192,120364,1,0,0:0:0:0:
42,192,120479,1,0,0:0:0:0:
469,192,120480,1,8,0:0:0:0:
213,192,120480,1,0,0:0:0:0:
298,192,120595,1,0,0:0:0:0:
213,192,120711,1,0,0:0:0:0:
298,192,120825,1,0,0:0:0:0:
42,192,120941,1,0,0:0:0:0:
213,192,120941,1,0,0:0:0:0:
298,192,121057,1,0,0:0:0:0:
213,192,121172,1,0,0:0:0:0:
298,192,121287,1,0,0:0:0:0:
42,192,121402,1,0,0:0:0:0:
469,192,121403,1,8,0:0:0:0:
213,192,121403,1,0,0:0:0:0:
298,192,121518,1,0,0:0:0:0:
213,192,121634,1,0,0:0:0:0:
298,192,121748,1,0,0:0:0:0:
42,192,121864,1,0,0:0:0:0:
213,192,121865,1,0,0:0:0:0:
298,192,121980,1,0,0:0:0:0:
213,192,122095,1,0,0:0:0:0:
298,192,122211,1,0,0:0:0:0:
42,192,122325,1,0,0:0:0:0:
469,192,122326,1,8,0:0:0:0:
213,192,122326,1,0,0:0:0:0:
298,192,122441,1,0,0:0:0:0:
213,192,122557,1,0,0:0:0:0:
298,192,122672,1,0,0:0:0:0:
42,192,122787,1,0,0:0:0:0:
213,192,122787,1,0,0:0:0:0:
298,192,122903,1,0,0:0:0:0:
213,192,123018,1,0,0:0:0:0:
298,192,123134,1,0,0:0:0:0:
42,192,123248,1,0,0:0:0:0:
469,192,123249,1,8,0:0:0:0:
213,192,123249,1,0,0:0:0:0:
298,192,123365,1,0,0:0:0:0:
213,192,123480,1,0,0:0:0:0:
298,192,123595,1,0,0:0:0:0:
42,192,123711,1,0,0:0:0:0:
213,192,123711,1,0,0:0:0:0:
298,192,123826,1,0,0:0:0:0:
213,192,123942,1,0,0:0:0:0:
298,192,124057,1,0,0:0:0:0:
469,192,124172,1,8,0:0:0:0:
42,192,124172,1,0,0:0:0:0:
213,192,124172,1,0,0:0:0:0:
298,192,124288,1,0,0:0:0:0:
213,192,124404,1,0,0:0:0:0:
298,192,124519,1,0,0:0:0:0:
213,192,124633,1,0,0:0:0:0:
42,192,124634,1,0,0:0:0:0:
298,192,124749,1,0,0:0:0:0:
213,192,124865,1,0,0:0:0:0:
298,192,124980,1,0,0:0:0:0:
42,192,125095,1,0,0:0:0:0:
213,192,125095,1,0,0:0:0:0:
469,192,125096,1,8,0:0:0:0:
298,192,125210,1,0,0:0:0:0:
213,192,125327,1,0,0:0:0:0:
298,192,125442,1,0,0:0:0:0:
42,192,125557,1,0,0:0:0:0:
213,192,125557,1,0,0:0:0:0:
298,192,125672,1,0,0:0:0:0:
213,192,125788,1,0,0:0:0:0:
298,192,125903,1,0,0:0:0:0:
42,192,126018,1,0,0:0:0:0:
469,192,126019,1,8,0:0:0:0:
213,192,126019,1,0,0:0:0:0:
298,192,126133,1,0,0:0:0:0:
213,192,126250,1,0,0:0:0:0:
298,192,126365,1,0,0:0:0:0:
42,192,126480,1,0,0:0:0:0:
213,192,126480,1,0,0:0:0:0:
298,192,126596,1,0,0:0:0:0:
213,192,126711,1,0,0:0:0:0:
298,192,126827,1,0,0:0:0:0:
42,192,126941,1,0,0:0:0:0:
469,192,126942,1,8,0:0:0:0:
213,192,126942,1,0,0:0:0:0:
298,192,127057,1,0,0:0:0:0:
213,192,127173,1,0,0:0:0:0:
298,192,127288,1,0,0:0:0:0:
42,192,127404,1,0,0:0:0:0:
213,192,127404,1,0,0:0:0:0:
298,192,127519,1,0,0:0:0:0:
213,192,127635,1,0,0:0:0:0:
298,192,127750,1,0,0:0:0:0:
469,192,127865,1,8,0:0:0:0:
42,192,127865,1,0,0:0:0:0:
213,192,127865,1,0,0:0:0:0:
298,192,127981,1,0,0:0:0:0:
213,192,128097,1,0,0:0:0:0:
298,192,128212,1,0,0:0:0:0:
213,192,128326,1,0,0:0:0:0:
42,192,128327,1,0,0:0:0:0:
298,192,128442,1,0,0:0:0:0:
213,192,128558,1,0,0:0:0:0:
298,192,128673,1,0,0:0:0:0:
42,192,128788,1,0,0:0:0:0:
213,192,128788,1,0,0:0:0:0:
469,192,128789,1,8,0:0:0:0:
298,192,128904,1,0,0:0:0:0:
213,192,129020,1,0,0:0:0:0:
298,192,129135,1,0,0:0:0:0:
42,192,129250,1,0,0:0:0:0:
213,192,129250,1,0,0:0:0:0:
298,192,129366,1,0,0:0:0:0:
213,192,129481,1,0,0:0:0:0:
298,192,129596,1,0,0:0:0:0:
42,192,129711,1,0,0:0:0:0:
469,192,129712,1,8,0:0:0:0:
213,192,129712,1,0,0:0:0:0:
298,192,129827,1,0,0:0:0:0:
213,192,129943,1,0,0:0:0:0:
298,192,130058,1,0,0:0:0:0:
42,192,130173,1,0,0:0:0:0:
213,192,130173,1,0,0:0:0:0:
298,192,130289,1,0,0:0:0:0:
213,192,130404,1,0,0:0:0:0:
298,192,130519,1,0,0:0:0:0:
42,192,130634,1,0,0:0:0:0:
469,192,130635,1,8,0:0:0:0:
213,192,130635,1,0,0:0:0:0:
298,192,130750,1,0,0:0:0:0:
213,192,130866,1,0,0:0:0:0:
42,192,131097,128,4,131558:0:0:0:0:
469,192,131097,128,0,131558:0:0:0:0:
42,192,132020,128,4,132481:0:0:0:0:
469,192,132020,128,0,132481:0:0:0:0:
42,192,132943,128,4,133405:0:0:0:0:
469,192,132943,128,0,133405:0:0:0:0:
42,192,133866,128,4,134328:0:0:0:0:
469,192,133866,128,0,134328:0:0:0:0:
213,192,134097,128,2,134328:0:0:0:0:
298,192,134328,1,8,0:0:0:0:
