osu file format v14

[General]
AudioFilename: Yuugure Semi Nikki.mp3
AudioLeadIn: 0
PreviewTime: 119088
Countdown: 0
SampleSet: Soft
StackLeniency: 0.7
Mode: 3
LetterboxInBreaks: 0
SpecialStyle: 0
WidescreenStoryboard: 0

[Editor]
Bookmarks: 61851,128561
DistanceSpacing: 1
BeatDivisor: 4
GridSize: 8
TimelineZoom: 1.8

[Metadata]
Title:Yuugure Semi Nikki
TitleUnicode:夕暮れ蝉日記
Artist:Mafumafu feat. IA
ArtistUnicode:まふまふ feat. IA
Creator:Adtw_
Version:HD
Source:
Tags:Vocaloid Evening Cicada Diary EXIT TUNES PRESENTS Vocaloextra FARM RECORDS VOCAROCK collection 4 明鏡止水 Meikyoushisui VOCALOID Hall of Fame VOCALOID殿堂 VOCALOID dendou niconico crono lordraika
BeatmapID:732775
BeatmapSetID:330696

[Difficulty]
HPDrainRate:8
CircleSize:4
OverallDifficulty:8
ApproachRate:5
SliderMultiplier:1.4
SliderTickRate:1

[Events]
//Background and Video events
0,0,"BG.jpg",0,0
//Break Periods
//Storyboard Layer 0 (Background)
//Storyboard Layer 1 (Fail)
//Storyboard Layer 2 (Pass)
//Storyboard Layer 3 (Foreground)
//Storyboard Sound Samples

[TimingPoints]
-596,315.789473684211,4,2,1,50,1,0
667,-100,4,2,1,70,0,0
5719,-100,4,2,1,70,0,0
25930,-100,4,2,1,35,0,0
36667,-100,4,2,1,35,0,0
52456,-100,4,2,2,50,0,1
72667,-100,4,2,1,70,0,0
92877,-100,4,2,1,35,0,0
103614,-100,4,2,1,35,0,0
119404,-100,4,2,2,50,0,1
139614,-100,4,2,1,70,0,0
148140,-100,4,2,3,60,0,0
159825,-100,4,2,1,35,0,0
171509,-100,4,2,2,50,0,1
191404,-100,4,2,2,50,0,0

[HitObjects]
448,192,509,5,0,0:0:0:0:
320,192,588,1,0,0:0:0:0:
192,192,667,1,2,0:0:0:0:
64,192,667,1,0,0:0:0:0:
320,192,825,1,0,0:0:0:0:
64,192,982,1,8,0:0:0:0:
448,192,982,1,0,0:0:0:0:
192,192,1298,1,0,0:0:0:0:
448,192,1456,1,0,0:0:0:0:
320,192,1614,1,0,0:0:0:0:
64,192,1772,1,8,0:0:0:0:
448,192,1772,1,0,0:0:0:0:
192,192,1851,1,0,0:0:0:0:
320,192,1930,1,0,0:0:0:0:
192,192,2088,1,0,0:0:0:0:
64,192,2246,1,8,0:0:0:0:
448,192,2246,1,0,0:0:0:0:
320,192,2561,1,0,0:0:0:0:
64,192,2877,1,8,0:0:0:0:
320,192,2877,1,0,0:0:0:0:
192,192,3035,1,0,0:0:0:0:
64,192,3193,1,4,0:0:0:0:
448,192,3193,1,0,0:0:0:0:
192,192,3509,1,0,0:0:0:0:
448,192,3509,1,0,0:0:0:0:
320,192,3667,1,0,0:0:0:0:
64,192,3825,1,0,0:0:0:0:
192,192,3982,1,0,0:0:0:0:
320,192,4140,1,0,0:0:0:0:
64,192,4140,1,0,0:0:0:0:
192,192,4456,1,0,0:0:0:0:
448,192,4456,1,0,0:0:0:0:
192,192,4614,1,0,0:0:0:0:
448,192,4614,1,0,0:0:0:0:
320,192,4930,1,0,0:0:0:0:
64,192,4930,1,0,0:0:0:0:
192,192,5246,128,0,5719:0:0:0:0:
320,192,5719,1,4,0:0:0:0:
448,192,5719,1,2,0:0:0:0:
64,192,5877,1,0,0:0:0:0:
192,192,6035,1,8,0:0:0:0:
448,192,6035,1,8,0:0:0:0:
320,192,6193,1,0,0:0:0:0:
192,192,6351,1,2,0:0:0:0:
64,192,6351,1,0,0:0:0:0:
448,192,6509,1,0,0:0:0:0:
320,192,6667,1,8,0:0:0:0:
64,192,6667,1,8,0:0:0:0:
192,192,6825,1,0,0:0:0:0:
320,192,6982,1,2,0:0:0:0:
448,192,6982,1,0,0:0:0:0:
64,192,7140,1,0,0:0:0:0:
192,192,7298,1,8,0:0:0:0:
448,192,7298,1,8,0:0:0:0:
320,192,7456,1,0,0:0:0:0:
192,192,7614,1,2,0:0:0:0:
64,192,7614,1,0,0:0:0:0:
320,192,7772,1,0,0:0:0:0:
448,192,7930,1,8,0:0:0:0:
64,192,7930,1,8,0:0:0:0:
320,192,8088,1,0,0:0:0:0:
448,192,8246,128,8,8561:0:0:0:0:
192,192,8246,1,2,0:0:0:0:
64,192,8561,1,8,0:0:0:0:
320,192,8561,1,8,0:0:0:0:
192,192,8719,1,0,0:0:0:0:
64,192,8877,128,8,9193:0:0:0:0:
320,192,8877,1,2,0:0:0:0:
192,192,9193,1,8,0:0:0:0:
448,192,9193,1,8,0:0:0:0:
320,192,9351,1,0,0:0:0:0:
192,192,9509,1,2,0:0:0:0:
448,192,9509,128,8,9667:0:0:0:0:
64,192,9667,128,0,9825:0:0:0:0:
192,192,9825,1,8,0:0:0:0:
448,192,9825,1,8,0:0:0:0:
320,192,9982,1,0,0:0:0:0:
192,192,10140,128,8,10456:0:0:0:0:
64,192,10140,1,2,0:0:0:0:
448,192,10456,1,8,0:0:0:0:
320,192,10535,1,8,0:0:0:0:
192,192,10614,1,8,0:0:0:0:
64,192,10693,1,8,0:0:0:0:
448,192,10772,1,2,0:0:0:0:
320,192,10772,1,4,0:0:0:0:
64,192,10930,1,0,0:0:0:0:
448,192,11088,1,8,0:0:0:0:
192,192,11088,1,8,0:0:0:0:
320,192,11246,1,0,0:0:0:0:
64,192,11404,1,2,0:0:0:0:
192,192,11404,1,0,0:0:0:0:
448,192,11561,1,0,0:0:0:0:
64,192,11719,1,8,0:0:0:0:
320,192,11719,1,8,0:0:0:0:
192,192,11877,1,0,0:0:0:0:
320,192,12035,1,2,0:0:0:0:
448,192,12035,1,0,0:0:0:0:
64,192,12193,1,0,0:0:0:0:
448,192,12351,1,8,0:0:0:0:
192,192,12351,1,8,0:0:0:0:
320,192,12509,1,0,0:0:0:0:
192,192,12667,1,2,0:0:0:0:
64,192,12667,1,0,0:0:0:0:
320,192,12825,1,0,0:0:0:0:
64,192,12982,1,8,0:0:0:0:
448,192,12982,1,8,0:0:0:0:
320,192,13140,1,0,0:0:0:0:
192,192,13298,1,8,0:0:0:0:
448,192,13298,128,2,13614:0:0:0:0:
64,192,13614,1,8,0:0:0:0:
320,192,13614,1,8,0:0:0:0:
192,192,13772,1,0,0:0:0:0:
320,192,13930,1,8,0:0:0:0:
64,192,13930,128,2,14246:0:0:0:0:
192,192,14246,1,8,0:0:0:0:
448,192,14246,1,8,0:0:0:0:
320,192,14404,1,0,0:0:0:0:
64,192,14561,1,2,0:0:0:0:
448,192,14561,1,0,0:0:0:0:
192,192,14640,1,0,0:0:0:0:
320,192,14719,1,8,0:0:0:0:
448,192,14798,1,8,0:0:0:0:
320,192,14877,1,8,0:0:0:0:
192,192,14956,1,0,0:0:0:0:
64,192,15035,1,0,0:0:0:0:
192,192,15114,1,0,0:0:0:0:
448,192,15193,1,8,0:0:0:0:
320,192,15272,1,2,0:0:0:0:
192,192,15351,1,2,0:0:0:0:
64,192,15430,1,2,0:0:0:0:
320,192,15509,1,2,0:0:0:0:
192,192,15588,1,2,0:0:0:0:
448,192,15667,1,2,0:0:0:0:
320,192,15746,1,2,0:0:0:0:
192,192,15825,1,4,0:0:0:0:
64,192,15825,1,2,0:0:0:0:
448,192,15982,1,0,0:0:0:0:
320,192,16140,1,8,0:0:0:0:
64,192,16140,1,8,0:0:0:0:
192,192,16298,1,0,0:0:0:0:
320,192,16456,1,2,0:0:0:0:
448,192,16456,1,0,0:0:0:0:
64,192,16614,1,0,0:0:0:0:
192,192,16772,1,8,0:0:0:0:
448,192,16772,1,8,0:0:0:0:
320,192,16930,1,0,0:0:0:0:
192,192,17088,1,2,0:0:0:0:
64,192,17088,1,0,0:0:0:0:
448,192,17246,1,0,0:0:0:0:
320,192,17404,1,8,0:0:0:0:
64,192,17404,1,8,0:0:0:0:
192,192,17561,1,0,0:0:0:0:
320,192,17719,1,2,0:0:0:0:
448,192,17719,1,0,0:0:0:0:
192,192,17877,1,0,0:0:0:0:
64,192,18035,1,8,0:0:0:0:
320,192,18035,1,8,0:0:0:0:
192,192,18193,1,0,0:0:0:0:
320,192,18351,1,8,0:0:0:0:
64,192,18351,128,2,18667:0:0:0:0:
192,192,18667,1,8,0:0:0:0:
448,192,18667,1,8,0:0:0:0:
320,192,18825,1,0,0:0:0:0:
192,192,18982,1,8,0:0:0:0:
448,192,18982,128,2,19298:0:0:0:0:
64,192,19298,1,8,0:0:0:0:
320,192,19298,1,8,0:0:0:0:
192,192,19456,1,0,0:0:0:0:
320,192,19614,1,8,0:0:0:0:
64,192,19614,128,2,19772:0:0:0:0:
448,192,19772,128,0,19930:0:0:0:0:
64,192,19930,1,8,0:0:0:0:
320,192,19930,1,8,0:0:0:0:
192,192,20088,1,0,0:0:0:0:
448,192,20246,128,8,20561:0:0:0:0:
320,192,20246,1,2,0:0:0:0:
64,192,20561,1,8,0:0:0:0:
192,192,20640,1,8,0:0:0:0:
448,192,20719,1,8,0:0:0:0:
320,192,20798,1,8,0:0:0:0:
64,192,20877,1,4,0:0:0:0:
192,192,20877,1,2,0:0:0:0:
320,192,21035,1,0,0:0:0:0:
448,192,21193,1,8,0:0:0:0:
192,192,21193,1,8,0:0:0:0:
320,192,21351,1,0,0:0:0:0:
64,192,21509,1,2,0:0:0:0:
192,192,21509,1,0,0:0:0:0:
448,192,21667,1,0,0:0:0:0:
64,192,21825,1,8,0:0:0:0:
192,192,21825,1,8,0:0:0:0:
320,192,21982,1,0,0:0:0:0:
448,192,22140,1,2,0:0:0:0:
192,192,22140,1,0,0:0:0:0:
64,192,22298,1,0,0:0:0:0:
448,192,22456,1,8,0:0:0:0:
192,192,22456,1,8,0:0:0:0:
320,192,22614,1,0,0:0:0:0:
192,192,22772,1,2,0:0:0:0:
64,192,22772,1,0,0:0:0:0:
320,192,22930,1,0,0:0:0:0:
64,192,23088,1,8,0:0:0:0:
448,192,23088,1,8,0:0:0:0:
320,192,23246,1,0,0:0:0:0:
192,192,23404,1,2,0:0:0:0:
448,192,23404,128,8,23719:0:0:0:0:
64,192,23719,1,8,0:0:0:0:
320,192,23719,1,8,0:0:0:0:
192,192,23877,1,0,0:0:0:0:
320,192,24035,1,2,0:0:0:0:
64,192,24035,128,8,24351:0:0:0:0:
320,192,24351,1,8,0:0:0:0:
192,192,24509,1,0,0:0:0:0:
64,192,24667,1,2,0:0:0:0:
448,192,24667,1,0,0:0:0:0:
192,192,24746,1,0,0:0:0:0:
320,192,24825,1,0,0:0:0:0:
448,192,24904,1,0,0:0:0:0:
192,192,24982,1,8,0:0:0:0:
64,192,25061,1,0,0:0:0:0:
448,192,25140,1,0,0:0:0:0:
320,192,25219,1,0,0:0:0:0:
192,192,25298,1,2,0:0:0:0:
64,192,25377,1,0,0:0:0:0:
320,192,25456,1,0,0:0:0:0:
448,192,25535,1,0,0:0:0:0:
64,192,25614,1,8,0:0:0:0:
192,192,25693,1,8,0:0:0:0:
320,192,25772,1,8,0:0:0:0:
448,192,25851,1,8,0:0:0:0:
192,192,27193,1,0,0:0:0:0:
320,192,27351,1,0,0:0:0:0:
64,192,27509,1,0,0:0:0:0:
448,192,27667,1,0,0:0:0:0:
320,192,27825,1,2,0:0:0:0:
64,192,28456,1,0,0:0:0:0:
192,192,28614,1,0,0:0:0:0:
448,192,28772,1,0,0:0:0:0:
320,192,28930,1,0,0:0:0:0:
192,192,29088,1,2,0:0:0:0:
320,192,29404,1,0,0:0:0:0:
64,192,29561,1,0,0:0:0:0:
192,192,29719,1,0,0:0:0:0:
320,192,30035,1,0,0:0:0:0:
448,192,30193,1,0,0:0:0:0:
192,192,30351,1,2,0:0:0:0:
320,192,30667,1,0,0:0:0:0:
448,192,30982,1,0,0:0:0:0:
320,192,31140,1,0,0:0:0:0:
64,192,31298,1,2,0:0:0:0:
192,192,31456,1,0,0:0:0:0:
320,192,31614,1,2,0:0:0:0:
448,192,31930,1,0,0:0:0:0:
192,192,32246,1,0,0:0:0:0:
64,192,32561,1,0,0:0:0:0:
192,192,32719,1,0,0:0:0:0:
320,192,32877,1,2,0:0:0:0:
448,192,33193,1,0,0:0:0:0:
320,192,33351,1,0,0:0:0:0:
64,192,33509,1,0,0:0:0:0:
192,192,33667,1,0,0:0:0:0:
448,192,33825,1,0,0:0:0:0:
320,192,33982,1,0,0:0:0:0:
192,192,34140,1,2,0:0:0:0:
64,192,34456,1,0,0:0:0:0:
192,192,34614,1,0,0:0:0:0:
320,192,34772,1,0,0:0:0:0:
64,192,35088,1,0,0:0:0:0:
320,192,35246,1,0,0:0:0:0:
448,192,35404,1,2,0:0:0:0:
192,192,35719,1,0,0:0:0:0:
320,192,36035,1,2,0:0:0:0:
64,192,36667,1,2,0:0:0:0:
192,192,36667,1,8,0:0:0:0:
448,192,36825,1,8,0:0:0:0:
320,192,36904,1,8,0:0:0:0:
192,192,36982,1,8,0:0:0:0:
64,192,37140,1,8,0:0:0:0:
320,192,37298,1,10,0:0:0:0:
448,192,37298,1,4,0:0:0:0:
64,192,37614,1,8,0:0:0:0:
448,192,37614,1,8,0:0:0:0:
64,192,37930,1,2,0:0:0:0:
192,192,37930,1,0,0:0:0:0:
320,192,38088,1,2,0:0:0:0:
448,192,38088,1,0,0:0:0:0:
64,192,38246,1,8,0:0:0:0:
448,192,38246,1,8,0:0:0:0:
192,192,38404,1,2,0:0:0:0:
320,192,38404,1,8,0:0:0:0:
320,192,38719,1,2,0:0:0:0:
192,192,38719,1,0,0:0:0:0:
64,192,38877,1,8,0:0:0:0:
448,192,38877,1,8,0:0:0:0:
320,192,39035,1,0,0:0:0:0:
192,192,39193,1,2,0:0:0:0:
64,192,39193,1,0,0:0:0:0:
448,192,39351,1,2,0:0:0:0:
320,192,39351,1,0,0:0:0:0:
64,192,39509,1,8,0:0:0:0:
448,192,39509,1,8,0:0:0:0:
192,192,39667,1,0,0:0:0:0:
320,192,39825,1,2,0:0:0:0:
448,192,39825,1,0,0:0:0:0:
192,192,39982,1,0,0:0:0:0:
64,192,40140,1,8,0:0:0:0:
448,192,40140,1,8,0:0:0:0:
320,192,40298,1,0,0:0:0:0:
64,192,40456,1,2,0:0:0:0:
192,192,40456,1,0,0:0:0:0:
320,192,40614,1,2,0:0:0:0:
448,192,40614,1,0,0:0:0:0:
64,192,40772,1,8,0:0:0:0:
448,192,40772,1,8,0:0:0:0:
192,192,40930,1,0,0:0:0:0:
320,192,41088,1,2,0:0:0:0:
448,192,41088,1,8,0:0:0:0:
64,192,41404,1,2,0:0:0:0:
192,192,41404,1,8,0:0:0:0:
320,192,41719,1,8,0:0:0:0:
448,192,41719,1,2,0:0:0:0:
64,192,41877,1,8,0:0:0:0:
192,192,41956,1,8,0:0:0:0:
320,192,42035,1,8,0:0:0:0:
64,192,42193,1,8,0:0:0:0:
448,192,42193,1,8,0:0:0:0:
192,192,42351,1,2,0:0:0:0:
320,192,42351,1,0,0:0:0:0:
448,192,42667,1,8,0:0:0:0:
64,192,42667,1,8,0:0:0:0:
64,192,42982,1,2,0:0:0:0:
192,192,42982,1,0,0:0:0:0:
320,192,43140,1,2,0:0:0:0:
448,192,43140,1,0,0:0:0:0:
64,192,43298,1,8,0:0:0:0:
448,192,43298,1,8,0:0:0:0:
192,192,43456,1,2,0:0:0:0:
320,192,43456,1,8,0:0:0:0:
320,192,43772,1,2,0:0:0:0:
192,192,43772,1,0,0:0:0:0:
64,192,43930,1,8,0:0:0:0:
448,192,43930,1,8,0:0:0:0:
192,192,44088,1,0,0:0:0:0:
448,192,44246,1,2,0:0:0:0:
320,192,44246,1,0,0:0:0:0:
64,192,44404,1,2,0:0:0:0:
192,192,44404,1,0,0:0:0:0:
448,192,44561,1,8,0:0:0:0:
64,192,44561,1,8,0:0:0:0:
320,192,44719,1,0,0:0:0:0:
192,192,44877,1,4,0:0:0:0:
64,192,44877,1,10,0:0:0:0:
192,192,45351,1,8,0:0:0:0:
320,192,45351,1,8,0:0:0:0:
448,192,45509,1,2,0:0:0:0:
64,192,45509,1,8,0:0:0:0:
320,192,45588,1,0,0:0:0:0:
192,192,45667,1,0,0:0:0:0:
320,192,45982,1,8,0:0:0:0:
192,192,45982,1,2,0:0:0:0:
64,192,46298,1,8,0:0:0:0:
448,192,46298,1,8,0:0:0:0:
192,192,46456,1,8,0:0:0:0:
320,192,46456,1,2,0:0:0:0:
64,192,46772,1,8,0:0:0:0:
448,192,46772,1,8,0:0:0:0:
192,192,46851,1,0,0:0:0:0:
320,192,46930,1,0,0:0:0:0:
64,192,47246,1,8,0:0:0:0:
448,192,47246,1,8,0:0:0:0:
192,192,47404,1,2,0:0:0:0:
320,192,47404,1,8,0:0:0:0:
320,192,47877,1,8,0:0:0:0:
192,192,47877,1,8,0:0:0:0:
64,192,48035,1,8,0:0:0:0:
448,192,48035,1,2,0:0:0:0:
320,192,48114,1,0,0:0:0:0:
192,192,48193,1,0,0:0:0:0:
320,192,48509,1,2,0:0:0:0:
192,192,48509,1,8,0:0:0:0:
64,192,48825,1,8,0:0:0:0:
448,192,48825,1,8,0:0:0:0:
192,192,48982,1,2,0:0:0:0:
320,192,48982,1,0,0:0:0:0:
64,192,49298,1,8,0:0:0:0:
320,192,49298,1,8,0:0:0:0:
448,192,49614,1,8,0:0:0:0:
192,192,49614,1,8,0:0:0:0:
320,192,49772,1,8,0:0:0:0:
64,192,49772,1,8,0:0:0:0:
448,192,49930,1,4,0:0:0:0:
64,192,49930,1,10,0:0:0:0:
64,192,50246,1,2,0:0:0:0:
192,192,50246,1,8,0:0:0:0:
192,192,50404,1,2,0:0:0:0:
64,192,50404,1,8,0:0:0:0:
192,192,50561,1,8,0:0:0:0:
320,192,50561,1,2,0:0:0:0:
192,192,50719,1,2,0:0:0:0:
320,192,50719,1,8,0:0:0:0:
320,192,50877,1,2,0:0:0:0:
448,192,50877,1,8,0:0:0:0:
320,192,51035,1,8,0:0:0:0:
448,192,51035,1,2,0:0:0:0:
64,192,51193,1,10,0:0:0:0:
192,192,51272,1,0,0:0:0:0:
320,192,51351,128,0,51509:0:0:0:0:
448,192,51509,128,0,51667:0:0:0:0:
64,192,51667,1,0,0:0:0:0:
192,192,51746,1,0,0:0:0:0:
320,192,51825,1,0,0:0:0:0:
448,192,51904,1,0,0:0:0:0:
64,192,51982,1,0,0:0:0:0:
192,192,52061,1,0,0:0:0:0:
320,192,52140,1,0,0:0:0:0:
448,192,52219,1,0,0:0:0:0:
64,192,52298,1,0,0:0:0:0:
192,192,52377,1,0,0:0:0:0:
448,192,52456,1,2,0:0:0:0:
320,192,52456,1,4,0:0:0:0:
64,192,52614,1,0,0:0:0:0:
192,192,52772,1,8,0:0:0:0:
448,192,52772,1,0,0:0:0:0:
320,192,52930,1,0,0:0:0:0:
192,192,53088,1,2,0:0:0:0:
64,192,53088,1,8,0:0:0:0:
320,192,53246,1,0,0:0:0:0:
64,192,53404,1,8,0:0:0:0:
448,192,53404,1,0,0:0:0:0:
320,192,53561,1,0,0:0:0:0:
192,192,53719,1,2,0:0:0:0:
64,192,53719,1,0,0:0:0:0:
320,192,53877,1,0,0:0:0:0:
448,192,54035,1,8,0:0:0:0:
64,192,54035,1,8,0:0:0:0:
192,192,54193,1,0,0:0:0:0:
320,192,54351,1,0,0:0:0:0:
448,192,54351,1,0,0:0:0:0:
192,192,54509,1,0,0:0:0:0:
448,192,54667,1,8,0:0:0:0:
64,192,54667,1,8,0:0:0:0:
320,192,54825,1,0,0:0:0:0:
192,192,54982,1,8,0:0:0:0:
64,192,54982,1,2,0:0:0:0:
320,192,55140,1,0,0:0:0:0:
448,192,55298,1,8,0:0:0:0:
64,192,55298,1,0,0:0:0:0:
192,192,55456,1,0,0:0:0:0:
320,192,55614,1,8,0:0:0:0:
448,192,55614,1,2,0:0:0:0:
192,192,55772,1,0,0:0:0:0:
64,192,55930,1,8,0:0:0:0:
448,192,55930,1,0,0:0:0:0:
320,192,56088,1,0,0:0:0:0:
192,192,56246,1,8,0:0:0:0:
64,192,56246,1,2,0:0:0:0:
448,192,56404,1,0,0:0:0:0:
192,192,56561,1,8,0:0:0:0:
320,192,56561,1,0,0:0:0:0:
64,192,56719,1,0,0:0:0:0:
320,192,56877,1,2,0:0:0:0:
448,192,56956,1,8,0:0:0:0:
448,192,57193,1,8,0:0:0:0:
320,192,57272,1,8,0:0:0:0:
192,192,57351,1,8,0:0:0:0:
64,192,57430,1,8,0:0:0:0:
320,192,57509,1,8,0:0:0:0:
448,192,57509,1,2,0:0:0:0:
192,192,57667,1,0,0:0:0:0:
64,192,57825,1,8,0:0:0:0:
448,192,57825,1,0,0:0:0:0:
320,192,57982,1,0,0:0:0:0:
192,192,58140,1,8,0:0:0:0:
64,192,58140,1,2,0:0:0:0:
448,192,58298,1,0,0:0:0:0:
320,192,58456,1,8,0:0:0:0:
64,192,58456,1,0,0:0:0:0:
192,192,58614,1,0,0:0:0:0:
320,192,58772,1,2,0:0:0:0:
448,192,58772,1,0,0:0:0:0:
192,192,58930,1,0,0:0:0:0:
448,192,59088,1,8,0:0:0:0:
64,192,59088,1,8,0:0:0:0:
320,192,59246,1,0,0:0:0:0:
64,192,59404,1,2,0:0:0:0:
192,192,59404,1,0,0:0:0:0:
320,192,59561,1,0,0:0:0:0:
64,192,59719,1,8,0:0:0:0:
448,192,59719,1,8,0:0:0:0:
320,192,59877,1,0,0:0:0:0:
192,192,60035,1,2,0:0:0:0:
64,192,60035,1,0,0:0:0:0:
320,192,60193,1,0,0:0:0:0:
448,192,60351,1,8,0:0:0:0:
192,192,60351,1,8,0:0:0:0:
320,192,60509,1,0,0:0:0:0:
192,192,60667,1,2,0:0:0:0:
64,192,60667,1,0,0:0:0:0:
320,192,60825,1,0,0:0:0:0:
448,192,60982,1,8,0:0:0:0:
64,192,60982,1,8,0:0:0:0:
320,192,61140,1,0,0:0:0:0:
64,192,61298,1,2,0:0:0:0:
448,192,61298,1,4,0:0:0:0:
192,192,61456,1,2,0:0:0:0:
320,192,61535,1,2,0:0:0:0:
448,192,61614,1,8,0:0:0:0:
64,192,61693,1,8,0:0:0:0:
192,192,61772,1,2,0:0:0:0:
320,192,61851,1,10,0:0:0:0:
448,192,61930,1,0,0:0:0:0:
64,192,61930,1,0,0:0:0:0:
320,192,62088,1,8,0:0:0:0:
192,192,62167,1,8,0:0:0:0:
64,192,62246,1,8,0:0:0:0:
448,192,62325,1,0,0:0:0:0:
320,192,62404,1,0,0:0:0:0:
192,192,62482,1,0,0:0:0:0:
64,192,62561,1,4,0:0:0:0:
448,192,62561,1,2,0:0:0:0:
192,192,62719,1,0,0:0:0:0:
64,192,62877,1,8,0:0:0:0:
448,192,62877,1,0,0:0:0:0:
192,192,63035,1,0,0:0:0:0:
320,192,63193,1,8,0:0:0:0:
448,192,63193,1,2,0:0:0:0:
64,192,63351,1,0,0:0:0:0:
192,192,63509,1,8,0:0:0:0:
448,192,63509,1,0,0:0:0:0:
320,192,63667,1,0,0:0:0:0:
192,192,63825,1,8,0:0:0:0:
64,192,63825,1,2,0:0:0:0:
448,192,63982,1,0,0:0:0:0:
320,192,64140,1,8,0:0:0:0:
64,192,64140,1,0,0:0:0:0:
192,192,64298,1,0,0:0:0:0:
320,192,64456,1,0,0:0:0:0:
448,192,64456,1,0,0:0:0:0:
64,192,64614,1,0,0:0:0:0:
192,192,64772,1,8,0:0:0:0:
448,192,64772,1,8,0:0:0:0:
320,192,64930,1,0,0:0:0:0:
192,192,65088,1,2,0:0:0:0:
64,192,65088,1,8,0:0:0:0:
320,192,65246,1,0,0:0:0:0:
64,192,65404,1,8,0:0:0:0:
448,192,65404,1,0,0:0:0:0:
192,192,65561,1,0,0:0:0:0:
320,192,65719,1,2,0:0:0:0:
448,192,65719,1,0,0:0:0:0:
192,192,65877,1,0,0:0:0:0:
64,192,66035,1,8,0:0:0:0:
320,192,66035,1,8,0:0:0:0:
448,192,66193,1,0,0:0:0:0:
320,192,66351,1,2,0:0:0:0:
192,192,66351,1,0,0:0:0:0:
64,192,66509,1,0,0:0:0:0:
192,192,66667,1,8,0:0:0:0:
448,192,66667,1,8,0:0:0:0:
320,192,66825,1,0,0:0:0:0:
192,192,66982,1,2,0:0:0:0:
64,192,66982,1,0,0:0:0:0:
320,192,67140,1,8,0:0:0:0:
448,192,67219,1,8,0:0:0:0:
320,192,67298,1,10,0:0:0:0:
192,192,67377,1,10,0:0:0:0:
64,192,67456,1,10,0:0:0:0:
192,192,67535,1,10,0:0:0:0:
320,192,67614,1,8,0:0:0:0:
448,192,67614,1,2,0:0:0:0:
192,192,67772,1,0,0:0:0:0:
64,192,67930,1,8,0:0:0:0:
320,192,67930,1,0,0:0:0:0:
448,192,68088,1,0,0:0:0:0:
64,192,68246,1,8,0:0:0:0:
192,192,68246,1,2,0:0:0:0:
320,192,68404,1,0,0:0:0:0:
64,192,68561,1,8,0:0:0:0:
448,192,68561,1,0,0:0:0:0:
192,192,68719,1,0,0:0:0:0:
320,192,68877,1,2,0:0:0:0:
448,192,68877,1,0,0:0:0:0:
64,192,69035,1,0,0:0:0:0:
192,192,69193,1,8,0:0:0:0:
320,192,69193,1,8,0:0:0:0:
448,192,69351,1,0,0:0:0:0:
192,192,69509,1,2,0:0:0:0:
64,192,69509,1,0,0:0:0:0:
320,192,69667,1,0,0:0:0:0:
64,192,69825,1,8,0:0:0:0:
448,192,69825,1,8,0:0:0:0:
192,192,69982,1,0,0:0:0:0:
448,192,70140,1,2,0:0:0:0:
320,192,70140,1,0,0:0:0:0:
192,192,70298,1,0,0:0:0:0:
448,192,70456,1,8,0:0:0:0:
64,192,70456,1,8,0:0:0:0:
320,192,70614,1,0,0:0:0:0:
192,192,70772,1,2,0:0:0:0:
64,192,70772,1,0,0:0:0:0:
320,192,70930,1,0,0:0:0:0:
448,192,71088,1,8,0:0:0:0:
192,192,71088,1,8,0:0:0:0:
64,192,71246,1,0,0:0:0:0:
320,192,71404,1,4,0:0:0:0:
192,192,71404,1,10,0:0:0:0:
192,192,71719,1,4,0:0:0:0:
64,192,71719,1,10,0:0:0:0:
320,192,72035,1,10,0:0:0:0:
448,192,72035,1,4,0:0:0:0:
192,192,72193,1,8,0:0:0:0:
64,192,72272,1,8,0:0:0:0:
192,192,72351,1,2,0:0:0:0:
320,192,72430,1,2,0:0:0:0:
448,192,72509,1,2,0:0:0:0:
320,192,72588,1,2,0:0:0:0:
192,192,72667,1,4,0:0:0:0:
64,192,72667,1,2,0:0:0:0:
320,192,72825,1,0,0:0:0:0:
64,192,72982,1,8,0:0:0:0:
448,192,72982,1,8,0:0:0:0:
192,192,73140,1,0,0:0:0:0:
64,192,73298,1,2,0:0:0:0:
320,192,73298,1,0,0:0:0:0:
192,192,73456,1,0,0:0:0:0:
448,192,73614,1,8,0:0:0:0:
64,192,73614,1,8,0:0:0:0:
320,192,73772,1,0,0:0:0:0:
448,192,73930,1,2,0:0:0:0:
192,192,73930,1,0,0:0:0:0:
320,192,74088,1,0,0:0:0:0:
448,192,74246,1,8,0:0:0:0:
64,192,74246,1,8,0:0:0:0:
192,192,74404,1,0,0:0:0:0:
64,192,74561,1,2,0:0:0:0:
320,192,74561,1,0,0:0:0:0:
192,192,74719,1,0,0:0:0:0:
64,192,74877,1,8,0:0:0:0:
448,192,74877,1,8,0:0:0:0:
192,192,75035,1,0,0:0:0:0:
320,192,75193,1,2,0:0:0:0:
64,192,75193,128,8,75509:0:0:0:0:
192,192,75509,1,8,0:0:0:0:
448,192,75509,1,8,0:0:0:0:
320,192,75667,1,0,0:0:0:0:
192,192,75825,1,8,0:0:0:0:
448,192,75825,128,2,76140:0:0:0:0:
64,192,76140,1,8,0:0:0:0:
320,192,76140,1,8,0:0:0:0:
192,192,76298,1,0,0:0:0:0:
320,192,76456,1,2,0:0:0:0:
64,192,76456,128,8,76614:0:0:0:0:
448,192,76614,128,0,76772:0:0:0:0:
64,192,76772,1,8,0:0:0:0:
320,192,76772,1,8,0:0:0:0:
192,192,76930,1,0,0:0:0:0:
320,192,77088,128,2,77404:0:0:0:0:
448,192,77088,1,8,0:0:0:0:
64,192,77404,1,8,0:0:0:0:
192,192,77482,1,8,0:0:0:0:
320,192,77561,1,8,0:0:0:0:
448,192,77640,1,8,0:0:0:0:
320,192,77719,1,2,0:0:0:0:
192,192,77719,1,4,0:0:0:0:
64,192,77877,1,0,0:0:0:0:
192,192,78035,1,8,0:0:0:0:
448,192,78035,1,8,0:0:0:0:
320,192,78193,1,0,0:0:0:0:
64,192,78351,1,2,0:0:0:0:
192,192,78351,1,0,0:0:0:0:
448,192,78509,1,0,0:0:0:0:
320,192,78667,1,8,0:0:0:0:
64,192,78667,1,8,0:0:0:0:
192,192,78825,1,0,0:0:0:0:
320,192,78982,1,2,0:0:0:0:
448,192,78982,1,0,0:0:0:0:
64,192,79140,1,0,0:0:0:0:
192,192,79298,1,8,0:0:0:0:
448,192,79298,1,8,0:0:0:0:
320,192,79456,1,0,0:0:0:0:
64,192,79614,1,2,0:0:0:0:
192,192,79614,1,0,0:0:0:0:
320,192,79772,1,0,0:0:0:0:
64,192,79930,1,8,0:0:0:0:
448,192,79930,1,8,0:0:0:0:
320,192,80088,1,0,0:0:0:0:
192,192,80246,1,2,0:0:0:0:
448,192,80246,128,8,80561:0:0:0:0:
64,192,80561,1,8,0:0:0:0:
320,192,80561,1,8,0:0:0:0:
192,192,80719,1,0,0:0:0:0:
320,192,80877,1,2,0:0:0:0:
64,192,80877,128,8,81193:0:0:0:0:
192,192,81193,1,8,0:0:0:0:
448,192,81193,1,8,0:0:0:0:
320,192,81351,1,0,0:0:0:0:
64,192,81509,1,2,0:0:0:0:
192,192,81509,1,0,0:0:0:0:
320,192,81588,1,0,0:0:0:0:
448,192,81667,1,8,0:0:0:0:
320,192,81746,1,8,0:0:0:0:
192,192,81825,1,2,0:0:0:0:
64,192,81904,1,0,0:0:0:0:
192,192,81982,1,0,0:0:0:0:
320,192,82061,1,0,0:0:0:0:
448,192,82140,1,8,0:0:0:0:
320,192,82219,1,2,0:0:0:0:
192,192,82298,1,2,0:0:0:0:
64,192,82377,1,2,0:0:0:0:
448,192,82456,1,2,0:0:0:0:
320,192,82535,1,2,0:0:0:0:
192,192,82614,1,2,0:0:0:0:
64,192,82693,1,2,0:0:0:0:
320,192,82772,1,4,0:0:0:0:
192,192,82772,1,2,0:0:0:0:
448,192,82930,1,0,0:0:0:0:
320,192,83088,1,8,0:0:0:0:
64,192,83088,1,8,0:0:0:0:
192,192,83246,1,0,0:0:0:0:
320,192,83404,1,2,0:0:0:0:
448,192,83404,1,0,0:0:0:0:
64,192,83561,1,0,0:0:0:0:
192,192,83719,1,8,0:0:0:0:
448,192,83719,1,8,0:0:0:0:
320,192,83877,1,0,0:0:0:0:
192,192,84035,1,2,0:0:0:0:
64,192,84035,1,0,0:0:0:0:
448,192,84193,1,0,0:0:0:0:
320,192,84351,1,8,0:0:0:0:
64,192,84351,1,8,0:0:0:0:
192,192,84509,1,0,0:0:0:0:
320,192,84667,1,2,0:0:0:0:
448,192,84667,1,0,0:0:0:0:
192,192,84825,1,0,0:0:0:0:
64,192,84982,1,8,0:0:0:0:
448,192,84982,1,8,0:0:0:0:
192,192,85140,1,0,0:0:0:0:
320,192,85298,1,8,0:0:0:0:
64,192,85298,128,2,85614:0:0:0:0:
192,192,85614,1,8,0:0:0:0:
448,192,85614,1,8,0:0:0:0:
320,192,85772,1,0,0:0:0:0:
192,192,85930,1,8,0:0:0:0:
448,192,85930,128,2,86246:0:0:0:0:
64,192,86246,1,8,0:0:0:0:
320,192,86246,1,8,0:0:0:0:
192,192,86404,1,0,0:0:0:0:
320,192,86561,1,2,0:0:0:0:
64,192,86561,128,8,86719:0:0:0:0:
448,192,86719,128,0,86877:0:0:0:0:
64,192,86877,1,8,0:0:0:0:
320,192,86877,1,8,0:0:0:0:
192,192,87035,1,0,0:0:0:0:
448,192,87193,128,2,87509:0:0:0:0:
320,192,87193,1,8,0:0:0:0:
64,192,87509,1,8,0:0:0:0:
192,192,87588,1,8,0:0:0:0:
320,192,87667,1,8,0:0:0:0:
448,192,87746,1,8,0:0:0:0:
320,192,87825,1,4,0:0:0:0:
192,192,87825,1,2,0:0:0:0:
64,192,87982,1,0,0:0:0:0:
192,192,88140,1,8,0:0:0:0:
448,192,88140,1,8,0:0:0:0:
320,192,88298,1,0,0:0:0:0:
192,192,88456,1,2,0:0:0:0:
64,192,88456,1,0,0:0:0:0:
448,192,88614,1,0,0:0:0:0:
320,192,88772,1,8,0:0:0:0:
64,192,88772,1,8,0:0:0:0:
192,192,88930,1,0,0:0:0:0:
320,192,89088,1,2,0:0:0:0:
448,192,89088,1,0,0:0:0:0:
64,192,89246,1,0,0:0:0:0:
192,192,89404,1,8,0:0:0:0:
448,192,89404,1,8,0:0:0:0:
320,192,89561,1,0,0:0:0:0:
192,192,89719,1,2,0:0:0:0:
64,192,89719,1,0,0:0:0:0:
320,192,89877,1,0,0:0:0:0:
64,192,90035,1,8,0:0:0:0:
448,192,90035,1,8,0:0:0:0:
320,192,90193,1,0,0:0:0:0:
192,192,90351,1,8,0:0:0:0:
448,192,90351,128,2,90667:0:0:0:0:
64,192,90667,1,8,0:0:0:0:
320,192,90667,1,8,0:0:0:0:
192,192,90825,1,0,0:0:0:0:
320,192,90982,1,8,0:0:0:0:
64,192,90982,128,2,91298:0:0:0:0:
192,192,91298,1,8,0:0:0:0:
448,192,91298,1,8,0:0:0:0:
320,192,91456,1,0,0:0:0:0:
64,192,91614,1,2,0:0:0:0:
192,192,91614,1,0,0:0:0:0:
320,192,91693,1,0,0:0:0:0:
448,192,91772,1,0,0:0:0:0:
320,192,91851,1,0,0:0:0:0:
192,192,91930,1,8,0:0:0:0:
64,192,92009,1,0,0:0:0:0:
192,192,92088,1,0,0:0:0:0:
320,192,92167,1,0,0:0:0:0:
448,192,92246,1,2,0:0:0:0:
64,192,92325,1,0,0:0:0:0:
192,192,92404,1,0,0:0:0:0:
320,192,92482,1,0,0:0:0:0:
448,192,92561,1,8,0:0:0:0:
320,192,92640,1,8,0:0:0:0:
192,192,92719,1,8,0:0:0:0:
64,192,92798,1,8,0:0:0:0:
320,192,94140,1,0,0:0:0:0:
192,192,94298,1,0,0:0:0:0:
448,192,94456,1,0,0:0:0:0:
64,192,94614,1,0,0:0:0:0:
320,192,94772,1,2,0:0:0:0:
448,192,95404,1,0,0:0:0:0:
64,192,95561,1,0,0:0:0:0:
448,192,95719,1,0,0:0:0:0:
192,192,95877,1,0,0:0:0:0:
64,192,96035,1,2,0:0:0:0:
192,192,96351,1,0,0:0:0:0:
320,192,96509,1,0,0:0:0:0:
448,192,96667,1,0,0:0:0:0:
64,192,96982,1,0,0:0:0:0:
320,192,97140,1,0,0:0:0:0:
192,192,97298,1,2,0:0:0:0:
64,192,97614,1,0,0:0:0:0:
192,192,97772,1,0,0:0:0:0:
448,192,97930,1,0,0:0:0:0:
320,192,98088,1,0,0:0:0:0:
64,192,98246,1,2,0:0:0:0:
448,192,98404,1,0,0:0:0:0:
192,192,98561,1,2,0:0:0:0:
320,192,98877,1,0,0:0:0:0:
64,192,99035,1,0,0:0:0:0:
192,192,99193,1,0,0:0:0:0:
448,192,99509,1,0,0:0:0:0:
320,192,99667,1,0,0:0:0:0:
192,192,99825,1,2,0:0:0:0:
64,192,100140,1,0,0:0:0:0:
320,192,100456,1,0,0:0:0:0:
64,192,100614,1,0,0:0:0:0:
320,192,100772,1,0,0:0:0:0:
448,192,100930,1,0,0:0:0:0:
64,192,101088,1,2,0:0:0:0:
192,192,101404,1,0,0:0:0:0:
320,192,101561,1,0,0:0:0:0:
64,192,101719,1,0,0:0:0:0:
448,192,102035,1,0,0:0:0:0:
192,192,102193,1,0,0:0:0:0:
320,192,102351,1,2,0:0:0:0:
64,192,102667,1,0,0:0:0:0:
320,192,102982,1,2,0:0:0:0:
320,192,103614,1,2,0:0:0:0:
448,192,103614,1,8,0:0:0:0:
64,192,103772,1,8,0:0:0:0:
192,192,103851,1,8,0:0:0:0:
320,192,103930,1,8,0:0:0:0:
448,192,104088,1,8,0:0:0:0:
192,192,104246,1,4,0:0:0:0:
64,192,104246,1,10,0:0:0:0:
64,192,104561,1,8,0:0:0:0:
448,192,104561,1,8,0:0:0:0:
64,192,104877,1,2,0:0:0:0:
192,192,104877,1,0,0:0:0:0:
320,192,105035,1,2,0:0:0:0:
448,192,105035,1,0,0:0:0:0:
448,192,105193,1,8,0:0:0:0:
64,192,105193,1,8,0:0:0:0:
320,192,105351,1,2,0:0:0:0:
192,192,105351,1,8,0:0:0:0:
320,192,105667,1,2,0:0:0:0:
192,192,105667,1,0,0:0:0:0:
448,192,105825,1,8,0:0:0:0:
64,192,105825,1,8,0:0:0:0:
320,192,105982,1,0,0:0:0:0:
192,192,106140,1,2,0:0:0:0:
64,192,106140,1,0,0:0:0:0:
320,192,106298,1,2,0:0:0:0:
448,192,106298,1,0,0:0:0:0:
64,192,106456,1,8,0:0:0:0:
448,192,106456,1,8,0:0:0:0:
320,192,106614,1,0,0:0:0:0:
64,192,106772,1,2,0:0:0:0:
192,192,106772,1,0,0:0:0:0:
320,192,106930,1,0,0:0:0:0:
64,192,107088,1,8,0:0:0:0:
448,192,107088,1,8,0:0:0:0:
320,192,107246,1,0,0:0:0:0:
64,192,107404,1,2,0:0:0:0:
192,192,107404,1,0,0:0:0:0:
320,192,107561,1,2,0:0:0:0:
448,192,107561,1,0,0:0:0:0:
448,192,107719,1,8,0:0:0:0:
64,192,107719,1,8,0:0:0:0:
192,192,107877,1,0,0:0:0:0:
320,192,108035,1,8,0:0:0:0:
448,192,108035,1,2,0:0:0:0:
192,192,108351,1,8,0:0:0:0:
64,192,108351,1,2,0:0:0:0:
320,192,108667,1,8,0:0:0:0:
448,192,108667,1,2,0:0:0:0:
64,192,108746,1,0,0:0:0:0:
192,192,108825,1,8,0:0:0:0:
320,192,108904,1,8,0:0:0:0:
448,192,108982,1,8,0:0:0:0:
320,192,109140,1,8,0:0:0:0:
64,192,109140,1,8,0:0:0:0:
64,192,109298,1,2,0:0:0:0:
192,192,109298,1,0,0:0:0:0:
320,192,109456,1,0,0:0:0:0:
192,192,109614,1,8,0:0:0:0:
448,192,109614,1,8,0:0:0:0:
64,192,109772,1,0,0:0:0:0:
320,192,109930,1,2,0:0:0:0:
448,192,109930,1,0,0:0:0:0:
192,192,110088,1,2,0:0:0:0:
64,192,110088,1,0,0:0:0:0:
64,192,110246,1,8,0:0:0:0:
448,192,110246,1,8,0:0:0:0:
320,192,110404,1,2,0:0:0:0:
192,192,110404,1,8,0:0:0:0:
192,192,110719,1,2,0:0:0:0:
320,192,110719,1,0,0:0:0:0:
64,192,110877,1,8,0:0:0:0:
448,192,110877,1,8,0:0:0:0:
320,192,111035,1,0,0:0:0:0:
192,192,111193,1,2,0:0:0:0:
64,192,111193,1,0,0:0:0:0:
320,192,111351,1,2,0:0:0:0:
448,192,111351,1,0,0:0:0:0:
192,192,111509,1,8,0:0:0:0:
64,192,111509,1,8,0:0:0:0:
320,192,111667,1,0,0:0:0:0:
64,192,111825,1,4,0:0:0:0:
448,192,111825,1,10,0:0:0:0:
192,192,112298,1,8,0:0:0:0:
320,192,112298,1,8,0:0:0:0:
64,192,112456,1,2,0:0:0:0:
448,192,112456,1,8,0:0:0:0:
192,192,112535,1,0,0:0:0:0:
320,192,112614,1,0,0:0:0:0:
320,192,112930,1,2,0:0:0:0:
192,192,112930,1,0,0:0:0:0:
64,192,113246,1,8,0:0:0:0:
448,192,113246,1,8,0:0:0:0:
192,192,113404,1,2,0:0:0:0:
320,192,113404,1,0,0:0:0:0:
64,192,113719,1,8,0:0:0:0:
448,192,113719,1,8,0:0:0:0:
320,192,113798,1,0,0:0:0:0:
192,192,113877,1,0,0:0:0:0:
64,192,114193,1,8,0:0:0:0:
448,192,114193,1,8,0:0:0:0:
192,192,114351,1,2,0:0:0:0:
320,192,114351,1,0,0:0:0:0:
192,192,114825,1,8,0:0:0:0:
320,192,114825,1,8,0:0:0:0:
64,192,114982,1,2,0:0:0:0:
448,192,114982,1,8,0:0:0:0:
192,192,115061,1,0,0:0:0:0:
320,192,115140,1,0,0:0:0:0:
320,192,115456,1,2,0:0:0:0:
192,192,115456,1,0,0:0:0:0:
64,192,115772,1,8,0:0:0:0:
448,192,115772,1,8,0:0:0:0:
192,192,115930,1,2,0:0:0:0:
320,192,115930,1,0,0:0:0:0:
448,192,116246,1,8,0:0:0:0:
192,192,116246,1,8,0:0:0:0:
320,192,116561,1,8,0:0:0:0:
64,192,116561,1,8,0:0:0:0:
192,192,116719,1,8,0:0:0:0:
448,192,116719,1,8,0:0:0:0:
448,192,116877,1,4,0:0:0:0:
320,192,116877,1,10,0:0:0:0:
192,192,117193,1,2,0:0:0:0:
64,192,117193,1,8,0:0:0:0:
448,192,117351,1,2,0:0:0:0:
320,192,117351,1,8,0:0:0:0:
192,192,117509,1,2,0:0:0:0:
64,192,117509,1,8,0:0:0:0:
448,192,117667,1,2,0:0:0:0:
320,192,117667,1,8,0:0:0:0:
192,192,117825,1,2,0:0:0:0:
64,192,117825,1,8,0:0:0:0:
320,192,117982,1,8,0:0:0:0:
448,192,117982,1,2,0:0:0:0:
64,192,118140,128,2,118298:0:0:0:0:
192,192,118298,1,8,0:0:0:0:
320,192,118377,1,0,0:0:0:0:
448,192,118456,1,8,0:0:0:0:
64,192,118535,1,0,0:0:0:0:
192,192,118614,1,8,0:0:0:0:
320,192,118693,1,8,0:0:0:0:
192,192,118772,1,8,0:0:0:0:
64,192,118851,1,0,0:0:0:0:
448,192,118930,1,8,0:0:0:0:
320,192,119009,1,8,0:0:0:0:
192,192,119088,1,8,0:0:0:0:
64,192,119167,1,0,0:0:0:0:
192,192,119246,1,8,0:0:0:0:
320,192,119325,1,8,0:0:0:0:
64,192,119404,1,2,0:0:0:0:
448,192,119404,1,4,0:0:0:0:
320,192,119561,1,0,0:0:0:0:
192,192,119719,1,8,0:0:0:0:
448,192,119719,1,0,0:0:0:0:
64,192,119877,1,0,0:0:0:0:
192,192,120035,1,8,0:0:0:0:
320,192,120035,1,2,0:0:0:0:
448,192,120193,1,0,0:0:0:0:
320,192,120351,1,8,0:0:0:0:
64,192,120351,1,0,0:0:0:0:
192,192,120509,1,0,0:0:0:0:
320,192,120667,1,2,0:0:0:0:
448,192,120667,1,0,0:0:0:0:
192,192,120825,1,0,0:0:0:0:
448,192,120982,1,8,0:0:0:0:
64,192,120982,1,8,0:0:0:0:
320,192,121140,1,0,0:0:0:0:
192,192,121298,1,0,0:0:0:0:
448,192,121456,1,0,0:0:0:0:
320,192,121614,1,8,0:0:0:0:
64,192,121614,1,8,0:0:0:0:
192,192,121772,1,0,0:0:0:0:
320,192,121930,1,8,0:0:0:0:
448,192,121930,1,2,0:0:0:0:
192,192,122088,1,0,0:0:0:0:
64,192,122246,1,8,0:0:0:0:
448,192,122246,1,0,0:0:0:0:
192,192,122404,1,0,0:0:0:0:
320,192,122561,1,8,0:0:0:0:
448,192,122561,1,2,0:0:0:0:
64,192,122719,1,0,0:0:0:0:
192,192,122877,1,8,0:0:0:0:
448,192,122877,1,0,0:0:0:0:
320,192,123035,1,0,0:0:0:0:
64,192,123193,1,8,0:0:0:0:
192,192,123193,1,2,0:0:0:0:
320,192,123351,1,0,0:0:0:0:
448,192,123509,1,8,0:0:0:0:
192,192,123509,1,0,0:0:0:0:
64,192,123667,1,0,0:0:0:0:
448,192,123825,1,2,0:0:0:0:
320,192,123904,1,8,0:0:0:0:
64,192,124140,1,8,0:0:0:0:
192,192,124219,1,8,0:0:0:0:
320,192,124298,1,8,0:0:0:0:
448,192,124377,1,8,0:0:0:0:
192,192,124456,1,8,0:0:0:0:
64,192,124456,1,2,0:0:0:0:
320,192,124614,1,0,0:0:0:0:
448,192,124772,1,8,0:0:0:0:
64,192,124772,1,0,0:0:0:0:
192,192,124930,1,0,0:0:0:0:
320,192,125088,1,8,0:0:0:0:
448,192,125088,1,2,0:0:0:0:
192,192,125246,1,0,0:0:0:0:
448,192,125404,1,8,0:0:0:0:
64,192,125404,1,0,0:0:0:0:
320,192,125561,1,0,0:0:0:0:
192,192,125719,1,2,0:0:0:0:
64,192,125719,1,0,0:0:0:0:
320,192,125877,1,0,0:0:0:0:
448,192,126035,1,8,0:0:0:0:
192,192,126035,1,8,0:0:0:0:
64,192,126193,1,0,0:0:0:0:
448,192,126351,1,2,0:0:0:0:
320,192,126351,1,0,0:0:0:0:
192,192,126509,1,0,0:0:0:0:
448,192,126667,1,8,0:0:0:0:
64,192,126667,1,8,0:0:0:0:
320,192,126825,1,0,0:0:0:0:
64,192,126982,1,8,0:0:0:0:
192,192,126982,1,2,0:0:0:0:
320,192,127140,1,0,0:0:0:0:
448,192,127298,1,8,0:0:0:0:
64,192,127298,1,0,0:0:0:0:
192,192,127456,1,0,0:0:0:0:
320,192,127614,1,2,0:0:0:0:
448,192,127614,1,0,0:0:0:0:
192,192,127772,1,0,0:0:0:0:
64,192,127930,1,8,0:0:0:0:
320,192,127930,1,8,0:0:0:0:
448,192,128088,1,0,0:0:0:0:
320,192,128246,1,4,0:0:0:0:
192,192,128246,1,2,0:0:0:0:
448,192,128561,1,8,0:0:0:0:
320,192,128640,1,8,0:0:0:0:
64,192,128798,1,8,0:0:0:0:
192,192,128877,1,2,0:0:0:0:
320,192,128956,1,0,0:0:0:0:
448,192,129035,1,8,0:0:0:0:
320,192,129114,1,8,0:0:0:0:
192,192,129193,1,8,0:0:0:0:
64,192,129272,1,0,0:0:0:0:
192,192,129351,1,8,0:0:0:0:
320,192,129430,1,0,0:0:0:0:
448,192,129509,1,8,0:0:0:0:
64,192,129509,1,2,0:0:0:0:
192,192,129667,1,0,0:0:0:0:
320,192,129825,1,8,0:0:0:0:
64,192,129825,1,0,0:0:0:0:
192,192,129982,1,0,0:0:0:0:
320,192,130140,1,8,0:0:0:0:
448,192,130140,1,2,0:0:0:0:
64,192,130298,1,0,0:0:0:0:
192,192,130456,1,8,0:0:0:0:
448,192,130456,1,0,0:0:0:0:
320,192,130614,1,0,0:0:0:0:
64,192,130772,1,2,0:0:0:0:
192,192,130772,1,0,0:0:0:0:
320,192,130930,1,0,0:0:0:0:
448,192,131088,1,8,0:0:0:0:
64,192,131088,1,8,0:0:0:0:
192,192,131246,1,0,0:0:0:0:
320,192,131404,1,0,0:0:0:0:
192,192,131561,1,0,0:0:0:0:
64,192,131719,1,8,0:0:0:0:
448,192,131719,1,8,0:0:0:0:
320,192,131877,1,0,0:0:0:0:
192,192,132035,1,8,0:0:0:0:
64,192,132035,1,2,0:0:0:0:
320,192,132193,1,0,0:0:0:0:
448,192,132351,1,8,0:0:0:0:
64,192,132351,1,0,0:0:0:0:
320,192,132509,1,0,0:0:0:0:
192,192,132667,1,2,0:0:0:0:
64,192,132667,1,0,0:0:0:0:
320,192,132825,1,0,0:0:0:0:
448,192,132982,1,8,0:0:0:0:
64,192,132982,1,8,0:0:0:0:
192,192,133140,1,0,0:0:0:0:
320,192,133298,1,2,0:0:0:0:
448,192,133298,1,0,0:0:0:0:
192,192,133456,1,0,0:0:0:0:
64,192,133614,1,8,0:0:0:0:
320,192,133614,1,8,0:0:0:0:
192,192,133772,1,0,0:0:0:0:
320,192,133930,1,2,0:0:0:0:
448,192,133930,1,0,0:0:0:0:
64,192,134088,1,8,0:0:0:0:
192,192,134167,1,8,0:0:0:0:
320,192,134246,1,10,0:0:0:0:
448,192,134325,1,10,0:0:0:0:
64,192,134404,1,10,0:0:0:0:
192,192,134482,1,10,0:0:0:0:
320,192,134561,1,8,0:0:0:0:
448,192,134561,1,2,0:0:0:0:
192,192,134719,1,0,0:0:0:0:
64,192,134877,1,8,0:0:0:0:
448,192,134877,1,0,0:0:0:0:
320,192,135035,1,0,0:0:0:0:
192,192,135193,1,8,0:0:0:0:
64,192,135193,1,2,0:0:0:0:
320,192,135351,1,0,0:0:0:0:
448,192,135509,1,8,0:0:0:0:
64,192,135509,1,0,0:0:0:0:
192,192,135667,1,0,0:0:0:0:
320,192,135825,1,2,0:0:0:0:
448,192,135825,1,0,0:0:0:0:
192,192,135982,1,0,0:0:0:0:
64,192,136140,1,8,0:0:0:0:
320,192,136140,1,8,0:0:0:0:
448,192,136298,1,0,0:0:0:0:
64,192,136456,1,2,0:0:0:0:
192,192,136456,1,0,0:0:0:0:
320,192,136614,1,0,0:0:0:0:
64,192,136772,1,8,0:0:0:0:
448,192,136772,1,8,0:0:0:0:
192,192,136930,1,0,0:0:0:0:
320,192,137088,1,2,0:0:0:0:
448,192,137088,1,0,0:0:0:0:
192,192,137246,1,0,0:0:0:0:
64,192,137404,1,8,0:0:0:0:
320,192,137404,1,8,0:0:0:0:
448,192,137561,1,0,0:0:0:0:
64,192,137719,1,2,0:0:0:0:
192,192,137719,1,0,0:0:0:0:
320,192,137877,1,0,0:0:0:0:
448,192,138035,1,8,0:0:0:0:
192,192,138035,1,8,0:0:0:0:
64,192,138193,1,0,0:0:0:0:
448,192,138351,1,10,0:0:0:0:
320,192,138351,1,4,0:0:0:0:
320,192,138667,1,4,0:0:0:0:
192,192,138667,1,10,0:0:0:0:
64,192,138982,1,10,0:0:0:0:
448,192,138982,1,4,0:0:0:0:
192,192,139061,1,0,0:0:0:0:
320,192,139140,1,8,0:0:0:0:
448,192,139219,1,8,0:0:0:0:
64,192,139298,1,2,0:0:0:0:
192,192,139377,1,2,0:0:0:0:
320,192,139456,1,2,0:0:0:0:
448,192,139535,1,2,0:0:0:0:
64,192,139614,1,4,0:0:0:0:
192,192,139614,1,2,0:0:0:0:
320,192,139772,1,0,0:0:0:0:
64,192,139930,1,8,0:0:0:0:
448,192,139930,1,0,0:0:0:0:
192,192,140088,1,0,0:0:0:0:
320,192,140246,1,2,0:0:0:0:
448,192,140246,1,0,0:0:0:0:
192,192,140404,1,0,0:0:0:0:
64,192,140561,1,8,0:0:0:0:
448,192,140561,1,8,0:0:0:0:
320,192,140719,1,0,0:0:0:0:
192,192,140877,1,2,0:0:0:0:
64,192,140877,1,0,0:0:0:0:
320,192,141035,1,0,0:0:0:0:
448,192,141193,1,8,0:0:0:0:
64,192,141193,1,0,0:0:0:0:
192,192,141351,1,0,0:0:0:0:
320,192,141509,1,2,0:0:0:0:
448,192,141509,1,0,0:0:0:0:
192,192,141667,1,0,0:0:0:0:
64,192,141825,1,8,0:0:0:0:
448,192,141825,1,0,0:0:0:0:
320,192,141982,1,0,0:0:0:0:
192,192,142140,1,2,0:0:0:0:
64,192,142140,1,0,0:0:0:0:
320,192,142298,1,0,0:0:0:0:
448,192,142456,1,8,0:0:0:0:
64,192,142456,1,0,0:0:0:0:
192,192,142614,1,0,0:0:0:0:
320,192,142772,1,2,0:0:0:0:
448,192,142772,1,0,0:0:0:0:
192,192,142930,1,0,0:0:0:0:
64,192,143088,1,8,0:0:0:0:
448,192,143088,1,8,0:0:0:0:
320,192,143246,1,0,0:0:0:0:
64,192,143404,128,4,144035:0:0:0:0:
192,192,143404,1,2,0:0:0:0:
448,192,143719,1,8,0:0:0:0:
192,192,143719,1,8,0:0:0:0:
320,192,144035,1,4,0:0:0:0:
448,192,144035,128,2,144667:0:0:0:0:
320,192,144351,1,8,0:0:0:0:
192,192,144430,1,8,0:0:0:0:
64,192,144509,1,8,0:0:0:0:
320,192,144588,1,8,0:0:0:0:
192,192,144667,1,8,0:0:0:0:
64,192,144667,1,2,0:0:0:0:
320,192,144825,1,0,0:0:0:0:
448,192,144982,1,8,0:0:0:0:
64,192,144982,1,0,0:0:0:0:
192,192,145140,1,0,0:0:0:0:
320,192,145298,1,2,0:0:0:0:
448,192,145298,1,0,0:0:0:0:
192,192,145456,1,0,0:0:0:0:
64,192,145614,1,8,0:0:0:0:
448,192,145614,1,8,0:0:0:0:
320,192,145772,1,0,0:0:0:0:
192,192,145930,1,2,0:0:0:0:
64,192,145930,1,0,0:0:0:0:
320,192,146088,1,0,0:0:0:0:
448,192,146246,1,8,0:0:0:0:
64,192,146246,1,0,0:0:0:0:
192,192,146404,1,0,0:0:0:0:
320,192,146561,1,2,0:0:0:0:
448,192,146561,1,0,0:0:0:0:
192,192,146719,1,0,0:0:0:0:
64,192,146877,1,8,0:0:0:0:
448,192,146877,1,0,0:0:0:0:
320,192,147035,1,0,0:0:0:0:
192,192,147193,1,2,0:0:0:0:
64,192,147193,1,0,0:0:0:0:
320,192,147351,1,0,0:0:0:0:
448,192,147509,1,8,0:0:0:0:
64,192,147509,1,0,0:0:0:0:
192,192,147667,1,0,0:0:0:0:
320,192,147825,1,2,0:0:0:0:
448,192,147825,1,0,0:0:0:0:
192,192,147982,1,2,0:0:0:0:
64,192,148140,1,8,0:0:0:0:
192,192,148193,1,0,0:0:0:0:
320,192,148246,1,0,0:0:0:0:
448,192,148298,1,6,0:0:0:0:
192,192,148614,1,2,0:0:0:0:
320,192,148693,1,0,0:0:0:0:
448,192,148772,128,8,148930:0:0:0:0:
320,192,148930,1,2,0:0:0:0:
192,192,149009,1,0,0:0:0:0:
64,192,149088,128,8,149246:0:0:0:0:
192,192,149246,1,8,0:0:0:0:
320,192,149325,1,0,0:0:0:0:
448,192,149404,1,2,0:0:0:0:
64,192,149482,1,0,0:0:0:0:
192,192,149561,1,8,0:0:0:0:
320,192,149640,1,8,0:0:0:0:
64,192,149719,5,8,0:0:0:0:
448,192,149719,1,8,0:0:0:0:
192,192,149798,1,0,0:0:0:0:
320,192,149877,1,0,0:0:0:0:
448,192,149956,1,0,0:0:0:0:
192,192,150035,1,8,0:0:0:0:
64,192,150114,1,0,0:0:0:0:
448,192,150193,1,0,0:0:0:0:
320,192,150272,1,0,0:0:0:0:
192,192,150351,1,2,0:0:0:0:
64,192,150430,1,0,0:0:0:0:
448,192,150509,1,0,0:0:0:0:
320,192,150588,1,0,0:0:0:0:
64,192,150667,1,8,0:0:0:0:
192,192,150746,1,0,0:0:0:0:
320,192,150825,1,0,0:0:0:0:
448,192,150904,1,0,0:0:0:0:
64,192,150982,1,2,0:0:0:0:
192,192,151061,1,0,0:0:0:0:
448,192,151140,1,0,0:0:0:0:
320,192,151219,1,0,0:0:0:0:
192,192,151298,1,8,0:0:0:0:
64,192,151377,1,0,0:0:0:0:
192,192,151456,1,0,0:0:0:0:
320,192,151535,1,0,0:0:0:0:
448,192,151614,1,2,0:0:0:0:
192,192,151693,1,0,0:0:0:0:
64,192,151772,1,0,0:0:0:0:
448,192,151851,1,0,0:0:0:0:
320,192,151930,1,8,0:0:0:0:
192,192,152009,1,0,0:0:0:0:
64,192,152088,1,0,0:0:0:0:
320,192,152167,1,0,0:0:0:0:
448,192,152246,1,2,0:0:0:0:
64,192,152325,1,0,0:0:0:0:
192,192,152404,1,0,0:0:0:0:
320,192,152482,1,0,0:0:0:0:
448,192,152561,1,8,0:0:0:0:
320,192,152640,1,0,0:0:0:0:
192,192,152719,1,0,0:0:0:0:
64,192,152798,1,0,0:0:0:0:
320,192,152877,1,2,0:0:0:0:
448,192,152956,1,0,0:0:0:0:
64,192,153035,1,0,0:0:0:0:
192,192,153114,1,0,0:0:0:0:
320,192,153193,1,8,0:0:0:0:
448,192,153272,1,0,0:0:0:0:
192,192,153351,1,0,0:0:0:0:
64,192,153430,1,0,0:0:0:0:
448,192,153509,1,2,0:0:0:0:
320,192,153588,1,0,0:0:0:0:
192,192,153667,1,0,0:0:0:0:
64,192,153746,1,0,0:0:0:0:
448,192,153825,1,8,0:0:0:0:
320,192,153904,1,0,0:0:0:0:
192,192,153982,1,0,0:0:0:0:
64,192,154061,1,0,0:0:0:0:
448,192,154140,1,2,0:0:0:0:
320,192,154219,1,0,0:0:0:0:
192,192,154298,1,0,0:0:0:0:
64,192,154377,1,0,0:0:0:0:
448,192,154456,1,8,0:0:0:0:
320,192,154535,1,8,0:0:0:0:
64,192,154614,1,8,0:0:0:0:
192,192,154693,1,8,0:0:0:0:
448,192,154772,1,10,0:0:0:0:
320,192,154851,1,0,0:0:0:0:
192,192,154930,1,0,0:0:0:0:
64,192,155009,1,0,0:0:0:0:
448,192,155088,1,8,0:0:0:0:
320,192,155167,1,0,0:0:0:0:
64,192,155246,1,0,0:0:0:0:
192,192,155325,1,0,0:0:0:0:
320,192,155404,1,2,0:0:0:0:
448,192,155482,1,0,0:0:0:0:
192,192,155561,1,0,0:0:0:0:
64,192,155640,1,0,0:0:0:0:
448,192,155719,1,8,0:0:0:0:
320,192,155798,1,0,0:0:0:0:
192,192,155877,1,0,0:0:0:0:
64,192,155956,1,0,0:0:0:0:
192,192,156035,1,2,0:0:0:0:
320,192,156114,1,0,0:0:0:0:
448,192,156193,1,0,0:0:0:0:
64,192,156272,1,0,0:0:0:0:
192,192,156351,1,8,0:0:0:0:
320,192,156430,1,0,0:0:0:0:
448,192,156509,1,0,0:0:0:0:
192,192,156588,1,0,0:0:0:0:
64,192,156667,1,2,0:0:0:0:
448,192,156746,1,0,0:0:0:0:
320,192,156825,1,0,0:0:0:0:
192,192,156904,1,0,0:0:0:0:
64,192,156982,1,8,0:0:0:0:
448,192,157061,1,0,0:0:0:0:
320,192,157140,1,0,0:0:0:0:
192,192,157219,1,0,0:0:0:0:
64,192,157298,1,6,0:0:0:0:
320,192,157377,1,0,0:0:0:0:
448,192,157456,1,0,0:0:0:0:
64,192,157535,1,0,0:0:0:0:
192,192,157614,1,8,0:0:0:0:
320,192,157693,1,0,0:0:0:0:
448,192,157772,1,0,0:0:0:0:
192,192,157851,1,0,0:0:0:0:
64,192,157930,1,2,0:0:0:0:
448,192,158009,1,0,0:0:0:0:
320,192,158088,1,0,0:0:0:0:
192,192,158167,1,0,0:0:0:0:
64,192,158246,1,8,0:0:0:0:
192,192,158325,1,0,0:0:0:0:
320,192,158404,1,0,0:0:0:0:
448,192,158482,1,0,0:0:0:0:
192,192,158561,1,8,0:0:0:0:
64,192,158561,1,2,0:0:0:0:
320,192,158719,1,8,0:0:0:0:
448,192,158719,1,2,0:0:0:0:
192,192,158877,1,2,0:0:0:0:
64,192,158877,1,8,0:0:0:0:
448,192,159035,1,8,0:0:0:0:
320,192,159035,1,2,0:0:0:0:
64,192,159193,1,8,0:0:0:0:
192,192,159193,1,2,0:0:0:0:
320,192,159351,1,2,0:0:0:0:
448,192,159351,1,8,0:0:0:0:
192,192,159430,1,0,0:0:0:0:
64,192,159509,1,8,0:0:0:0:
448,192,159588,1,8,0:0:0:0:
320,192,159667,1,8,0:0:0:0:
192,192,159746,1,8,0:0:0:0:
192,192,161088,1,0,0:0:0:0:
320,192,161719,1,0,0:0:0:0:
448,192,162351,1,0,0:0:0:0:
64,192,162982,1,0,0:0:0:0:
192,192,163298,1,0,0:0:0:0:
320,192,163614,1,0,0:0:0:0:
64,192,164246,1,0,0:0:0:0:
192,192,164877,1,0,0:0:0:0:
320,192,165509,1,0,0:0:0:0:
192,192,166140,1,2,0:0:0:0:
64,192,166140,1,0,0:0:0:0:
320,192,166456,1,2,0:0:0:0:
192,192,166456,1,0,0:0:0:0:
320,192,166772,1,2,0:0:0:0:
448,192,166772,1,0,0:0:0:0:
320,192,167088,1,2,0:0:0:0:
192,192,167088,1,0,0:0:0:0:
192,192,167404,1,2,0:0:0:0:
64,192,167404,1,0,0:0:0:0:
192,192,167719,1,2,0:0:0:0:
320,192,167719,1,0,0:0:0:0:
320,192,168035,1,2,0:0:0:0:
448,192,168035,1,0,0:0:0:0:
192,192,168351,1,2,0:0:0:0:
320,192,168351,1,0,0:0:0:0:
64,192,168667,1,2,0:0:0:0:
192,192,168667,1,0,0:0:0:0:
192,192,168982,1,2,0:0:0:0:
320,192,168982,1,0,0:0:0:0:
320,192,169298,1,2,0:0:0:0:
448,192,169298,1,0,0:0:0:0:
192,192,169614,1,2,0:0:0:0:
320,192,169614,1,0,0:0:0:0:
320,192,171193,128,0,171509:0:0:0:0:
64,192,171509,1,4,0:0:0:0:
192,192,171509,1,10,0:0:0:0:
320,192,171825,1,8,0:0:0:0:
448,192,171825,1,2,0:0:0:0:
192,192,171982,1,0,0:0:0:0:
64,192,172140,1,8,0:0:0:0:
448,192,172140,1,8,0:0:0:0:
320,192,172298,1,0,0:0:0:0:
192,192,172456,1,2,0:0:0:0:
64,192,172456,1,0,0:0:0:0:
320,192,172614,1,0,0:0:0:0:
448,192,172772,1,8,0:0:0:0:
64,192,172772,1,8,0:0:0:0:
320,192,172930,1,0,0:0:0:0:
192,192,173088,1,0,0:0:0:0:
64,192,173088,1,0,0:0:0:0:
320,192,173246,1,0,0:0:0:0:
448,192,173404,1,8,0:0:0:0:
192,192,173404,1,8,0:0:0:0:
64,192,173561,1,0,0:0:0:0:
192,192,173719,1,2,0:0:0:0:
320,192,173719,1,0,0:0:0:0:
448,192,173877,1,0,0:0:0:0:
320,192,174035,1,8,0:0:0:0:
64,192,174035,1,8,0:0:0:0:
192,192,174193,1,0,0:0:0:0:
320,192,174351,1,2,0:0:0:0:
448,192,174351,1,0,0:0:0:0:
192,192,174509,1,0,0:0:0:0:
64,192,174667,1,8,0:0:0:0:
448,192,174667,1,8,0:0:0:0:
320,192,174825,1,0,0:0:0:0:
192,192,174982,1,2,0:0:0:0:
64,192,174982,1,0,0:0:0:0:
320,192,175140,1,0,0:0:0:0:
448,192,175298,1,8,0:0:0:0:
192,192,175298,1,8,0:0:0:0:
320,192,175456,1,0,0:0:0:0:
192,192,175614,1,2,0:0:0:0:
64,192,175693,1,8,0:0:0:0:
448,192,175930,1,8,0:0:0:0:
320,192,176009,1,8,0:0:0:0:
192,192,176088,1,8,0:0:0:0:
64,192,176167,1,8,0:0:0:0:
320,192,176246,1,8,0:0:0:0:
448,192,176246,1,2,0:0:0:0:
64,192,176404,1,0,0:0:0:0:
192,192,176561,1,8,0:0:0:0:
448,192,176561,1,0,0:0:0:0:
320,192,176719,1,0,0:0:0:0:
192,192,176877,1,8,0:0:0:0:
64,192,176877,1,2,0:0:0:0:
320,192,177035,1,0,0:0:0:0:
448,192,177193,1,8,0:0:0:0:
64,192,177193,1,0,0:0:0:0:
320,192,177351,1,0,0:0:0:0:
192,192,177509,1,2,0:0:0:0:
64,192,177509,1,0,0:0:0:0:
320,192,177667,1,0,0:0:0:0:
448,192,177825,1,8,0:0:0:0:
192,192,177825,1,8,0:0:0:0:
320,192,177982,1,0,0:0:0:0:
192,192,178140,1,2,0:0:0:0:
64,192,178140,1,0,0:0:0:0:
320,192,178298,1,0,0:0:0:0:
448,192,178456,1,8,0:0:0:0:
64,192,178456,1,8,0:0:0:0:
192,192,178614,1,0,0:0:0:0:
320,192,178772,1,2,0:0:0:0:
448,192,178772,1,0,0:0:0:0:
192,192,178930,1,0,0:0:0:0:
64,192,179088,1,8,0:0:0:0:
448,192,179088,1,8,0:0:0:0:
320,192,179246,1,0,0:0:0:0:
192,192,179404,1,2,0:0:0:0:
64,192,179404,1,0,0:0:0:0:
448,192,179561,1,0,0:0:0:0:
320,192,179719,1,8,0:0:0:0:
64,192,179719,1,8,0:0:0:0:
192,192,179877,1,0,0:0:0:0:
320,192,180035,1,2,0:0:0:0:
448,192,180035,1,4,0:0:0:0:
64,192,180351,1,2,0:0:0:0:
192,192,180351,1,0,0:0:0:0:
320,192,180430,1,8,0:0:0:0:
448,192,180588,1,8,0:0:0:0:
320,192,180667,1,2,0:0:0:0:
192,192,180667,1,0,0:0:0:0:
64,192,180825,1,8,0:0:0:0:
192,192,180904,1,0,0:0:0:0:
320,192,180982,1,8,0:0:0:0:
448,192,181061,1,0,0:0:0:0:
64,192,181140,1,8,0:0:0:0:
192,192,181219,1,0,0:0:0:0:
320,192,181298,1,2,0:0:0:0:
448,192,181298,1,4,0:0:0:0:
64,192,181456,1,0,0:0:0:0:
192,192,181614,1,8,0:0:0:0:
448,192,181614,1,0,0:0:0:0:
320,192,181772,1,0,0:0:0:0:
192,192,181930,1,8,0:0:0:0:
64,192,181930,1,2,0:0:0:0:
320,192,182088,1,0,0:0:0:0:
448,192,182246,1,8,0:0:0:0:
64,192,182246,1,0,0:0:0:0:
192,192,182404,1,0,0:0:0:0:
320,192,182561,1,2,0:0:0:0:
448,192,182561,1,0,0:0:0:0:
192,192,182719,1,0,0:0:0:0:
320,192,182877,1,8,0:0:0:0:
64,192,182877,1,8,0:0:0:0:
448,192,183035,1,0,0:0:0:0:
320,192,183193,1,0,0:0:0:0:
192,192,183193,1,0,0:0:0:0:
64,192,183351,1,0,0:0:0:0:
192,192,183509,1,8,0:0:0:0:
448,192,183509,1,8,0:0:0:0:
320,192,183667,1,0,0:0:0:0:
192,192,183825,1,2,0:0:0:0:
64,192,183825,1,0,0:0:0:0:
320,192,183982,1,0,0:0:0:0:
448,192,184140,1,8,0:0:0:0:
64,192,184140,1,8,0:0:0:0:
192,192,184298,1,0,0:0:0:0:
320,192,184456,1,2,0:0:0:0:
448,192,184456,1,0,0:0:0:0:
64,192,184614,1,0,0:0:0:0:
192,192,184772,1,8,0:0:0:0:
448,192,184772,1,8,0:0:0:0:
320,192,184930,1,0,0:0:0:0:
192,192,185088,1,2,0:0:0:0:
64,192,185088,1,0,0:0:0:0:
448,192,185246,1,0,0:0:0:0:
320,192,185404,1,8,0:0:0:0:
64,192,185404,1,8,0:0:0:0:
192,192,185561,1,0,0:0:0:0:
320,192,185719,1,2,0:0:0:0:
448,192,185719,1,0,0:0:0:0:
64,192,185877,1,0,0:0:0:0:
448,192,186035,1,8,0:0:0:0:
320,192,186114,1,8,0:0:0:0:
192,192,186193,1,8,0:0:0:0:
64,192,186272,1,8,0:0:0:0:
320,192,186351,1,2,0:0:0:0:
448,192,186351,1,8,0:0:0:0:
192,192,186509,1,0,0:0:0:0:
320,192,186667,1,8,0:0:0:0:
64,192,186667,1,0,0:0:0:0:
448,192,186825,1,0,0:0:0:0:
64,192,186982,1,8,0:0:0:0:
192,192,186982,1,2,0:0:0:0:
320,192,187140,1,0,0:0:0:0:
448,192,187298,1,8,0:0:0:0:
192,192,187298,1,0,0:0:0:0:
64,192,187456,1,0,0:0:0:0:
320,192,187614,1,2,0:0:0:0:
448,192,187614,1,0,0:0:0:0:
192,192,187772,1,0,0:0:0:0:
64,192,187930,1,8,0:0:0:0:
448,192,187930,1,8,0:0:0:0:
320,192,188088,1,0,0:0:0:0:
448,192,188246,1,2,0:0:0:0:
192,192,188246,1,0,0:0:0:0:
320,192,188404,1,0,0:0:0:0:
192,192,188561,1,8,0:0:0:0:
64,192,188561,1,8,0:0:0:0:
320,192,188719,1,0,0:0:0:0:
448,192,188877,1,2,0:0:0:0:
64,192,188877,1,0,0:0:0:0:
320,192,189035,1,0,0:0:0:0:
448,192,189193,1,8,0:0:0:0:
192,192,189193,1,8,0:0:0:0:
64,192,189351,1,0,0:0:0:0:
448,192,189509,1,2,0:0:0:0:
320,192,189509,1,0,0:0:0:0:
64,192,189667,1,0,0:0:0:0:
192,192,189825,1,8,0:0:0:0:
448,192,189825,1,8,0:0:0:0:
320,192,189982,1,0,0:0:0:0:
448,192,190140,1,4,0:0:0:0:
64,192,190140,1,10,0:0:0:0:
192,192,190456,1,4,0:0:0:0:
448,192,190456,1,10,0:0:0:0:
320,192,190772,128,0,191088:0:0:0:0:
64,192,191404,1,4,0:0:0:0:
192,192,191404,1,2,0:0:0:0:
448,192,191561,1,0,0:0:0:0:
320,192,191719,1,8,0:0:0:0:
64,192,191719,1,8,0:0:0:0:
192,192,191877,1,0,0:0:0:0:
448,192,192035,1,2,0:0:0:0:
320,192,192035,1,0,0:0:0:0:
64,192,192193,1,0,0:0:0:0:
192,192,192351,1,8,0:0:0:0:
448,192,192351,1,8,0:0:0:0:
320,192,192509,1,0,0:0:0:0:
64,192,192667,1,2,0:0:0:0:
192,192,192667,1,0,0:0:0:0:
448,192,192825,1,0,0:0:0:0:
320,192,192982,1,8,0:0:0:0:
64,192,192982,1,8,0:0:0:0:
192,192,193140,1,0,0:0:0:0:
320,192,193298,1,2,0:0:0:0:
448,192,193298,1,0,0:0:0:0:
192,192,193456,1,0,0:0:0:0:
64,192,193614,1,8,0:0:0:0:
320,192,193614,1,8,0:0:0:0:
448,192,193772,1,0,0:0:0:0:
192,192,193930,1,8,0:0:0:0:
64,192,193930,128,2,194246:0:0:0:0:
320,192,194246,1,8,0:0:0:0:
448,192,194246,1,8,0:0:0:0:
192,192,194404,1,0,0:0:0:0:
320,192,194561,1,8,0:0:0:0:
448,192,194561,128,2,194877:0:0:0:0:
64,192,194877,1,8,0:0:0:0:
320,192,194877,1,8,0:0:0:0:
192,192,195035,1,0,0:0:0:0:
64,192,195193,128,2,195351:0:0:0:0:
320,192,195193,1,8,0:0:0:0:
448,192,195351,128,0,195509:0:0:0:0:
64,192,195509,1,8,0:0:0:0:
320,192,195509,1,8,0:0:0:0:
192,192,195667,1,0,0:0:0:0:
448,192,195825,128,2,196140:0:0:0:0:
320,192,195825,1,8,0:0:0:0:
64,192,196140,1,8,0:0:0:0:
192,192,196219,1,8,0:0:0:0:
448,192,196298,1,8,0:0:0:0:
320,192,196377,1,8,0:0:0:0:
192,192,196456,1,2,0:0:0:0:
64,192,196456,1,4,0:0:0:0:
320,192,196614,1,0,0:0:0:0:
448,192,196772,1,8,0:0:0:0:
192,192,196772,1,8,0:0:0:0:
320,192,196930,1,0,0:0:0:0:
192,192,197088,1,2,0:0:0:0:
64,192,197088,1,0,0:0:0:0:
448,192,197246,1,0,0:0:0:0:
64,192,197404,1,8,0:0:0:0:
320,192,197404,1,8,0:0:0:0:
192,192,197561,1,0,0:0:0:0:
320,192,197719,1,2,0:0:0:0:
448,192,197719,1,0,0:0:0:0:
64,192,197877,1,0,0:0:0:0:
448,192,198035,1,8,0:0:0:0:
192,192,198035,1,8,0:0:0:0:
320,192,198193,1,0,0:0:0:0:
192,192,198351,1,2,0:0:0:0:
64,192,198351,1,0,0:0:0:0:
448,192,198509,1,0,0:0:0:0:
64,192,198667,1,8,0:0:0:0:
320,192,198667,1,8,0:0:0:0:
192,192,198825,1,0,0:0:0:0:
320,192,198982,1,8,0:0:0:0:
448,192,198982,128,2,199298:0:0:0:0:
64,192,199298,1,8,0:0:0:0:
192,192,199298,1,8,0:0:0:0:
320,192,199456,1,0,0:0:0:0:
192,192,199614,1,8,0:0:0:0:
64,192,199614,128,2,199930:0:0:0:0:
320,192,199930,1,8,0:0:0:0:
448,192,199930,1,8,0:0:0:0:
192,192,200088,1,0,0:0:0:0:
320,192,200246,1,8,0:0:0:0:
448,192,200246,1,2,0:0:0:0:
192,192,200325,1,0,0:0:0:0:
64,192,200404,1,8,0:0:0:0:
448,192,200482,1,8,0:0:0:0:
320,192,200561,1,8,0:0:0:0:
192,192,200640,1,0,0:0:0:0:
64,192,200719,1,0,0:0:0:0:
192,192,200798,1,0,0:0:0:0:
320,192,200877,1,2,0:0:0:0:
448,192,200956,1,2,0:0:0:0:
64,192,201035,1,2,0:0:0:0:
192,192,201114,1,2,0:0:0:0:
320,192,201193,1,2,0:0:0:0:
448,192,201272,1,2,0:0:0:0:
64,192,201351,1,2,0:0:0:0:
192,192,201430,1,2,0:0:0:0:
320,192,201509,1,4,0:0:0:0:
448,192,201509,1,2,0:0:0:0:
64,192,201667,1,0,0:0:0:0:
320,192,201825,1,8,0:0:0:0:
448,192,201825,1,8,0:0:0:0:
192,192,201982,1,0,0:0:0:0:
320,192,202140,1,2,0:0:0:0:
64,192,202140,1,0,0:0:0:0:
448,192,202298,1,0,0:0:0:0:
192,192,202456,1,8,0:0:0:0:
64,192,202456,1,8,0:0:0:0:
320,192,202614,1,0,0:0:0:0:
64,192,202772,1,2,0:0:0:0:
448,192,202772,1,0,0:0:0:0:
192,192,202930,1,0,0:0:0:0:
64,192,203088,1,8,0:0:0:0:
448,192,203088,1,8,0:0:0:0:
320,192,203246,1,0,0:0:0:0:
192,192,203404,1,2,0:0:0:0:
64,192,203404,1,0,0:0:0:0:
448,192,203561,1,0,0:0:0:0:
320,192,203719,1,8,0:0:0:0:
64,192,203719,1,8,0:0:0:0:
192,192,203877,1,0,0:0:0:0:
320,192,204035,1,8,0:0:0:0:
448,192,204035,128,2,204351:0:0:0:0:
64,192,204351,1,8,0:0:0:0:
192,192,204351,1,8,0:0:0:0:
320,192,204509,1,0,0:0:0:0:
192,192,204667,1,8,0:0:0:0:
64,192,204667,128,2,204982:0:0:0:0:
192,192,204982,1,8,0:0:0:0:
448,192,204982,1,8,0:0:0:0:
320,192,205140,1,0,0:0:0:0:
192,192,205298,1,8,0:0:0:0:
64,192,205298,128,2,205456:0:0:0:0:
448,192,205456,128,0,205614:0:0:0:0:
320,192,205614,1,8,0:0:0:0:
64,192,205614,1,8,0:0:0:0:
192,192,205772,1,0,0:0:0:0:
448,192,205930,128,2,206246:0:0:0:0:
320,192,205930,1,8,0:0:0:0:
64,192,206246,1,8,0:0:0:0:
192,192,206325,1,8,0:0:0:0:
448,192,206404,1,8,0:0:0:0:
320,192,206482,1,8,0:0:0:0:
64,192,206561,1,2,0:0:0:0:
192,192,206561,1,4,0:0:0:0:
320,192,206719,1,0,0:0:0:0:
192,192,206877,1,8,0:0:0:0:
448,192,206877,1,8,0:0:0:0:
320,192,207035,1,0,0:0:0:0:
192,192,207193,1,2,0:0:0:0:
64,192,207193,1,0,0:0:0:0:
448,192,207351,1,0,0:0:0:0:
320,192,207509,1,8,0:0:0:0:
64,192,207509,1,8,0:0:0:0:
192,192,207667,1,0,0:0:0:0:
320,192,207825,1,2,0:0:0:0:
448,192,207825,1,0,0:0:0:0:
64,192,207982,1,0,0:0:0:0:
320,192,208140,1,8,0:0:0:0:
448,192,208140,1,8,0:0:0:0:
192,192,208298,1,0,0:0:0:0:
320,192,208456,1,2,0:0:0:0:
64,192,208456,1,0,0:0:0:0:
192,192,208614,1,0,0:0:0:0:
448,192,208772,1,8,0:0:0:0:
64,192,208772,1,8,0:0:0:0:
320,192,208930,1,0,0:0:0:0:
192,192,209088,1,8,0:0:0:0:
64,192,209088,128,2,209404:0:0:0:0:
320,192,209404,1,8,0:0:0:0:
448,192,209404,1,8,0:0:0:0:
192,192,209561,1,0,0:0:0:0:
320,192,209719,1,8,0:0:0:0:
448,192,209719,128,2,210035:0:0:0:0:
64,192,210035,1,8,0:0:0:0:
192,192,210035,1,8,0:0:0:0:
320,192,210193,1,0,0:0:0:0:
64,192,210351,5,2,0:0:0:0:
192,192,210351,1,0,0:0:0:0:
448,192,210430,1,0,0:0:0:0:
320,192,210509,1,0,0:0:0:0:
192,192,210588,1,0,0:0:0:0:
64,192,210667,1,8,0:0:0:0:
448,192,210746,1,0,0:0:0:0:
320,192,210825,1,0,0:0:0:0:
192,192,210904,1,0,0:0:0:0:
64,192,210982,1,2,0:0:0:0:
192,192,211061,1,0,0:0:0:0:
320,192,211140,1,0,0:0:0:0:
448,192,211219,1,0,0:0:0:0:
64,192,211298,1,8,0:0:0:0:
192,192,211377,1,8,0:0:0:0:
448,192,211456,1,8,0:0:0:0:
320,192,211535,1,8,0:0:0:0:
