osu file format v14

[General]
AudioFilename: Yuugure Semi Nikki.mp3
AudioLeadIn: 0
PreviewTime: 119088
Countdown: 0
SampleSet: Soft
StackLeniency: 0.7
Mode: 3
LetterboxInBreaks: 0
SpecialStyle: 0
WidescreenStoryboard: 0

[Editor]
Bookmarks: 128088,129509
DistanceSpacing: 1
BeatDivisor: 4
GridSize: 8
TimelineZoom: 1.8

[Metadata]
Title:Yuugure Semi Nikki
TitleUnicode:夕暮れ蝉日記
Artist:Mafumafu feat. IA
ArtistUnicode:まふまふ feat. IA
Creator:Adtw_
Version:EZ
Source:
Tags:Vocaloid Evening Cicada Diary EXIT TUNES PRESENTS Vocaloextra FARM RECORDS VOCAROCK collection 4 明鏡止水 Meikyoushisui VOCALOID Hall of Fame VOCALOID殿堂 VOCALOID dendou niconico crono lordraika
BeatmapID:732774
BeatmapSetID:330696

[Difficulty]
HPDrainRate:7
CircleSize:4
OverallDifficulty:7
ApproachRate:5
SliderMultiplier:1.4
SliderTickRate:1

[Events]
//Background and Video events
0,0,"BG.jpg",0,0
//Break Periods
//Storyboard Layer 0 (Background)
//Storyboard Layer 1 (Fail)
//Storyboard Layer 2 (Pass)
//Storyboard Layer 3 (Foreground)
//Storyboard Sound Samples

[TimingPoints]
-596,315.789473684211,4,2,1,50,1,0
667,-100,4,2,1,70,0,0
5719,-100,4,2,1,70,0,0
25930,-100,4,2,1,35,0,0
36667,-100,4,2,1,35,0,0
52456,-100,4,2,2,50,0,1
72667,-100,4,2,1,70,0,0
92877,-100,4,2,1,35,0,0
103614,-100,4,2,1,35,0,0
119404,-100,4,2,2,50,0,1
139614,-100,4,2,1,70,0,0
148140,-100,4,2,3,60,0,0
159825,-100,4,2,1,35,0,0
171509,-100,4,2,2,50,0,1
191404,-100,4,2,2,50,0,0

[HitObjects]
192,192,667,5,2,0:0:0:0:
64,192,982,1,8,0:0:0:0:
320,192,1614,1,0,0:0:0:0:
448,192,1772,1,8,0:0:0:0:
192,192,2088,1,0,0:0:0:0:
64,192,2246,1,8,0:0:0:0:
448,192,2561,1,0,0:0:0:0:
64,192,2877,1,8,0:0:0:0:
192,192,3193,1,4,0:0:0:0:
320,192,3509,1,0,0:0:0:0:
64,192,3825,1,0,0:0:0:0:
192,192,3982,1,0,0:0:0:0:
320,192,4140,1,0,0:0:0:0:
448,192,4456,1,0,0:0:0:0:
448,192,4614,1,0,0:0:0:0:
320,192,4930,1,0,0:0:0:0:
192,192,5246,128,0,5719:0:0:0:0:
64,192,5719,1,4,0:0:0:0:
320,192,5719,1,2,0:0:0:0:
192,192,6035,1,8,0:0:0:0:
448,192,6351,1,2,0:0:0:0:
320,192,6667,1,8,0:0:0:0:
64,192,6982,1,2,0:0:0:0:
192,192,7298,1,8,0:0:0:0:
448,192,7614,1,2,0:0:0:0:
192,192,7930,1,8,0:0:0:0:
320,192,8246,128,10,8561:0:0:0:0:
64,192,8561,1,8,0:0:0:0:
192,192,8877,128,10,9193:0:0:0:0:
448,192,9193,1,8,0:0:0:0:
320,192,9509,1,10,0:0:0:0:
64,192,9825,1,8,0:0:0:0:
192,192,10140,128,10,10456:0:0:0:0:
448,192,10456,128,8,10772:0:0:0:0:
320,192,10772,1,2,0:0:0:0:
64,192,10772,1,4,0:0:0:0:
192,192,11088,1,8,0:0:0:0:
448,192,11404,1,2,0:0:0:0:
320,192,11719,1,8,0:0:0:0:
64,192,12035,1,2,0:0:0:0:
192,192,12351,1,8,0:0:0:0:
448,192,12667,1,2,0:0:0:0:
320,192,12982,1,8,0:0:0:0:
192,192,13298,128,10,13614:0:0:0:0:
448,192,13614,1,8,0:0:0:0:
320,192,13930,128,10,14246:0:0:0:0:
64,192,14246,1,8,0:0:0:0:
448,192,14561,128,2,14877:0:0:0:0:
320,192,14877,128,8,15193:0:0:0:0:
192,192,15193,128,8,15509:0:0:0:0:
64,192,15509,128,2,15825:0:0:0:0:
192,192,15825,1,4,0:0:0:0:
448,192,15825,1,2,0:0:0:0:
320,192,16140,1,8,0:0:0:0:
64,192,16456,1,2,0:0:0:0:
192,192,16772,1,8,0:0:0:0:
448,192,17088,1,2,0:0:0:0:
320,192,17404,1,8,0:0:0:0:
64,192,17719,1,2,0:0:0:0:
192,192,18035,1,8,0:0:0:0:
448,192,18351,128,10,18667:0:0:0:0:
192,192,18667,1,8,0:0:0:0:
64,192,18982,128,10,19298:0:0:0:0:
320,192,19298,1,8,0:0:0:0:
64,192,19614,1,10,0:0:0:0:
320,192,19930,1,8,0:0:0:0:
192,192,20246,128,8,20561:0:0:0:0:
448,192,20561,128,8,20877:0:0:0:0:
320,192,20877,1,4,0:0:0:0:
64,192,20877,1,2,0:0:0:0:
192,192,21193,1,8,0:0:0:0:
448,192,21509,1,2,0:0:0:0:
320,192,21825,1,8,0:0:0:0:
64,192,22140,1,2,0:0:0:0:
192,192,22456,1,8,0:0:0:0:
448,192,22772,1,2,0:0:0:0:
192,192,23088,1,8,0:0:0:0:
64,192,23404,128,10,23719:0:0:0:0:
320,192,23719,1,8,0:0:0:0:
448,192,24035,128,10,24351:0:0:0:0:
192,192,24351,1,8,0:0:0:0:
64,192,24667,128,2,24982:0:0:0:0:
192,192,24982,128,8,25298:0:0:0:0:
320,192,25298,128,2,25614:0:0:0:0:
448,192,25614,128,8,25851:0:0:0:0:
64,192,27193,1,0,0:0:0:0:
192,192,27509,1,0,0:0:0:0:
320,192,27825,1,2,0:0:0:0:
448,192,28456,1,0,0:0:0:0:
320,192,28772,1,0,0:0:0:0:
192,192,29088,1,2,0:0:0:0:
320,192,29404,1,0,0:0:0:0:
64,192,29719,1,0,0:0:0:0:
448,192,30035,1,0,0:0:0:0:
320,192,30351,1,2,0:0:0:0:
64,192,30667,1,0,0:0:0:0:
192,192,30982,1,0,0:0:0:0:
448,192,31298,1,2,0:0:0:0:
64,192,31614,1,2,0:0:0:0:
320,192,31930,1,0,0:0:0:0:
448,192,32246,1,0,0:0:0:0:
192,192,32561,1,0,0:0:0:0:
64,192,32877,1,2,0:0:0:0:
448,192,33193,1,0,0:0:0:0:
320,192,33509,1,0,0:0:0:0:
64,192,33825,1,0,0:0:0:0:
192,192,34140,1,2,0:0:0:0:
320,192,34456,1,0,0:0:0:0:
64,192,34772,1,0,0:0:0:0:
448,192,35088,1,0,0:0:0:0:
320,192,35404,1,2,0:0:0:0:
192,192,35719,1,0,0:0:0:0:
64,192,36035,1,2,0:0:0:0:
320,192,36667,1,10,0:0:0:0:
64,192,36825,128,8,37298:0:0:0:0:
192,192,37298,1,14,0:0:0:0:
448,192,37614,1,8,0:0:0:0:
64,192,37930,128,2,38246:0:0:0:0:
320,192,38246,1,8,0:0:0:0:
448,192,38404,1,2,0:0:0:0:
64,192,38719,1,2,0:0:0:0:
192,192,38877,1,8,0:0:0:0:
448,192,39193,128,2,39509:0:0:0:0:
192,192,39509,1,8,0:0:0:0:
64,192,39825,1,2,0:0:0:0:
448,192,40140,1,8,0:0:0:0:
64,192,40456,128,2,40772:0:0:0:0:
192,192,40772,1,8,0:0:0:0:
320,192,41088,1,8,0:0:0:0:
448,192,41088,1,2,0:0:0:0:
64,192,41404,1,2,0:0:0:0:
192,192,41404,1,8,0:0:0:0:
320,192,41719,1,8,0:0:0:0:
448,192,41719,1,2,0:0:0:0:
64,192,41877,128,8,42351:0:0:0:0:
320,192,42351,1,2,0:0:0:0:
448,192,42667,1,8,0:0:0:0:
192,192,42982,128,2,43298:0:0:0:0:
64,192,43298,1,8,0:0:0:0:
448,192,43456,1,2,0:0:0:0:
448,192,43772,1,2,0:0:0:0:
192,192,43930,1,8,0:0:0:0:
64,192,44246,128,2,44561:0:0:0:0:
448,192,44561,1,8,0:0:0:0:
192,192,44877,1,4,0:0:0:0:
320,192,44877,1,10,0:0:0:0:
448,192,45351,1,8,0:0:0:0:
64,192,45509,1,10,0:0:0:0:
448,192,45982,1,10,0:0:0:0:
64,192,46298,1,8,0:0:0:0:
320,192,46456,1,10,0:0:0:0:
64,192,46772,128,8,47088:0:0:0:0:
448,192,47246,1,8,0:0:0:0:
192,192,47404,1,10,0:0:0:0:
64,192,47877,1,8,0:0:0:0:
320,192,48035,1,10,0:0:0:0:
448,192,48509,1,10,0:0:0:0:
64,192,48825,1,8,0:0:0:0:
320,192,48982,1,2,0:0:0:0:
448,192,49298,1,8,0:0:0:0:
192,192,49614,1,8,0:0:0:0:
320,192,49772,1,8,0:0:0:0:
448,192,49930,1,10,0:0:0:0:
192,192,49930,1,4,0:0:0:0:
64,192,50246,128,10,50561:0:0:0:0:
320,192,50561,128,10,50877:0:0:0:0:
192,192,50877,128,10,51193:0:0:0:0:
448,192,51193,128,10,51667:0:0:0:0:
64,192,51667,128,0,52456:0:0:0:0:
448,192,52456,1,2,0:0:0:0:
192,192,52456,1,4,0:0:0:0:
320,192,52772,1,8,0:0:0:0:
64,192,53088,1,10,0:0:0:0:
192,192,53404,1,8,0:0:0:0:
448,192,53719,1,2,0:0:0:0:
64,192,54035,1,8,0:0:0:0:
320,192,54351,1,0,0:0:0:0:
192,192,54667,1,8,0:0:0:0:
448,192,54982,1,10,0:0:0:0:
320,192,55298,1,8,0:0:0:0:
64,192,55614,1,10,0:0:0:0:
192,192,55930,1,8,0:0:0:0:
448,192,56246,1,10,0:0:0:0:
192,192,56561,1,8,0:0:0:0:
448,192,56877,128,2,57193:0:0:0:0:
64,192,57193,128,8,57509:0:0:0:0:
320,192,57509,1,10,0:0:0:0:
192,192,57825,1,8,0:0:0:0:
448,192,58140,1,10,0:0:0:0:
64,192,58456,1,8,0:0:0:0:
320,192,58772,1,2,0:0:0:0:
192,192,59088,1,8,0:0:0:0:
448,192,59404,1,2,0:0:0:0:
64,192,59719,1,8,0:0:0:0:
192,192,60035,1,2,0:0:0:0:
448,192,60351,1,8,0:0:0:0:
64,192,60667,1,2,0:0:0:0:
320,192,60982,1,8,0:0:0:0:
192,192,61298,128,6,61614:0:0:0:0:
64,192,61614,128,10,61930:0:0:0:0:
448,192,61930,128,0,62561:0:0:0:0:
64,192,62561,1,4,0:0:0:0:
320,192,62561,1,2,0:0:0:0:
192,192,62877,1,8,0:0:0:0:
448,192,63193,1,10,0:0:0:0:
320,192,63509,1,8,0:0:0:0:
64,192,63825,1,10,0:0:0:0:
192,192,64140,1,8,0:0:0:0:
448,192,64456,1,0,0:0:0:0:
320,192,64772,1,8,0:0:0:0:
192,192,65088,1,10,0:0:0:0:
64,192,65404,1,8,0:0:0:0:
320,192,65719,1,2,0:0:0:0:
448,192,66035,1,8,0:0:0:0:
64,192,66351,1,2,0:0:0:0:
448,192,66667,1,8,0:0:0:0:
320,192,66982,1,2,0:0:0:0:
64,192,67140,128,8,67614:0:0:0:0:
320,192,67614,1,10,0:0:0:0:
448,192,67930,1,8,0:0:0:0:
192,192,68246,1,10,0:0:0:0:
64,192,68561,1,8,0:0:0:0:
448,192,68877,1,2,0:0:0:0:
192,192,69193,1,8,0:0:0:0:
320,192,69509,1,2,0:0:0:0:
64,192,69825,1,8,0:0:0:0:
320,192,70140,1,2,0:0:0:0:
448,192,70456,1,8,0:0:0:0:
192,192,70772,1,2,0:0:0:0:
64,192,71088,1,8,0:0:0:0:
448,192,71404,1,4,0:0:0:0:
320,192,71404,1,10,0:0:0:0:
64,192,71719,1,4,0:0:0:0:
192,192,71719,1,10,0:0:0:0:
320,192,72035,1,10,0:0:0:0:
448,192,72035,128,4,72667:0:0:0:0:
64,192,72667,1,4,0:0:0:0:
320,192,72667,1,2,0:0:0:0:
192,192,72982,1,8,0:0:0:0:
448,192,73298,1,2,0:0:0:0:
64,192,73614,1,8,0:0:0:0:
320,192,73930,1,2,0:0:0:0:
192,192,74246,1,8,0:0:0:0:
448,192,74561,1,2,0:0:0:0:
192,192,74877,1,8,0:0:0:0:
320,192,75193,128,10,75509:0:0:0:0:
64,192,75509,1,8,0:0:0:0:
192,192,75825,128,10,76140:0:0:0:0:
448,192,76140,1,8,0:0:0:0:
320,192,76456,1,10,0:0:0:0:
64,192,76772,1,8,0:0:0:0:
192,192,77088,128,10,77404:0:0:0:0:
448,192,77404,128,8,77719:0:0:0:0:
320,192,77719,1,2,0:0:0:0:
64,192,77719,1,4,0:0:0:0:
192,192,78035,1,8,0:0:0:0:
448,192,78351,1,2,0:0:0:0:
320,192,78667,1,8,0:0:0:0:
64,192,78982,1,2,0:0:0:0:
192,192,79298,1,8,0:0:0:0:
448,192,79614,1,2,0:0:0:0:
320,192,79930,1,8,0:0:0:0:
192,192,80246,128,10,80561:0:0:0:0:
448,192,80561,1,8,0:0:0:0:
320,192,80877,128,10,81193:0:0:0:0:
64,192,81193,1,8,0:0:0:0:
448,192,81509,128,2,81825:0:0:0:0:
320,192,81825,128,2,82140:0:0:0:0:
192,192,82140,128,8,82456:0:0:0:0:
64,192,82456,128,2,82772:0:0:0:0:
192,192,82772,1,4,0:0:0:0:
448,192,82772,1,2,0:0:0:0:
320,192,83088,1,8,0:0:0:0:
64,192,83404,1,2,0:0:0:0:
448,192,83719,1,8,0:0:0:0:
192,192,84035,1,2,0:0:0:0:
320,192,84351,1,8,0:0:0:0:
64,192,84667,1,2,0:0:0:0:
320,192,84982,1,8,0:0:0:0:
448,192,85298,128,10,85614:0:0:0:0:
192,192,85614,1,8,0:0:0:0:
64,192,85930,128,10,86246:0:0:0:0:
320,192,86246,1,8,0:0:0:0:
448,192,86561,1,10,0:0:0:0:
192,192,86877,1,8,0:0:0:0:
64,192,87193,128,10,87509:0:0:0:0:
448,192,87509,128,8,87825:0:0:0:0:
320,192,87825,1,4,0:0:0:0:
64,192,87825,1,2,0:0:0:0:
192,192,88140,1,8,0:0:0:0:
448,192,88456,1,2,0:0:0:0:
192,192,88772,1,8,0:0:0:0:
448,192,89088,1,2,0:0:0:0:
64,192,89404,1,8,0:0:0:0:
320,192,89719,1,2,0:0:0:0:
192,192,90035,1,8,0:0:0:0:
64,192,90351,128,10,90667:0:0:0:0:
320,192,90667,1,8,0:0:0:0:
448,192,90982,128,10,91298:0:0:0:0:
192,192,91298,1,8,0:0:0:0:
64,192,91614,128,2,91930:0:0:0:0:
192,192,91930,128,8,92246:0:0:0:0:
320,192,92246,128,2,92561:0:0:0:0:
448,192,92561,128,8,92798:0:0:0:0:
64,192,94140,1,0,0:0:0:0:
192,192,94456,1,0,0:0:0:0:
320,192,94772,1,2,0:0:0:0:
448,192,95404,1,0,0:0:0:0:
320,192,95719,1,0,0:0:0:0:
192,192,96035,1,2,0:0:0:0:
64,192,96667,1,0,0:0:0:0:
448,192,96982,1,0,0:0:0:0:
320,192,97298,1,2,0:0:0:0:
64,192,97614,1,0,0:0:0:0:
192,192,97930,1,0,0:0:0:0:
448,192,98246,1,2,0:0:0:0:
64,192,98561,1,2,0:0:0:0:
320,192,98877,1,0,0:0:0:0:
448,192,99193,1,0,0:0:0:0:
192,192,99509,1,0,0:0:0:0:
64,192,99825,1,2,0:0:0:0:
448,192,100140,1,0,0:0:0:0:
320,192,100456,1,0,0:0:0:0:
64,192,100772,1,0,0:0:0:0:
192,192,101088,1,2,0:0:0:0:
320,192,101404,1,0,0:0:0:0:
64,192,101719,1,0,0:0:0:0:
448,192,102035,1,0,0:0:0:0:
320,192,102351,1,2,0:0:0:0:
192,192,102667,1,0,0:0:0:0:
64,192,102982,1,2,0:0:0:0:
448,192,103614,1,10,0:0:0:0:
192,192,103772,128,8,104246:0:0:0:0:
64,192,104246,1,14,0:0:0:0:
448,192,104561,1,8,0:0:0:0:
192,192,104877,128,2,105193:0:0:0:0:
64,192,105193,1,8,0:0:0:0:
448,192,105351,1,10,0:0:0:0:
192,192,105667,1,2,0:0:0:0:
64,192,105825,1,8,0:0:0:0:
448,192,106140,128,2,106456:0:0:0:0:
192,192,106456,1,8,0:0:0:0:
64,192,106772,1,2,0:0:0:0:
320,192,107088,1,8,0:0:0:0:
192,192,107404,128,2,107719:0:0:0:0:
64,192,107719,1,8,0:0:0:0:
448,192,108035,1,8,0:0:0:0:
320,192,108035,1,2,0:0:0:0:
64,192,108351,1,8,0:0:0:0:
192,192,108351,1,2,0:0:0:0:
320,192,108667,1,8,0:0:0:0:
448,192,108667,1,2,0:0:0:0:
64,192,108825,128,8,109298:0:0:0:0:
320,192,109298,1,2,0:0:0:0:
448,192,109614,1,8,0:0:0:0:
192,192,109930,128,2,110246:0:0:0:0:
64,192,110246,1,8,0:0:0:0:
448,192,110404,1,10,0:0:0:0:
192,192,110719,1,2,0:0:0:0:
320,192,110877,1,8,0:0:0:0:
64,192,111193,128,2,111509:0:0:0:0:
448,192,111509,1,8,0:0:0:0:
320,192,111825,1,4,0:0:0:0:
192,192,111825,1,10,0:0:0:0:
448,192,112298,1,8,0:0:0:0:
64,192,112456,1,10,0:0:0:0:
448,192,112930,1,2,0:0:0:0:
192,192,113246,1,8,0:0:0:0:
320,192,113404,1,2,0:0:0:0:
64,192,113719,128,8,114035:0:0:0:0:
448,192,114193,1,8,0:0:0:0:
192,192,114351,1,2,0:0:0:0:
64,192,114825,1,8,0:0:0:0:
320,192,114982,1,10,0:0:0:0:
448,192,115456,1,2,0:0:0:0:
64,192,115772,1,8,0:0:0:0:
320,192,115930,1,2,0:0:0:0:
448,192,116246,1,8,0:0:0:0:
192,192,116561,1,8,0:0:0:0:
320,192,116719,1,8,0:0:0:0:
448,192,116877,1,4,0:0:0:0:
192,192,116877,1,10,0:0:0:0:
64,192,117193,128,10,117509:0:0:0:0:
192,192,117509,128,10,117825:0:0:0:0:
320,192,117825,128,10,118140:0:0:0:0:
448,192,118140,128,10,118456:0:0:0:0:
64,192,118456,128,8,118772:0:0:0:0:
192,192,118772,128,8,119088:0:0:0:0:
320,192,119088,128,8,119404:0:0:0:0:
448,192,119404,1,2,0:0:0:0:
64,192,119404,1,4,0:0:0:0:
192,192,119719,1,8,0:0:0:0:
320,192,120035,1,10,0:0:0:0:
192,192,120351,1,8,0:0:0:0:
448,192,120667,1,2,0:0:0:0:
320,192,120982,1,8,0:0:0:0:
64,192,121298,1,0,0:0:0:0:
192,192,121614,1,8,0:0:0:0:
448,192,121930,1,10,0:0:0:0:
64,192,122246,1,8,0:0:0:0:
320,192,122561,1,10,0:0:0:0:
192,192,122877,1,8,0:0:0:0:
448,192,123193,1,10,0:0:0:0:
320,192,123509,1,8,0:0:0:0:
64,192,123825,128,2,124140:0:0:0:0:
448,192,124140,128,8,124456:0:0:0:0:
320,192,124456,1,10,0:0:0:0:
64,192,124772,1,8,0:0:0:0:
320,192,125088,1,10,0:0:0:0:
448,192,125404,1,8,0:0:0:0:
192,192,125719,1,2,0:0:0:0:
64,192,126035,1,8,0:0:0:0:
320,192,126351,1,2,0:0:0:0:
448,192,126667,1,8,0:0:0:0:
192,192,126982,1,10,0:0:0:0:
64,192,127298,1,8,0:0:0:0:
320,192,127614,1,2,0:0:0:0:
64,192,127930,1,8,0:0:0:0:
192,192,128246,128,6,128561:0:0:0:0:
320,192,128561,128,8,128877:0:0:0:0:
448,192,128877,128,2,129509:0:0:0:0:
320,192,129509,1,8,0:0:0:0:
64,192,129509,1,2,0:0:0:0:
192,192,129825,1,8,0:0:0:0:
64,192,130140,1,10,0:0:0:0:
448,192,130456,1,8,0:0:0:0:
192,192,130772,1,2,0:0:0:0:
64,192,131088,1,8,0:0:0:0:
320,192,131404,1,0,0:0:0:0:
448,192,131719,1,8,0:0:0:0:
192,192,132035,1,10,0:0:0:0:
448,192,132351,1,8,0:0:0:0:
320,192,132667,1,2,0:0:0:0:
64,192,132982,1,8,0:0:0:0:
448,192,133298,1,2,0:0:0:0:
64,192,133614,1,8,0:0:0:0:
320,192,133930,1,2,0:0:0:0:
64,192,134088,128,8,134561:0:0:0:0:
320,192,134561,1,10,0:0:0:0:
448,192,134877,1,8,0:0:0:0:
64,192,135193,1,10,0:0:0:0:
448,192,135509,1,8,0:0:0:0:
192,192,135825,1,2,0:0:0:0:
320,192,136140,1,8,0:0:0:0:
64,192,136456,1,2,0:0:0:0:
448,192,136772,1,8,0:0:0:0:
192,192,137088,1,2,0:0:0:0:
320,192,137404,1,8,0:0:0:0:
64,192,137719,1,2,0:0:0:0:
192,192,138035,1,8,0:0:0:0:
320,192,138351,128,14,138667:0:0:0:0:
64,192,138667,128,14,138982:0:0:0:0:
448,192,138982,128,14,139614:0:0:0:0:
64,192,139614,1,6,0:0:0:0:
192,192,139930,1,8,0:0:0:0:
448,192,140246,1,2,0:0:0:0:
192,192,140561,1,8,0:0:0:0:
64,192,140877,1,2,0:0:0:0:
320,192,141193,1,8,0:0:0:0:
448,192,141509,1,2,0:0:0:0:
64,192,141825,1,8,0:0:0:0:
320,192,142140,1,2,0:0:0:0:
64,192,142456,1,8,0:0:0:0:
192,192,142772,1,2,0:0:0:0:
448,192,143088,1,8,0:0:0:0:
64,192,143404,128,6,144035:0:0:0:0:
448,192,144035,128,6,144667:0:0:0:0:
320,192,144667,1,10,0:0:0:0:
192,192,144982,1,8,0:0:0:0:
448,192,145298,1,2,0:0:0:0:
320,192,145614,1,8,0:0:0:0:
64,192,145930,1,2,0:0:0:0:
192,192,146246,1,8,0:0:0:0:
448,192,146561,1,2,0:0:0:0:
192,192,146877,1,8,0:0:0:0:
448,192,147193,1,2,0:0:0:0:
320,192,147509,1,8,0:0:0:0:
64,192,147825,1,2,0:0:0:0:
192,192,147982,1,2,0:0:0:0:
448,192,148140,1,8,0:0:0:0:
320,192,148298,1,6,0:0:0:0:
64,192,148614,1,2,0:0:0:0:
448,192,148772,1,8,0:0:0:0:
192,192,148930,1,2,0:0:0:0:
320,192,149088,128,8,149719:0:0:0:0:
192,192,149719,1,8,0:0:0:0:
64,192,150035,1,8,0:0:0:0:
320,192,150351,1,2,0:0:0:0:
448,192,150667,1,8,0:0:0:0:
192,192,150982,1,2,0:0:0:0:
64,192,151298,1,8,0:0:0:0:
448,192,151614,1,2,0:0:0:0:
320,192,151930,1,8,0:0:0:0:
64,192,152246,1,2,0:0:0:0:
192,192,152561,1,8,0:0:0:0:
448,192,152877,1,2,0:0:0:0:
320,192,153193,1,8,0:0:0:0:
64,192,153509,1,2,0:0:0:0:
192,192,153825,1,8,0:0:0:0:
448,192,154140,1,2,0:0:0:0:
320,192,154456,128,8,154772:0:0:0:0:
64,192,154772,1,10,0:0:0:0:
448,192,155088,1,8,0:0:0:0:
64,192,155404,1,2,0:0:0:0:
320,192,155719,1,8,0:0:0:0:
448,192,156035,1,2,0:0:0:0:
192,192,156351,1,8,0:0:0:0:
448,192,156667,1,2,0:0:0:0:
64,192,156982,1,8,0:0:0:0:
320,192,157298,1,6,0:0:0:0:
448,192,157298,1,0,0:0:0:0:
192,192,157614,1,8,0:0:0:0:
448,192,157930,1,2,0:0:0:0:
320,192,158246,1,8,0:0:0:0:
64,192,158561,1,10,0:0:0:0:
448,192,158719,1,10,0:0:0:0:
192,192,158877,1,10,0:0:0:0:
64,192,159035,1,10,0:0:0:0:
320,192,159193,1,10,0:0:0:0:
448,192,159351,1,10,0:0:0:0:
64,192,159509,128,8,159746:0:0:0:0:
192,192,161088,1,0,0:0:0:0:
320,192,161719,1,0,0:0:0:0:
448,192,162351,1,0,0:0:0:0:
64,192,162982,1,0,0:0:0:0:
448,192,163298,1,0,0:0:0:0:
320,192,163614,1,0,0:0:0:0:
64,192,164246,1,0,0:0:0:0:
448,192,164877,1,0,0:0:0:0:
192,192,165509,1,0,0:0:0:0:
64,192,166140,1,2,0:0:0:0:
192,192,166456,1,2,0:0:0:0:
320,192,166772,1,2,0:0:0:0:
448,192,167088,1,2,0:0:0:0:
64,192,167404,1,2,0:0:0:0:
192,192,167719,1,2,0:0:0:0:
320,192,168035,1,2,0:0:0:0:
448,192,168351,1,2,0:0:0:0:
64,192,168667,1,2,0:0:0:0:
192,192,168982,1,2,0:0:0:0:
320,192,169298,1,2,0:0:0:0:
448,192,169614,1,2,0:0:0:0:
448,192,171193,128,0,171509:0:0:0:0:
64,192,171509,1,4,0:0:0:0:
320,192,171509,1,10,0:0:0:0:
192,192,171825,1,10,0:0:0:0:
448,192,172140,1,8,0:0:0:0:
320,192,172456,1,2,0:0:0:0:
64,192,172772,1,8,0:0:0:0:
192,192,173088,1,0,0:0:0:0:
448,192,173404,1,8,0:0:0:0:
192,192,173719,1,2,0:0:0:0:
64,192,174035,1,8,0:0:0:0:
320,192,174351,1,2,0:0:0:0:
448,192,174667,1,8,0:0:0:0:
64,192,174982,1,2,0:0:0:0:
448,192,175298,1,8,0:0:0:0:
64,192,175614,128,2,175930:0:0:0:0:
448,192,175930,128,8,176246:0:0:0:0:
192,192,176246,1,10,0:0:0:0:
64,192,176561,1,8,0:0:0:0:
320,192,176877,1,10,0:0:0:0:
448,192,177193,1,8,0:0:0:0:
192,192,177509,1,2,0:0:0:0:
448,192,177825,1,8,0:0:0:0:
64,192,178140,1,2,0:0:0:0:
448,192,178456,1,8,0:0:0:0:
320,192,178772,1,2,0:0:0:0:
64,192,179088,1,8,0:0:0:0:
192,192,179404,1,2,0:0:0:0:
448,192,179719,1,8,0:0:0:0:
64,192,180035,128,6,180351:0:0:0:0:
192,192,180351,128,2,180667:0:0:0:0:
448,192,180667,128,2,181298:0:0:0:0:
64,192,181298,1,2,0:0:0:0:
320,192,181298,1,4,0:0:0:0:
192,192,181614,1,8,0:0:0:0:
448,192,181930,1,10,0:0:0:0:
320,192,182246,1,8,0:0:0:0:
64,192,182561,1,2,0:0:0:0:
448,192,182877,1,8,0:0:0:0:
64,192,183193,1,0,0:0:0:0:
448,192,183509,1,8,0:0:0:0:
320,192,183825,1,2,0:0:0:0:
64,192,184140,1,8,0:0:0:0:
320,192,184456,1,2,0:0:0:0:
448,192,184772,1,8,0:0:0:0:
192,192,185088,1,2,0:0:0:0:
320,192,185404,1,8,0:0:0:0:
448,192,185719,1,2,0:0:0:0:
64,192,186035,128,8,186351:0:0:0:0:
192,192,186351,1,10,0:0:0:0:
448,192,186667,1,8,0:0:0:0:
192,192,186982,1,10,0:0:0:0:
320,192,187298,1,8,0:0:0:0:
64,192,187614,1,2,0:0:0:0:
192,192,187930,1,8,0:0:0:0:
448,192,188246,1,2,0:0:0:0:
64,192,188561,1,8,0:0:0:0:
320,192,188877,1,2,0:0:0:0:
448,192,189193,1,8,0:0:0:0:
64,192,189509,1,2,0:0:0:0:
192,192,189825,1,8,0:0:0:0:
448,192,190140,128,14,190456:0:0:0:0:
64,192,190456,128,14,190772:0:0:0:0:
320,192,190772,128,0,191088:0:0:0:0:
192,192,191404,1,6,0:0:0:0:
64,192,191719,1,8,0:0:0:0:
448,192,192035,1,2,0:0:0:0:
64,192,192351,1,8,0:0:0:0:
320,192,192667,1,2,0:0:0:0:
192,192,192982,1,8,0:0:0:0:
448,192,193298,1,2,0:0:0:0:
192,192,193614,1,8,0:0:0:0:
320,192,193930,128,10,194246:0:0:0:0:
64,192,194246,1,8,0:0:0:0:
192,192,194561,128,10,194877:0:0:0:0:
448,192,194877,1,8,0:0:0:0:
320,192,195193,1,10,0:0:0:0:
64,192,195509,1,8,0:0:0:0:
192,192,195825,128,10,196140:0:0:0:0:
448,192,196140,128,8,196456:0:0:0:0:
320,192,196456,1,6,0:0:0:0:
64,192,196772,1,8,0:0:0:0:
320,192,197088,1,2,0:0:0:0:
192,192,197404,1,8,0:0:0:0:
448,192,197719,1,2,0:0:0:0:
320,192,198035,1,8,0:0:0:0:
64,192,198351,1,2,0:0:0:0:
320,192,198667,1,8,0:0:0:0:
192,192,198982,128,10,199298:0:0:0:0:
448,192,199298,1,8,0:0:0:0:
320,192,199614,128,10,199930:0:0:0:0:
64,192,199930,1,8,0:0:0:0:
448,192,200246,128,10,200561:0:0:0:0:
320,192,200561,128,8,200877:0:0:0:0:
192,192,200877,128,2,201193:0:0:0:0:
64,192,201193,128,2,201509:0:0:0:0:
320,192,201509,1,6,0:0:0:0:
448,192,201825,1,8,0:0:0:0:
192,192,202140,1,2,0:0:0:0:
64,192,202456,1,8,0:0:0:0:
320,192,202772,1,2,0:0:0:0:
64,192,203088,1,8,0:0:0:0:
448,192,203404,1,2,0:0:0:0:
320,192,203719,1,8,0:0:0:0:
448,192,204035,128,10,204351:0:0:0:0:
192,192,204351,1,8,0:0:0:0:
64,192,204667,128,10,204982:0:0:0:0:
320,192,204982,1,8,0:0:0:0:
448,192,205298,1,10,0:0:0:0:
192,192,205614,1,8,0:0:0:0:
64,192,205930,128,10,206246:0:0:0:0:
448,192,206246,128,8,206561:0:0:0:0:
320,192,206561,1,6,0:0:0:0:
192,192,206877,1,8,0:0:0:0:
448,192,207193,1,2,0:0:0:0:
64,192,207509,1,8,0:0:0:0:
320,192,207825,1,2,0:0:0:0:
448,192,208140,1,8,0:0:0:0:
64,192,208456,1,2,0:0:0:0:
192,192,208772,1,8,0:0:0:0:
64,192,209088,128,10,209404:0:0:0:0:
320,192,209404,1,8,0:0:0:0:
448,192,209719,128,10,210035:0:0:0:0:
192,192,210035,1,8,0:0:0:0:
64,192,210351,128,2,210667:0:0:0:0:
192,192,210667,128,8,210982:0:0:0:0:
320,192,210982,128,2,211298:0:0:0:0:
448,192,211298,128,8,211535:0:0:0:0:
